osu file format v14

[General]
AudioFilename: Tohoku Travel-Reprise - Wada Hiromi.mp3
AudioLeadIn: 0
PreviewTime: 86001
Countdown: 0
SampleSet: Soft
StackLeniency: 0.7
Mode: 0
LetterboxInBreaks: 0
WidescreenStoryboard: 0

[Editor]
DistanceSpacing: 1.2
BeatDivisor: 4
GridSize: 32
TimelineZoom: 1

[Metadata]
Title:Tohoku Travel (Reprise)
TitleUnicode:雪映移城 Reprise
Artist:Hiromi
ArtistUnicode:裕美
Creator:XiaofengTiger
Version:Normal
Source:Tohoku Travel
Tags:和田裕美 Japan trip Snow winter 香港TVB TVB show piano instrumental 王翠玲 旅游 日本 香港无线电视台 邓智伟 piano xylophone
BeatmapID:842156
BeatmapSetID:385570

[Difficulty]
HPDrainRate:3
CircleSize:3.7
OverallDifficulty:4
ApproachRate:4.5
SliderMultiplier:1.4
SliderTickRate:1

[Events]
//Background and Video events
0,0,"0520f8ff86de3cb0878470e50a853b32.jpg",0,0
//Break Periods
2,25344,30313
//Storyboard Layer 0 (Background)
//Storyboard Layer 1 (Fail)
//Storyboard Layer 2 (Pass)
//Storyboard Layer 3 (Foreground)
//Storyboard Sound Samples

[TimingPoints]
-2284,857.142857142857,4,2,1,60,1,0
86858,-100,4,2,1,60,0,1
110858,-100,4,2,1,60,0,0
131430,-100,4,2,1,5,0,0

[Colours]
Combo1 : 164,255,255
Combo2 : 255,243,164
Combo3 : 251,182,254
Combo4 : 155,155,255

[HitObjects]
361,74,287,5,2,0:0:0:0:
433,116,715,1,0,0:0:0:0:
383,184,1144,6,0,P|378:253|385:323,1,140,0|2,0:0|0:0,0:0:0:0:
303,311,2430,1,0,0:0:0:0:
228,349,2858,2,0,P|158:342|88:349,1,140,0|2,0:0|0:0,0:0:0:0:
15,307,4144,1,0,0:0:0:0:
54,232,4573,5,4,0:0:0:0:
7,162,5001,2,0,P|1:116|10:82,1,70
85,68,5858,1,0,0:0:0:0:
165,91,6287,2,0,P|171:137|162:171,1,70
138,239,7144,1,2,0:0:0:0:
204,290,7573,1,0,0:0:0:0:
270,238,8001,6,0,P|234:168|257:104,1,140,0|2,0:0|0:0,0:0:0:0:
323,72,9287,1,0,0:0:0:0:
395,113,9715,2,0,P|410:179|375:238,1,140,0|2,0:0|0:0,0:0:0:0:
238,335,11430,5,4,0:0:0:0:
160,301,11858,1,0,0:0:0:0:
78,323,12287,2,0,P|81:288|80:253,1,70
45,176,13144,2,0,P|44:141|47:106,1,70
106,47,14001,1,2,0:0:0:0:
106,47,14430,1,0,0:0:0:0:
149,118,14858,6,0,P|188:114|219:105,1,70
258,32,15715,1,2,0:0:0:0:
258,32,16144,1,0,0:0:0:0:
316,94,16573,2,0,P|384:83|453:95,1,140
429,261,18287,6,0,L|448:347,1,70,4|0,0:0|0:0,0:0:0:0:
363,301,19144,2,0,L|347:232,1,70
278,280,20001,1,0,0:0:0:0:
288,363,20430,1,0,0:0:0:0:
210,329,20858,2,0,P|177:317|139:315,1,70,2|0,0:0|0:0,0:0:0:0:
58,311,21715,6,0,L|86:166,1,140,0|2,0:0|0:0,0:0:0:0:
167,157,23001,1,0,0:0:0:0:
224,218,23430,2,0,P|250:157|219:92,1,140
386,68,25144,5,4,0:0:0:0:
111,105,31573,5,0,0:0:0:0:
57,169,32001,6,0,P|51:203|60:236,1,70,2|0,0:0|0:0,0:0:0:0:
85,316,32858,2,0,P|120:309|155:310,1,70
209,245,33715,1,2,0:0:0:0:
232,325,34144,1,0,0:0:0:0:
289,263,34573,2,0,P|315:285|349:295,1,70
417,344,35430,5,2,0:0:0:0:
478,286,35858,1,0,0:0:0:0:
409,237,36287,2,0,L|411:164,1,70
493,118,37144,2,0,P|472:89|441:75,1,70
378,19,38001,2,0,B|353:46|356:83,1,70
274,104,38858,5,2,0:0:0:0:
212,46,39287,1,0,0:0:0:0:
128,37,39715,2,0,P|115:70|91:95,1,70
28,151,40573,1,2,0:0:0:0:
28,151,41001,1,0,0:0:0:0:
104,186,41430,2,0,P|105:222|92:255,1,70
36,315,42287,6,0,P|67:329|98:346,1,70,2|0,0:0|0:0,0:0:0:0:
158,288,43144,1,0,0:0:0:0:
197,362,43573,1,0,0:0:0:0:
244,292,44001,2,0,L|313:295,1,70
282,372,44858,2,0,L|352:367,1,70
404,301,45715,5,2,0:0:0:0:
353,233,46144,1,0,0:0:0:0:
271,213,46573,2,0,P|236:209|201:202,1,70
132,249,47430,2,0,P|108:275|93:307,1,70,2|0,0:0|0:0,0:0:0:0:
140,375,48287,1,0,0:0:0:0:
208,326,48715,6,0,L|207:182,1,140,6|0,0:0|0:0,0:0:0:0:
137,138,50001,1,0,0:0:0:0:
153,55,50430,2,0,P|187:56|222:50,1,70,0|2,0:0|0:0,0:0:0:0:
465,116,52144,2,0,L|484:175,1,35
491,188,52573,6,0,P|484:222|464:250,1,70,2|0,0:0|0:0,0:0:0:0:
434,279,53215,1,0,0:0:0:0:
324,341,53858,2,0,L|290:351,1,35
253,331,54287,2,0,P|219:320|185:324,1,70,2|0,0:0|0:0,0:0:0:0:
145,338,54930,1,0,0:0:0:0:
35,274,55573,1,0,0:0:0:0:
104,225,56001,6,0,P|117:192|123:158,1,70
206,171,56858,2,0,P|192:203|186:237,1,70
225,311,57715,1,0,0:0:0:0:
375,236,58573,2,0,P|375:201|374:166,1,70
338,89,59430,6,0,P|270:109|190:102,1,140,2|0,0:0|0:0,0:0:0:0:
136,52,60715,1,0,0:0:0:0:
65,6,61144,2,0,P|53:38|55:75,1,70,2|0,0:0|0:0,0:0:0:0:
23,151,62001,1,0,0:0:0:0:
84,208,62430,1,0,0:0:0:0:
165,186,62858,6,0,P|199:196|234:193,1,70,2|0,0:0|0:0,0:0:0:0:
318,186,63715,2,0,P|307:220|305:254,1,70
227,288,64573,2,0,P|278:334|346:329,1,140
426,352,65858,1,0,0:0:0:0:
467,279,66287,6,0,P|464:244|469:209,1,70,2|0,0:0|0:0,0:0:0:0:
411,148,67144,1,0,0:0:0:0:
490,121,67573,1,0,0:0:0:0:
446,47,68001,2,0,P|415:64|380:69,1,70,2|0,0:0|0:0,0:0:0:0:
298,55,68858,1,0,0:0:0:0:
228,102,69287,1,0,0:0:0:0:
249,182,69715,6,0,P|246:217|224:244,1,70,2|0,0:0|0:0,0:0:0:0:
147,276,70573,2,0,P|125:303|122:338,1,70
192,382,71430,1,0,0:0:0:0:
211,215,72287,2,0,P|245:205|280:200,1,70
343,254,73144,5,2,0:0:0:0:
484,163,74001,2,0,P|487:118|480:89,1,70
415,44,74858,2,0,P|378:43|340:25,1,70,2|0,0:0|0:0,0:0:0:0:
312,106,75715,2,0,P|278:87|234:91,1,70,0|6,0:0|0:0,0:0:0:0:
194,152,76573,6,0,P|146:156|105:143,2,70
276,165,77858,1,0,0:0:0:0:
258,247,78287,2,0,P|248:315|269:382,1,140,2|0,0:0|0:0,0:0:0:0:
351,363,79573,2,0,L|417:380,1,35
421,350,80001,5,2,0:0:0:0:
490,106,81287,2,0,P|466:80|460:46,1,70,2|2,0:0|0:0,0:0:0:0:
376,57,82144,2,0,P|381:91|368:123,1,70,2|2,0:0|0:0,0:0:0:0:
345,204,83001,6,0,P|276:194|206:192,1,140,2|0,0:0|0:0,0:0:0:0:
161,120,84287,1,0,0:0:0:0:
106,56,84715,1,2,0:0:0:0:
153,304,86001,1,0,0:0:0:0:
233,281,86430,1,0,0:0:0:0:
307,319,86858,6,0,P|317:251|351:189,1,140,4|0,0:0|0:0,0:0:0:0:
426,226,88144,1,0,0:0:0:0:
437,142,88573,2,0,P|366:92|306:101,1,140
159,38,90287,5,2,0:0:0:0:
77,58,90715,2,0,P|80:75|81:92,1,35
44,113,91144,2,0,P|37:127|33:145,1,35
67,169,91573,2,0,P|70:186|71:203,1,35
39,231,92001,6,0,P|43:247|52:262,1,35
92,275,92430,2,0,P|101:289|105:306,1,35
137,332,92858,1,0,0:0:0:0:
219,348,93287,1,0,0:0:0:0:
301,333,93715,5,4,0:0:0:0:
469,330,94573,2,0,P|456:297|458:262,1,70
497,186,95430,1,0,0:0:0:0:
386,59,96287,1,0,0:0:0:0:
220,43,97144,5,2,0:0:0:0:
135,54,97573,2,0,P|146:88|170:112,1,70
235,266,98858,2,0,P|251:295|251:330,1,70
172,359,99715,1,0,0:0:0:0:
89,341,100144,1,0,0:0:0:0:
30,280,100573,5,4,0:0:0:0:
175,196,101430,2,0,P|184:162|184:127,1,70
244,68,102287,2,0,P|319:84|388:75,1,140
381,76,104001,5,2,0:0:0:0:
432,142,104430,2,0,L|416:192,1,35
381,162,104858,2,0,L|365:212,1,35
332,176,105287,2,0,L|316:226,1,35
282,193,105715,6,0,L|266:243,1,35
230,216,106144,2,0,L|214:266,1,35
179,234,106573,2,0,L|163:284,1,35
126,264,107001,2,0,L|110:314,1,35
76,314,107430,5,4,0:0:0:0:
16,157,108287,2,0,P|3:126|9:85,1,70
70,35,109144,2,0,P|136:17|215:39,1,140
365,84,110858,5,2,0:0:0:0:
440,123,111287,1,0,0:0:0:0:
368,165,111715,1,0,0:0:0:0:
440,207,112144,1,0,0:0:0:0:
371,256,112573,2,0,P|338:267|307:284,1,70
226,309,113430,1,0,0:0:0:0:
124,173,114287,6,0,P|134:131|127:94,1,70,4|0,0:0|0:0,0:0:0:0:
209,75,115144,2,0,P|230:102|261:117,1,70
344,132,116001,2,0,P|354:98|382:75,1,70
425,146,116858,2,0,P|449:171|455:207,1,70
371,210,117715,5,2,0:0:0:0:
311,150,118144,2,0,P|281:131|248:119,1,70
176,161,119001,1,0,0:0:0:0:
96,134,119430,2,0,P|64:119|40:94,1,70
16,175,120287,2,0,P|19:209|9:243,1,70
79,289,121144,6,0,P|145:310|214:308,1,140,6|0,0:0|0:0,0:0:0:0:
227,225,122430,1,0,0:0:0:0:
291,278,122858,2,0,P|359:263|429:259,1,140,6|0,0:0|0:0,0:0:0:0:
303,147,124573,1,2,0:0:0:0:
256,192,125001,12,4,131858,0:0:0:0:
