osu file format v14

[General]
AudioFilename: audio.mp3
AudioLeadIn: 0
PreviewTime: 161913
Countdown: 1
SampleSet: Soft
StackLeniency: 0.7
Mode: 0
LetterboxInBreaks: 0
WidescreenStoryboard: 1

[Editor]
Bookmarks: 13341,36198,47627,116198,139055,221913,233341,239055
DistanceSpacing: 0.8
BeatDivisor: 4
GridSize: 4
TimelineZoom: 0.9

[Metadata]
Title:One night
TitleUnicode:One night
Artist:Hiroko Inoue
ArtistUnicode:井上ヒロコ
Creator:Gust
Version:Hard
Source:銀河鉄道の夜
Tags:Miyazawa kenji Ginga Tetsudo no Yoru Kagaya Rei piano
BeatmapID:1497527
BeatmapSetID:707020

[Difficulty]
HPDrainRate:4
CircleSize:3.8
OverallDifficulty:4
ApproachRate:6
SliderMultiplier:1.6
SliderTickRate:2

[Events]
//Background and Video events
0,0,"B.png",0,0
//Break Periods
2,116182,138006
//Storyboard Layer 0 (Background)
//Storyboard Layer 1 (Fail)
//Storyboard Layer 2 (Pass)
//Storyboard Layer 3 (Foreground)
//Storyboard Sound Samples

[TimingPoints]
-924,714.185714285714,4,2,1,10,1,0
36213,-100,4,2,1,30,0,0
116202,-100,4,2,1,20,0,0
161910,-100,4,2,1,40,0,0
162981,-100,4,2,1,50,0,0
163695,-100,4,2,1,55,0,0
164052,-100,4,2,1,60,0,0
164409,-100,4,2,1,70,0,0
164767,-100,4,2,1,40,0,1
187587,-100,4,2,1,30,0,1
210117,-100,4,2,1,20,0,0
221930,714.185714285714,4,2,1,15,1,0
241938,714.185714285714,4,2,1,15,1,0

[Colours]
Combo1 : 0,255,255
Combo2 : 98,98,255
Combo3 : 18,124,255

[HitObjects]
32,72,1575,5,0,0:0:0:0:
84,137,1754,1,0,0:0:0:0:
114,62,1932,2,0,P|148:80|163:116,1,80,2|0,0:0|0:0,0:0:0:0:
191,193,2468,2,0,P|225:174|240:138,1,80,2|0,0:0|0:0,0:0:0:0:
356,28,3182,5,0,0:0:0:0:
310,94,3361,2,0,P|344:113|382:105,1,80,2|0,0:0|0:0,0:0:0:0:
440,50,3896,2,0,P|474:68|489:104,1,80,2|0,0:0|0:0,0:0:0:0:
418,248,4610,5,0,0:0:0:0:
404,327,4789,2,0,L|320:336,1,80,2|0,0:0|0:0,0:0:0:0:
340,256,5325,2,0,L|185:273,1,120,2|0,0:0|0:0,0:0:0:0:
200,346,6039,1,0,0:0:0:0:
139,293,6217,2,0,P|105:214|27:175,1,160,2|0,0:0|0:0,0:0:0:0:
147,55,7289,5,0,0:0:0:0:
147,55,7467,1,0,0:0:0:0:
132,133,7646,2,0,P|197:117|213:77,1,80,2|0,0:0|0:0,0:0:0:0:
236,37,8181,2,0,L|324:44,1,80,2|0,0:0|0:0,0:0:0:0:
401,179,8896,5,0,0:0:0:0:
412,100,9074,2,0,P|372:99|341:123,1,80,2|0,0:0|0:0,0:0:0:0:
322,201,9610,2,0,L|235:195,1,80,2|0,0:0|0:0,0:0:0:0:
200,346,10324,1,0,0:0:0:0:
239,276,10502,5,2,0:0:0:0:
60,140,11217,1,2,0:0:0:0:
268,60,11931,1,2,0:0:0:0:
268,60,12645,6,0,P|288:56|328:56,1,40,2|0,0:0|0:0,0:0:0:0:
380,20,13002,2,0,P|396:31|425:59,1,40,0|0,0:0|0:0,0:0:0:0:
488,64,13359,6,0,P|476:116|448:160,1,80,2|0,0:0|0:0,0:0:0:0:
448,220,13895,2,0,P|404:200|392:184,1,40,0|0,0:0|0:0,0:0:0:0:
380,132,14252,2,0,P|324:132|268:180,1,120,2|2,0:0|0:0,0:0:0:0:
136,84,15145,1,2,0:0:0:0:
124,244,15502,2,0,P|192:248|224:280,1,80,2|0,0:0|0:0,0:0:0:0:
256,312,16037,1,0,0:0:0:0:
311,253,16216,6,0,P|348:238|388:244,1,80,2|0,0:0|0:0,0:0:0:0:
456,284,16752,1,0,0:0:0:0:
452,204,16930,2,0,P|448:156|476:128,2,80,2|0|2,0:0|0:0|0:0,0:0:0:0:
296,168,18001,1,0,0:0:0:0:
392,40,18359,1,2,0:0:0:0:
392,40,18716,6,0,L|336:48,1,40,2|0,0:0|0:0,0:0:0:0:
280,16,19073,2,0,P|232:16|180:52,1,80,2|0,0:0|0:0,0:0:0:0:
124,16,19608,2,0,P|104:56|104:104,1,80,2|0,0:0|0:0,0:0:0:0:
136,164,20144,2,0,P|172:124|172:108,1,40,2|0,0:0|0:0,0:0:0:0:
236,104,20501,5,2,0:0:0:0:
380,176,20858,2,0,P|328:196|312:204,1,40
288,248,21215,2,0,P|232:236|160:272,1,120,2|0,0:0|0:0,0:0:0:0:
104,212,21929,5,2,0:0:0:0:
27,107,22287,1,0,0:0:0:0:
151,147,22644,1,2,0:0:0:0:
27,187,23001,2,0,P|20:208|16:248,2,40,0|0|2,0:0|0:0|0:0,0:0:0:0:
104,82,23715,1,0,0:0:0:0:
224,40,24072,1,2,0:0:0:0:
352,44,24429,6,0,P|404:56|420:48,1,40,0|0,0:0|0:0,0:0:0:0:
460,20,24786,2,0,P|476:64|464:116,1,80,2|0,0:0|0:0,0:0:0:0:
416,156,25322,2,0,L|448:200,1,40,2|0,0:0|0:0,0:0:0:0:
416,264,25679,2,0,P|372:248|336:248,1,80,2|0,0:0|0:0,0:0:0:0:
296,316,26215,2,0,L|208:328,1,80,2|0,0:0|0:0,0:0:0:0:
160,272,26750,2,0,P|96:284|64:320,1,80,2|0,0:0|0:0,0:0:0:0:
224,216,27464,5,0,0:0:0:0:
148,192,27643,2,0,P|144:152|172:104,1,80,2|0,0:0|0:0,0:0:0:0:
96,68,28179,1,0,0:0:0:0:
172,40,28357,2,0,P|204:28|268:40,1,80,2|0,0:0|0:0,0:0:0:0:
292,100,28893,1,0,0:0:0:0:
332,32,29071,2,0,P|371:27|409:40,2,80,2|0|2,0:0|0:0|0:0,0:0:0:0:
440,152,30143,6,0,L|396:156,1,40,0|0,0:0|0:0,0:0:0:0:
324,136,30500,2,0,P|312:208|320:228,2,80,2|0|2,0:0|0:0|0:0,0:0:0:0:
292,292,31571,6,0,L|336:296,1,40,0|0,0:0|0:0,0:0:0:0:
408,276,31928,2,0,P|420:348|412:368,2,80,2|0|2,0:0|0:0|0:0,0:0:0:0:
224,252,32999,6,0,L|180:256,1,40,0|0,0:0|0:0,0:0:0:0:
139,319,33356,1,2,0:0:0:0:
15,279,33714,1,0,0:0:0:0:
92,384,34071,1,2,0:0:0:0:
92,254,34428,1,0,0:0:0:0:
15,359,34785,1,2,0:0:0:0:
92,254,35499,2,0,L|100:240,2,13.3333333333333,2|0|0,0:0|0:0|0:0,0:0:0:0:
32,48,36213,5,2,0:0:0:0:
112,148,36570,1,0,0:0:0:0:
112,148,36749,2,0,L|132:92,1,40,2|8,0:0|0:0,0:0:0:0:
192,68,37106,2,0,P|204:120|184:168,1,80,0|4,0:0|0:0,0:0:0:0:
164,216,37642,5,6,0:0:0:0:
324,192,37999,1,4,0:0:0:0:
276,128,38177,2,0,L|296:72,1,40,2|0,0:0|0:0,0:0:0:0:
356,48,38534,2,0,P|368:100|348:148,1,80,0|0,0:0|0:0,0:0:0:0:
400,196,39070,6,0,L|488:192,1,80,6|0,0:0|0:0,0:0:0:0:
488,272,39606,2,0,P|436:308|348:304,1,120,2|0,0:0|0:0,0:0:0:0:
316,364,40320,1,4,0:0:0:0:
304,284,40498,2,0,L|204:292,2,80,4|4|8,0:0|0:0|0:0,0:0:0:0:
304,284,41570,1,0,0:0:0:0:
304,284,41748,1,0,0:0:0:0:
336,212,41927,5,6,0:0:0:0:
492,188,42284,1,0,0:0:0:0:
424,148,42462,2,0,L|440:100,1,40,2|8,0:0|0:0,0:0:0:0:
476,40,42819,2,0,P|436:28|380:64,1,80,0|4,0:0|0:0,0:0:0:0:
348,100,43355,5,6,0:0:0:0:
218,194,43712,1,0,0:0:0:0:
271,134,43891,2,0,L|259:84,1,40,2|8,0:0|0:0,0:0:0:0:
256,15,44248,2,0,P|215:24|184:83,1,80,0|4,0:0|0:0,0:0:0:0:
134,108,44783,5,6,0:0:0:0:
255,315,45498,1,14,0:0:0:0:
366,102,46212,2,0,L|462:102,2,80,6|4|8,0:0|0:0|0:0,0:0:0:0:
260,48,47283,6,0,P|212:60|192:72,1,40,0|0,0:0|0:0,0:0:0:0:
148,24,47640,2,0,P|120:60|112:104,1,80,6|0,0:0|0:0,0:0:0:0:
40,132,48176,2,0,P|72:160|92:164,1,40,0|8,0:0|0:0,0:0:0:0:
148,168,48533,2,0,P|188:148|252:152,1,80,0|4,0:0|0:0,0:0:0:0:
300,164,49068,2,0,P|314:108|297:62,1,80,0|4,0:0|0:0,0:0:0:0:
369,33,49604,2,0,P|391:57|409:89,1,40,2|8,0:0|0:0,0:0:0:0:
475,61,49961,2,0,P|471:94|450:143,1,80
404,200,50497,6,0,P|428:228|480:236,2,80,6|0|8,0:0|0:0|0:0,0:0:0:0:
271,289,51568,1,0,0:0:0:0:
295,213,51747,1,4,0:0:0:0:
219,233,51925,2,0,P|171:241|127:221,2,80,6|4|8,0:0|0:0|0:0,0:0:0:0:
128,100,52997,5,2,0:0:0:0:
48,88,53175,1,0,0:0:0:0:
96,24,53354,2,0,P|164:16|232:40,1,120,4|0,0:0|0:0,0:0:0:0:
276,80,54068,2,0,P|328:80|376:60,1,80,8|0,0:0|0:0,0:0:0:0:
424,32,54603,1,4,0:0:0:0:
480,88,54782,6,0,L|476:184,1,80,6|4,0:0|0:0,0:0:0:0:
424,228,55318,2,0,P|404:180|408:164,1,40,0|8,0:0|0:0,0:0:0:0:
352,132,55675,2,0,P|324:188|328:224,1,80,0|0,0:0|0:0,0:0:0:0:
292,280,56210,5,6,0:0:0:0:
168,240,56567,1,0,0:0:0:0:
244,344,56925,1,10,0:0:0:0:
244,215,57282,1,0,0:0:0:0:
244,215,57460,1,4,0:0:0:0:
244,215,57639,5,6,0:0:0:0:
168,320,57996,1,4,0:0:0:0:
88,220,58353,1,10,0:0:0:0:
116,96,58710,2,0,P|156:104|168:96,1,40,0|0,0:0|0:0,0:0:0:0:
200,40,59067,6,0,P|232:88|228:124,1,80,2|0,0:0|0:0,0:0:0:0:
220,188,59603,2,0,P|272:172|280:164,1,40,0|8,0:0|0:0,0:0:0:0:
328,220,59960,2,0,P|340:172|320:128,1,80,0|4,0:0|0:0,0:0:0:0:
305,68,60495,2,0,L|385:40,1,80,6|4,0:0|0:0,0:0:0:0:
459,29,61031,2,0,P|467:69|503:109,1,80,0|0,0:0|0:0,0:0:0:0:
468,260,61745,5,0,0:0:0:0:
456,340,61924,2,0,P|408:320|392:280,1,80,6|0,0:0|0:0,0:0:0:0:
320,324,62459,1,0,0:0:0:0:
334,245,62638,2,0,P|290:245|250:298,1,80,10|0,0:0|0:0,0:0:0:0:
193,307,63174,1,4,0:0:0:0:
188,228,63352,2,0,L|92:220,2,80,6|4|8,0:0|0:0|0:0,0:0:0:0:
32,192,64423,6,0,P|48:152|60:136,1,40,0|0,0:0|0:0,0:0:0:0:
120,124,64781,2,0,P|88:80|40:56,2,80,6|0|8,0:0|0:0|0:0,0:0:0:0:
252,36,65852,6,0,P|220:68|216:92,1,40,0|4,0:0|0:0,0:0:0:0:
288,112,66209,2,0,P|280:164|296:204,2,80,6|4|8,0:0|0:0|0:0,0:0:0:0:
376,272,67280,6,0,P|383:253|385:233,1,40
367,151,67637,1,6,0:0:0:0:
444,46,67994,1,0,0:0:0:0:
444,176,68352,1,8,0:0:0:0:
367,71,68709,1,0,0:0:0:0:
367,71,68887,1,4,0:0:0:0:
367,71,69066,1,6,0:0:0:0:
491,111,69423,1,4,0:0:0:0:
367,151,69780,2,0,L|351:171,2,13.3333333333333,10|0|0,0:0|0:0|0:0,0:0:0:0:
132,20,70494,6,0,P|92:19|57:38,1,80,6|0,0:0|0:0,0:0:0:0:
112,96,71030,1,0,0:0:0:0:
92,172,71208,2,0,P|131:172|166:153,1,80,10|0,0:0|0:0,0:0:0:0:
216,92,71744,1,4,0:0:0:0:
284,132,71922,2,0,P|332:148|380:132,1,80,4|4,0:0|0:0,0:0:0:0:
436,124,72458,1,0,0:0:0:0:
436,124,72637,2,0,P|480:148|488:156,1,40,2|0,0:0|0:0,0:0:0:0:
424,204,72994,2,0,P|376:220|368:224,1,40
404,292,73351,6,0,L|308:308,1,80,6|0,0:0|0:0,0:0:0:0:
272,364,73886,2,0,P|248:324|260:264,1,80,0|0,0:0|0:0,0:0:0:0:
208,224,74422,2,0,L|148:236,1,40,0|4,0:0|0:0,0:0:0:0:
132,304,74779,1,6,0:0:0:0:
40,172,75136,2,0,L|79:164,1,40,4|0,0:0|0:0,0:0:0:0:
132,104,75493,1,8,0:0:0:0:
132,104,75672,2,0,P|192:92|236:104,1,80,2|0,0:0|0:0,0:0:0:0:
276,144,76208,2,0,P|292:92|268:40,1,80,6|0,0:0|0:0,0:0:0:0:
136,16,76922,6,0,L|32:24,1,80,10|0,0:0|0:0,0:0:0:0:
8,88,77457,1,4,0:0:0:0:
88,104,77636,1,4,0:0:0:0:
36,256,77993,1,2,0:0:0:0:
192,228,78350,2,0,P|204:184|188:144,1,80,8|0,0:0|0:0,0:0:0:0:
316,48,79064,6,0,L|416:52,1,80,2|0,0:0|0:0,0:0:0:0:
424,124,79600,2,0,L|372:124,1,40,0|8,0:0|0:0,0:0:0:0:
332,184,79957,2,0,L|384:208,1,40,2|0,0:0|0:0,0:0:0:0:
448,204,80314,1,4,0:0:0:0:
448,204,80493,2,0,P|460:272|448:300,1,80,4|4,0:0|0:0,0:0:0:0:
312,344,81207,2,0,P|312:388|320:404,2,40,10|0|2,0:0|0:0|0:0,0:0:0:0:
360,280,81742,1,0,0:0:0:0:
280,272,81921,6,0,P|176:268|120:312,1,160,4|8,0:0|0:0,0:0:0:0:
52,312,82814,2,0,L|40:364,2,40,0|2|4,0:0|0:0|0:0,0:0:0:0:
80,236,83349,6,0,P|56:200|88:84,1,160,4|8,0:0|0:0,0:0:0:0:
72,12,84242,2,0,P|140:32|152:56,1,80,2|0,0:0|0:0,0:0:0:0:
156,116,84778,2,0,P|224:112|276:32,1,160,4|8,0:0|0:0,0:0:0:0:
275,42,85849,2,0,L|336:56,1,40
388,20,86206,5,6,0:0:0:0:
492,140,86563,1,4,0:0:0:0:
332,164,86920,1,8,0:0:0:0:
412,160,87099,2,0,L|432:216,2,40,2|0|0,0:0|0:0|0:0,0:0:0:0:
332,164,87635,6,0,L|320:276,1,80,6|0,0:0|0:0,0:0:0:0:
292,316,88170,1,0,0:0:0:0:
244,252,88349,2,0,P|196:248|156:272,1,80,10|0,0:0|0:0,0:0:0:0:
148,340,88884,1,4,0:0:0:0:
88,284,89063,2,0,L|40:292,1,40,6|0,0:0|0:0,0:0:0:0:
44,212,89420,2,0,L|83:205,1,40,4|0,0:0|0:0,0:0:0:0:
152,164,89777,2,0,P|128:116|76:96,1,80,8|0,0:0|0:0,0:0:0:0:
28,92,90313,1,0,0:0:0:0:
76,28,90491,6,0,P|148:24|240:80,1,160,2|8,0:0|0:0,0:0:0:0:
316,196,91563,1,0,0:0:0:0:
316,196,91741,1,4,0:0:0:0:
344,120,91920,5,6,0:0:0:0:
488,192,92277,1,4,0:0:0:0:
360,288,92634,2,0,L|360:312,2,13.3333333333333,2|0|0,0:0|0:0|0:0,0:0:0:0:
484,52,93348,6,0,P|428:80|388:68,1,80,2|0,0:0|0:0,0:0:0:0:
360,140,93884,2,0,P|336:120|328:92,1,40,0|8,0:0|0:0,0:0:0:0:
344,32,94241,2,0,P|292:28|252:56,1,80,0|4,0:0|0:0,0:0:0:0:
192,12,94776,1,6,0:0:0:0:
264,156,95133,1,0,0:0:0:0:
264,156,95312,2,0,P|208:148|168:160,1,80,0|0,0:0|0:0,0:0:0:0:
136,88,95848,1,0,0:0:0:0:
108,164,96026,1,0,0:0:0:0:
156,228,96205,6,0,P|104:244|56:220,1,80,2|0,0:0|0:0,0:0:0:0:
28,176,96740,2,0,P|40:122|84:93,1,80
136,88,97276,1,2,0:0:0:0:
212,116,97455,1,4,0:0:0:0:
260,52,97633,2,0,L|348:56,2,80,6|4|8,0:0|0:0|0:0,0:0:0:0:
404,120,98704,5,0,0:0:0:0:
464,68,98883,1,0,0:0:0:0:
476,148,99061,2,0,P|488:188|476:248,1,80,6|0,0:0|0:0,0:0:0:0:
412,256,99597,2,0,P|400:296|412:356,1,80,0|0,0:0|0:0,0:0:0:0:
328,360,100133,1,0,0:0:0:0:
256,324,100311,1,4,0:0:0:0:
184,360,100490,2,0,P|140:356|128:348,1,40,6|0,0:0|0:0,0:0:0:0:
68,372,100847,2,0,P|39:338|36:323,1,40,4|0,0:0|0:0,0:0:0:0:
104,292,101204,2,0,P|92:252|96:184,1,80,0|0,0:0|0:0,0:0:0:0:
160,176,101740,1,0,0:0:0:0:
92,136,101918,6,0,P|44:144|12:200,1,80,6|0,0:0|0:0,0:0:0:0:
90,213,102454,1,0,0:0:0:0:
160,176,102632,2,0,L|256:180,1,80,8|0,0:0|0:0,0:0:0:0:
304,228,103168,1,4,0:0:0:0:
240,280,103347,2,0,P|232:332|252:368,2,80,6|4|8,0:0|0:0|0:0,0:0:0:0:
376,192,104418,6,0,P|384:148|384:144,1,40,0|0,0:0|0:0,0:0:0:0:
460,136,104775,2,0,P|444:100|388:80,1,80,2|0,0:0|0:0,0:0:0:0:
332,92,105311,2,0,P|288:104|224:68,1,120,0|0,0:0|0:0,0:0:0:0:
168,124,106025,1,4,0:0:0:0:
152,44,106203,2,0,L|56:52,2,80,6|0|8,0:0|0:0|0:0,0:0:0:0:
225,70,107096,2,0,P|248:112|232:164,1,80,0|0,0:0|0:0,0:0:0:0:
180,192,107632,6,0,P|136:176|84:188,1,80,2|0,0:0|0:0,0:0:0:0:
28,148,108167,1,0,0:0:0:0:
40,228,108346,2,0,P|32:284|56:328,1,80,10|4,0:0|0:0,0:0:0:0:
100,356,108882,1,4,0:0:0:0:
172,320,109060,2,0,L|268:328,2,80,6|4|8,0:0|0:0|0:0,0:0:0:0:
76,192,110131,6,0,P|96:144|104:136,1,40,0|0,0:0|0:0,0:0:0:0:
168,140,110488,2,0,P|140:92|88:80,2,80,6|4|8,0:0|0:0|0:0,0:0:0:0:
296,236,111560,6,0,P|276:284|268:292,1,40,0|4,0:0|0:0,0:0:0:0:
204,288,111917,2,0,P|232:336|284:348,2,80,6|4|8,0:0|0:0|0:0,0:0:0:0:
160,134,112988,2,0,P|196:122|216:126,1,40,0|0,0:0|0:0,0:0:0:0:
276,144,113345,5,6,0:0:0:0:
352,39,113702,1,0,0:0:0:0:
352,168,114059,1,8,0:0:0:0:
276,64,114416,1,0,0:0:0:0:
276,64,114595,1,4,0:0:0:0:
276,64,114774,1,6,0:0:0:0:
399,104,115131,1,4,0:0:0:0:
276,144,115488,2,0,L|272:167,2,13.3333333333333,2|0|0,0:0|0:0|0:0,0:0:0:0:
456,44,139056,6,0,P|416:28|356:36,1,80,6|0,0:0|0:0,0:0:0:0:
404,104,139592,1,0,0:0:0:0:
416,184,139770,2,0,P|377:176|342:156,1,80,10|0,0:0|0:0,0:0:0:0:
288,100,140306,1,4,0:0:0:0:
232,156,140484,2,0,P|197:175|158:183,1,80,6|4,0:0|0:0,0:0:0:0:
80,164,141020,2,0,L|56:208,2,40,0|10|0,0:0|0:0|0:0,0:0:0:0:
136,108,141556,2,0,P|104:72|84:64,1,40,0|0,0:0|0:0,0:0:0:0:
164,16,141913,6,0,P|232:32|256:48,1,80,6|0,0:0|0:0,0:0:0:0:
312,0,142448,2,0,P|348:59|354:87,1,80,0|0,0:0|0:0,0:0:0:0:
316,140,142984,1,0,0:0:0:0:
396,136,143162,1,4,0:0:0:0:
428,64,143341,2,0,P|468:104|472:144,1,80,6|4,0:0|0:0,0:0:0:0:
444,200,143877,2,0,P|389:214|352:198,1,80,0|2,0:0|0:0,0:0:0:0:
292,236,144412,2,0,L|308:296,1,40,0|0,0:0|0:0,0:0:0:0:
380,296,144769,2,0,P|356:336|300:352,1,80,2|0,0:0|0:0,0:0:0:0:
200,252,145484,6,0,L|116:260,1,80,10|0,0:0|0:0,0:0:0:0:
64,204,146019,1,4,0:0:0:0:
140,176,146198,1,6,0:0:0:0:
100,20,146555,1,4,0:0:0:0:
256,68,146912,1,10,0:0:0:0:
408,24,147269,1,0,0:0:0:0:
364,180,147626,6,0,P|400:180|444:208,1,80,6|0,0:0|0:0,0:0:0:0:
452,280,148162,2,0,P|416:280|372:308,1,80,0|0,0:0|0:0,0:0:0:0:
324,360,148697,2,0,P|300:328|296:312,1,40,2|4,0:0|0:0,0:0:0:0:
316,248,149054,2,0,L|224:256,2,80,4|4|10,0:0|0:0|0:0,0:0:0:0:
376,196,149947,5,0,0:0:0:0:
300,168,150126,1,2,0:0:0:0:
220,176,150304,1,0,0:0:0:0:
152,216,150483,2,0,P|124:268|120:308,2,80,4|0|8,0:0|0:0|0:0,0:0:0:0:
112,148,151376,2,0,P|72:172|64:184,2,40,0|2|4,0:0|0:0|0:0,0:0:0:0:
180,104,151911,5,4,0:0:0:0:
256,244,152268,1,4,0:0:0:0:
332,104,152625,1,8,0:0:0:0:
332,104,152804,2,0,P|380:112|408:96,1,80,2|0,0:0|0:0,0:0:0:0:
472,52,153340,6,0,P|492:104|456:208,1,160,6|8,0:0|0:0,0:0:0:0:
360,324,154411,2,0,L|343:287,1,40
368,212,154768,2,0,P|316:212|280:236,2,80,6|4|8,0:0|0:0|0:0,0:0:0:0:
396,136,155661,1,2,0:0:0:0:
316,124,155839,1,2,0:0:0:0:
244,160,156018,1,0,0:0:0:0:
248,80,156196,6,0,P|211:64|172:67,1,80,6|0,0:0|0:0,0:0:0:0:
152,144,156732,1,0,0:0:0:0:
96,88,156911,2,0,P|60:105|37:137,1,80,14|0,0:0|0:0,0:0:0:0:
72,208,157446,1,4,0:0:0:0:
132,260,157625,2,0,L|124:328,1,40,6|0,0:0|0:0,0:0:0:0:
208,284,157982,2,0,L|212:244,2,40,4|0|10,0:0|0:0|0:0,0:0:0:0:
288,268,158517,1,0,0:0:0:0:
288,268,158696,2,0,L|283:340,1,40,2|0,0:0|0:0,0:0:0:0:
364,236,159053,6,0,L|376:340,2,80,6|4|10,0:0|0:0|0:0,0:0:0:0:
460,108,160124,1,0,0:0:0:0:
460,108,160303,1,4,0:0:0:0:
460,108,160481,1,6,0:0:0:0:
300,92,160839,1,4,0:0:0:0:
364,236,161196,1,10,0:0:0:0:
460,108,161553,1,0,0:0:0:0:
300,92,161910,6,0,L|184:96,1,80,6|0,0:0|0:0,0:0:0:0:
80,20,162624,1,8,0:0:0:0:
108,168,162981,5,4,0:0:0:0:
108,168,163160,1,4,0:0:0:0:
108,168,163338,1,4,0:0:0:0:
256,228,163695,1,4,0:0:0:0:
404,168,164052,1,12,0:0:0:0:
436,12,164409,1,4,0:0:0:0:
256,52,164767,6,0,P|192:52|140:68,1,80,6|0,0:0|0:0,0:0:0:0:
96,20,165302,1,0,0:0:0:0:
16,56,165481,2,0,P|56:104|120:104,1,120,8|6,0:0|0:0,0:0:0:0:
192,144,166195,1,6,0:0:0:0:
192,144,166374,2,0,L|180:232,1,80,0|0,0:0|0:0,0:0:0:0:
96,252,166909,2,0,L|104:200,1,40,8|0,0:0|0:0,0:0:0:0:
24,168,167266,2,0,L|17:207,1,40,2|0,0:0|0:0,0:0:0:0:
20,296,167623,6,0,P|64:336|104:332,1,80,6|0,0:0|0:0,0:0:0:0:
164,308,168159,1,0,0:0:0:0:
248,336,168338,2,0,P|285:325|309:294,1,80,10|0,0:0|0:0,0:0:0:0:
324,208,168873,1,4,0:0:0:0:
392,264,169052,2,0,L|476:268,2,80,6|4|8,0:0|0:0|0:0,0:0:0:0:
392,264,170123,6,0,L|408:192,1,40,0|0,0:0|0:0,0:0:0:0:
456,156,170480,2,0,P|400:136|364:144,1,80,2|0,0:0|0:0,0:0:0:0:
296,120,171016,2,0,P|324:72|368:56,1,80,2|0,0:0|0:0,0:0:0:0:
272,8,171551,2,0,B|252:16|240:36|232:48,1,40,2|0,0:0|0:0,0:0:0:0:
192,108,171908,2,0,L|108:100,1,80,6|2,0:0|0:0,0:0:0:0:
43,44,172444,2,0,P|35:97|37:113,1,40
50,169,172801,2,0,P|68:189|97:205,1,40,2|0,0:0|0:0,0:0:0:0:
168,196,173158,1,0,0:0:0:0:
250,176,173337,5,2,0:0:0:0:
237,33,173694,1,0,0:0:0:0:
331,140,174051,1,10,0:0:0:0:
192,108,174408,1,0,0:0:0:0:
192,108,174587,1,4,0:0:0:0:
192,108,174765,1,6,0:0:0:0:
323,53,175122,1,4,0:0:0:0:
432,190,175479,2,0,L|449:131,2,53.3333333333333
451,306,176194,6,0,P|391:326|347:310,1,80,6|0,0:0|0:0,0:0:0:0:
319,256,176729,1,0,0:0:0:0:
292,340,176908,2,0,P|252:340|217:322,1,80,8|0,0:0|0:0,0:0:0:0:
136,352,177443,1,0,0:0:0:0:
148,264,177622,2,0,L|56:272,1,80,6|4,0:0|0:0,0:0:0:0:
32,192,178158,2,0,L|111:185,1,80,2|0,0:0|0:0,0:0:0:0:
200,172,178693,2,0,P|180:132|152:116,1,40,0|0,0:0|0:0,0:0:0:0:
116,80,179050,6,0,P|168:52|224:60,1,80,6|0,0:0|0:0,0:0:0:0:
256,104,179586,1,0,0:0:0:0:
324,50,179764,2,0,P|363:57|396:80,1,80,10|0,0:0|0:0,0:0:0:0:
480,48,180300,1,4,0:0:0:0:
464,136,180479,2,0,P|408:168|364:156,2,80,6|4|8,0:0|0:0|0:0,0:0:0:0:
296,192,181550,6,0,P|332:240|344:244,1,40,0|0,0:0|0:0,0:0:0:0:
400,248,181907,2,0,P|364:300|356:336,2,80,6|0|8,0:0|0:0|0:0,0:0:0:0:
316,92,182978,6,0,P|280:44|268:40,1,40,0|4,0:0|0:0,0:0:0:0:
216,20,183335,2,0,P|180:72|172:108,2,80,6|4|8,0:0|0:0|0:0,0:0:0:0:
212,196,184407,6,0,P|216:248|208:264,1,40
132,240,184764,1,6,0:0:0:0:
132,383,185121,1,0,0:0:0:0:
48,267,185478,1,8,0:0:0:0:
183,311,185835,1,0,0:0:0:0:
183,311,186014,1,4,0:0:0:0:
183,311,186192,1,6,0:0:0:0:
48,355,186549,1,4,0:0:0:0:
132,240,186906,1,8,0:0:0:0:
56,120,187263,6,0,P|88:76|108:68,1,40,0|0,0:0|0:0,0:0:0:0:
144,28,187621,2,0,P|164:56|224:56,1,80,2|0,0:0|0:0,0:0:0:0:
240,144,188156,2,0,P|292:120|296:112,1,40,0|8,0:0|0:0,0:0:0:0:
352,180,188513,2,0,P|376:136|376:88,1,80,0|4,0:0|0:0,0:0:0:0:
428,32,189049,2,0,L|508:36,2,80,6|4|8,0:0|0:0|0:0,0:0:0:0:
340,28,189942,2,0,P|304:56|296:68,2,40,0|0|0,0:0|0:0|0:0,0:0:0:0:
378,106,190477,6,0,P|404:128|422:194,1,80,6|0,0:0|0:0,0:0:0:0:
336,180,191013,1,0,0:0:0:0:
296,256,191191,2,0,P|270:234|252:168,1,80,8|0,0:0|0:0,0:0:0:0:
236,108,191727,1,4,0:0:0:0:
172,168,191906,2,0,L|80:164,2,80,6|4|8,0:0|0:0|0:0,0:0:0:0:
76,316,192977,6,0,P|72:276|76:260,1,40,0|0,0:0|0:0,0:0:0:0:
156,252,193334,2,0,P|172:312|204:340,1,80,6|0,0:0|0:0,0:0:0:0:
244,260,193870,2,0,P|256:204|304:144,1,120,0|0,0:0|0:0,0:0:0:0:
368,112,194584,1,4,0:0:0:0:
368,200,194762,2,0,P|416:192|440:156,1,80,6|4,0:0|0:0,0:0:0:0:
448,84,195298,2,0,P|408:36|340:36,1,120,2|0,0:0|0:0,0:0:0:0:
276,72,196012,1,0,0:0:0:0:
192,96,196191,5,6,0:0:0:0:
57,52,196548,1,0,0:0:0:0:
141,168,196905,1,8,0:0:0:0:
141,25,197262,1,0,0:0:0:0:
141,25,197441,1,4,0:0:0:0:
141,25,197619,1,6,0:0:0:0:
57,140,197976,1,4,0:0:0:0:
192,96,198333,1,8,0:0:0:0:
320,160,198690,2,0,P|356:148|376:148,1,40,2|0,0:0|0:0,0:0:0:0:
440,120,199047,6,0,P|444:159|429:195,1,80,6|0,0:0|0:0,0:0:0:0:
378,265,199583,2,0,P|362:252|352:236,1,40,0|8,0:0|0:0,0:0:0:0:
357,147,199940,2,0,P|308:168|276:204,1,80,0|4,0:0|0:0,0:0:0:0:
276,272,200476,2,0,P|236:252|228:240,2,40,6|0|4,0:0|0:0|0:0,0:0:0:0:
296,352,201012,2,0,P|268:356|244:372,1,40,0|8,0:0|0:0,0:0:0:0:
180,320,201369,2,0,P|140:272|148:224,1,80,0|0,0:0|0:0,0:0:0:0:
72,200,201904,6,0,P|127:171|172:190,1,80,2|0,0:0|0:0,0:0:0:0:
188,100,202440,1,0,0:0:0:0:
264,148,202618,2,0,P|280:96|256:48,1,80,10|0,0:0|0:0,0:0:0:0:
344,20,203154,1,4,0:0:0:0:
416,68,203333,2,0,L|508:68,2,80,6|4|12,0:0|0:0|0:0,0:0:0:0:
292,192,204404,6,0,P|308:228|332:244,1,40,2|0,0:0|0:0,0:0:0:0:
388,264,204761,2,0,P|336:316|304:316,2,80,4|0|8,0:0|0:0|0:0,0:0:0:0:
432,92,205832,6,0,P|416:56|392:40,1,40,2|4,0:0|0:0,0:0:0:0:
356,120,206189,2,0,P|408:172|440:172,2,80,4|4|8,0:0|0:0|0:0,0:0:0:0:
196,48,207261,6,0,P|172:88|176:112,1,40,0|0,0:0|0:0,0:0:0:0:
208,160,207618,1,2,0:0:0:0:
124,275,207975,1,0,0:0:0:0:
259,231,208332,1,8,0:0:0:0:
124,187,208689,1,0,0:0:0:0:
124,187,208868,1,4,0:0:0:0:
124,187,209046,1,6,0:0:0:0:
208,303,209403,1,4,0:0:0:0:
208,160,209760,1,8,0:0:0:0:
92,76,210117,6,0,P|132:36|144:28,1,40,0|0,0:0|0:0,0:0:0:0:
196,28,210474,2,0,L|288:32,2,80,2|0|0,0:0|0:0|0:0,0:0:0:0:
234,189,211546,6,0,P|194:149|182:141,1,40,0|0,0:0|0:0,0:0:0:0:
130,141,211903,2,0,L|38:145,2,80,2|0|0,0:0|0:0|0:0,0:0:0:0:
216,296,212974,6,0,P|256:336|268:344,1,40,0|0,0:0|0:0,0:0:0:0:
324,344,213331,1,2,0:0:0:0:
366,221,213688,1,0,0:0:0:0:
404,345,214045,1,0,0:0:0:0:
300,267,214402,1,0,0:0:0:0:
430,269,214760,1,2,0:0:0:0:
324,344,215117,1,0,0:0:0:0:
366,221,215474,1,0,0:0:0:0:
464,140,215831,6,0,P|432:108|428:92,1,40,0|0,0:0|0:0,0:0:0:0:
412,36,216188,2,0,L|312:48,2,80,2|0|0,0:0|0:0|0:0,0:0:0:0:
348,184,217259,6,0,P|380:216|384:232,1,40,0|0,0:0|0:0,0:0:0:0:
400,288,217616,2,0,L|500:276,2,80,2|0|0,0:0|0:0|0:0,0:0:0:0:
252,192,218688,6,0,P|208:216|196:228,1,40,0|0,0:0|0:0,0:0:0:0:
208,292,219045,1,2,0:0:0:0:
78,294,219402,1,0,0:0:0:0:
184,369,219759,1,0,0:0:0:0:
142,246,220116,1,0,0:0:0:0:
104,370,220473,1,2,0:0:0:0:
359,54,221930,6,0,P|333:40|297:33,3,40,2|0|0|0,0:0|0:0|0:0|0:0,0:0:0:0:
290,31,222644,1,0,0:0:0:0:
257,32,222822,1,0,0:0:0:0:
225,38,223001,1,0,0:0:0:0:
196,52,223179,1,0,0:0:0:0:
161,154,223358,6,0,P|186:140|222:133,3,40,2|0|0|0,0:0|0:0|0:0|0:0,0:0:0:0:
230,131,224072,2,0,P|286:135|299:138,1,40
301,139,224429,2,0,P|350:155|360:160,1,40
406,227,224786,6,0,P|380:240|344:247,3,40,2|0|0|0,0:0|0:0|0:0|0:0,0:0:0:0:
337,250,225500,1,0,0:0:0:0:
304,249,225679,1,0,0:0:0:0:
272,243,225858,1,0,0:0:0:0:
243,229,226036,1,0,0:0:0:0:
137,293,226215,6,0,P|158:312|191:328,3,40,2|0|0|0,0:0|0:0|0:0|0:0,0:0:0:0:
197,333,226929,2,0,P|246:347|252:347,1,40
266,352,227286,2,0,P|314:356|322:355,1,40
359,283,227643,5,2,0:0:0:0:
387,269,227822,1,0,0:0:0:0:
385,237,228000,1,0,0:0:0:0:
353,231,228179,1,0,0:0:0:0:
337,258,228357,2,0,P|294:252|288:249,3,40,0|0|2|0,0:0|0:0|0:0|0:0,0:0:0:0:
249,191,229071,5,2,0:0:0:0:
221,177,229250,1,0,0:0:0:0:
223,145,229428,1,0,0:0:0:0:
255,139,229607,1,0,0:0:0:0:
271,166,229786,2,0,P|313:160|319:157,3,40,0|0|2|0,0:0|0:0|0:0|0:0,0:0:0:0:
186,234,230500,6,0,P|143:228|137:225,3,40,2|0|0|0,0:0|0:0|0:0|0:0,0:0:0:0:
98,155,231214,2,0,P|140:149|146:146,3,40,2|0|0|0,0:0|0:0|0:0|0:0,0:0:0:0:
128,68,231928,6,0,P|168:82|182:80,1,40,2|0,0:0|0:0,0:0:0:0:
200,87,232285,2,0,P|242:90|255:84,1,40,0|0,0:0|0:0,0:0:0:0:
274,91,232642,2,0,P|294:92|313:87,1,40,2|0,0:0|0:0,0:0:0:0:
349,81,232999,2,0,P|368:78|385:68,1,40,0|0,0:0|0:0,0:0:0:0:
477,137,233356,6,0,P|454:156|421:171,3,40,2|0|0|0,0:0|0:0|0:0|0:0,0:0:0:0:
414,174,234071,1,0,0:0:0:0:
382,181,234249,1,0,0:0:0:0:
350,182,234428,1,0,0:0:0:0:
318,175,234606,1,0,0:0:0:0:
206,199,234785,6,0,P|220:224|247:249,3,40,2|0|0|0,0:0|0:0|0:0|0:0,0:0:0:0:
249,256,235499,2,0,P|295:284|300:285,1,40
308,295,235856,2,0,P|347:308|358:310,1,40
433,335,236213,5,2,0:0:0:0:
436,302,236392,1,0,0:0:0:0:
433,271,236570,1,0,0:0:0:0:
423,239,236749,1,0,0:0:0:0:
409,209,236927,2,0,P|396:193|381:180,3,40
449,79,237642,6,0,P|397:83|391:86,1,40
378,85,237999,2,0,P|339:98|328:106,1,40
312,113,238356,2,0,P|296:125|283:140,3,40
208,126,239070,6,0,P|212:69|217:60,1,40,2|0,0:0|0:0,0:0:0:0:
170,156,239427,2,0,P|117:134|110:127,1,40,0|0,0:0|0:0,0:0:0:0:
187,201,239784,2,0,P|150:244|140:249,1,40,0|0,0:0|0:0,0:0:0:0:
236,199,240141,2,0,P|266:247|267:257,1,40,2|0,0:0|0:0,0:0:0:0:
348,243,240498,6,0,P|344:186|339:177,1,40,0|0,0:0|0:0,0:0:0:0:
386,273,240855,2,0,P|438:251|445:244,1,40,0|0,0:0|0:0,0:0:0:0:
369,318,241213,2,0,P|405:361|415:366,1,40
320,316,241570,2,0,P|289:364|288:374,1,40,2|0,0:0|0:0,0:0:0:0:
308,269,241927,5,2,0:0:0:0:
385,129,242652,1,2,0:0:0:0:
226,148,243366,2,0,L|219:158,2,13.3333333333333,2|0|0,0:0|0:0|0:0,0:0:0:0:
