osu file format v14

[General]
AudioFilename: audio.mp3
AudioLeadIn: 0
PreviewTime: 161913
Countdown: 1
SampleSet: Soft
StackLeniency: 0.7
Mode: 0
LetterboxInBreaks: 0
WidescreenStoryboard: 0

[Editor]
Bookmarks: 13341,36198,47627,116198,139055,221913,233341,239055
DistanceSpacing: 1.2
BeatDivisor: 4
GridSize: 4
TimelineZoom: 0.9

[Metadata]
Title:One night
TitleUnicode:One night
Artist:Hiroko Inoue
ArtistUnicode:井上ヒロコ
Creator:Gust
Version:Night on the Galactic Railroad
Source:銀河鉄道の夜
Tags:Miyazawa kenji Ginga Tetsudo no Yoru Kagaya Rei piano
BeatmapID:1494806
BeatmapSetID:707020

[Difficulty]
HPDrainRate:5
CircleSize:5.2
OverallDifficulty:5
ApproachRate:7.5
SliderMultiplier:1.8
SliderTickRate:2

[Events]
//Background and Video events
0,0,"C.png",0,0
//Break Periods
//Storyboard Layer 0 (Background)
//Storyboard Layer 1 (Fail)
//Storyboard Layer 2 (Pass)
//Storyboard Layer 3 (Foreground)
//Storyboard Sound Samples

[TimingPoints]
-924,714.185714285714,4,2,1,20,1,0
36213,-100,4,2,1,30,0,0
116202,-100,4,2,1,20,0,0
161910,-100,4,2,1,40,0,0
162981,-100,4,2,1,50,0,0
163695,-100,4,2,1,55,0,0
164052,-100,4,2,1,60,0,0
164409,-100,4,2,1,70,0,0
164767,-74.0740740740741,4,2,1,40,0,1
187442,-74.0740740740741,4,2,1,30,0,0
187621,-74.0740740740741,4,2,1,30,0,1
210117,-100,4,2,1,20,0,0
221930,714.185714285714,4,2,1,15,1,0
241938,714.185714285714,4,2,1,15,1,0

[Colours]
Combo1 : 0,255,255
Combo2 : 98,98,255
Combo3 : 18,124,255

[HitObjects]
20,104,1575,5,0,0:0:0:0:
76,140,1754,1,0,0:0:0:0:
136,112,1932,2,0,L|256:96,1,90,2|0,0:0|0:0,0:0:0:0:
224,32,2468,2,0,L|313:20,1,90,2|0,0:0|0:0,0:0:0:0:
260,184,3182,5,0,0:0:0:0:
300,240,3361,2,0,L|420:224,1,90,2|0,0:0|0:0,0:0:0:0:
388,160,3896,2,0,L|477:148,1,90,2|0,0:0|0:0,0:0:0:0:
440,316,4610,5,0,0:0:0:0:
392,364,4789,2,0,L|277:361,1,90,2|0,0:0|0:0,0:0:0:0:
256,312,5325,1,2,0:0:0:0:
256,312,5860,1,0,0:0:0:0:
302,361,6039,1,0,0:0:0:0:
312,272,6217,5,2,0:0:0:0:
312,272,6932,1,0,0:0:0:0:
256,312,7110,1,0,0:0:0:0:
164,228,7289,5,0,0:0:0:0:
184,292,7467,1,0,0:0:0:0:
152,352,7646,2,0,L|56:344,1,90,2|0,0:0|0:0,0:0:0:0:
44,280,8181,1,2,0:0:0:0:
44,280,8538,1,0,0:0:0:0:
224,192,8896,5,0,0:0:0:0:
252,132,9074,2,0,L|341:139,1,90,2|0,0:0|0:0,0:0:0:0:
356,204,9610,1,2,0:0:0:0:
356,204,9967,1,0,0:0:0:0:
220,72,10324,5,0,0:0:0:0:
252,132,10502,2,0,L|341:139,1,90,2|0,0:0|0:0,0:0:0:0:
424,20,11217,2,0,L|334:12,1,90,2|0,0:0|0:0,0:0:0:0:
136,32,11931,1,2,0:0:0:0:
136,32,12645,5,2,0:0:0:0:
104,35,12824,1,0,0:0:0:0:
74,47,13002,1,0,0:0:0:0:
53,70,13181,1,0,0:0:0:0:
40,98,13359,6,0,P|31:151|48:206,1,90,2|0,0:0|0:0,0:0:0:0:
56,250,13895,2,0,P|100:222|104:214,1,45
106,162,14252,2,0,P|156:165|206:143,1,90,2|0,0:0|0:0,0:0:0:0:
260,40,14788,6,0,P|336:44|368:60,1,90,2|0,0:0|0:0,0:0:0:0:
416,44,15323,2,0,P|440:84|444:108,2,45
360,116,15859,2,0,P|360:168|368:184,1,45,2|0,0:0|0:0,0:0:0:0:
256,228,16216,6,0,P|180:232|148:248,1,90,2|0,0:0|0:0,0:0:0:0:
120,284,16752,2,0,P|80:252|72:204,1,90,2|0,0:0|0:0,0:0:0:0:
128,180,17287,2,0,P|108:132|96:120,1,45
104,72,17644,2,0,P|48:72|16:88,2,90,2|0|2,0:0|0:0|0:0,0:0:0:0:
256,292,18716,6,0,P|304:300|320:292,1,45,2|0,0:0|0:0,0:0:0:0:
360,332,19073,2,0,P|376:296|368:232,1,90,2|0,0:0|0:0,0:0:0:0:
416,192,19608,2,0,P|456:224|476:264,1,90,2|0,0:0|0:0,0:0:0:0:
324,196,20144,6,0,P|332:152|348:136,1,45,2|0,0:0|0:0,0:0:0:0:
376,100,20501,2,0,P|424:72|468:68,1,90,2|0,0:0|0:0,0:0:0:0:
404,8,21037,2,0,P|336:16|268:72,1,135,2|0,0:0|0:0,0:0:0:0:
240,160,21751,5,0,0:0:0:0:
224,96,21929,2,0,P|184:68|120:56,2,90,2|0|2,0:0|0:0|0:0,0:0:0:0:
216,224,23001,1,0,0:0:0:0:
240,160,23179,1,0,0:0:0:0:
304,140,23358,2,0,P|352:134|414:155,2,90,2|0|2,0:0|0:0|0:0,0:0:0:0:
436,360,24429,6,0,P|414:359|378:339,1,45
348,300,24786,2,0,P|292:304|254:333,1,90,2|0,0:0|0:0,0:0:0:0:
200,308,25322,2,0,P|188:336|196:380,1,45,2|0,0:0|0:0,0:0:0:0:
244,256,25679,2,0,P|225:231|183:216,1,45,2|0,0:0|0:0,0:0:0:0:
148,204,26036,1,0,0:0:0:0:
192,152,26215,2,0,P|224:152|292:196,1,90,2|0,0:0|0:0,0:0:0:0:
340,192,26750,2,0,P|392:160|448:160,1,90,2|0,0:0|0:0,0:0:0:0:
480,192,27464,5,0,0:0:0:0:
419,156,27643,2,0,P|423:104|463:40,1,90,2|0,0:0|0:0,0:0:0:0:
388,24,28179,1,0,0:0:0:0:
324,40,28357,2,0,P|280:28|208:44,1,90,2|0,0:0|0:0,0:0:0:0:
172,60,28893,1,0,0:0:0:0:
108,28,29071,5,2,0:0:0:0:
108,28,29428,1,0,0:0:0:0:
108,28,29785,1,2,0:0:0:0:
36,192,30143,6,0,P|36:228|64:256,1,45
96,272,30500,2,0,L|196:268,2,90,2|0|2,0:0|0:0|0:0,0:0:0:0:
380,104,31571,5,0,0:0:0:0:
380,104,31749,1,0,0:0:0:0:
380,104,31928,2,0,L|290:107,1,90,2|0,0:0|0:0,0:0:0:0:
220,112,32642,1,2,0:0:0:0:
316,308,32999,5,0,0:0:0:0:
316,308,33178,1,0,0:0:0:0:
316,308,33356,5,2,0:0:0:0:
395,221,33714,1,0,0:0:0:0:
382,336,34071,1,2,0:0:0:0:
325,234,34428,1,0,0:0:0:0:
430,285,34785,1,2,0:0:0:0:
430,285,35499,6,0,L|452:268,3,15,2|0|0|0,0:0|0:0|0:0|0:0,0:0:0:0:
472,60,36213,6,0,P|428:44|372:64,1,90,2|0,0:0|0:0,0:0:0:0:
388,120,36749,1,0,0:0:0:0:
328,88,36927,2,0,L|224:72,1,90,8|0,0:0|0:0,0:0:0:0:
184,112,37463,1,4,0:0:0:0:
176,44,37642,5,6,0:0:0:0:
228,168,37999,1,4,0:0:0:0:
188,224,38177,2,0,L|96:220,1,90
228,168,38891,1,0,0:0:0:0:
224,284,39070,6,0,P|264:300|328:280,1,90,6|0,0:0|0:0,0:0:0:0:
368,324,39606,1,0,0:0:0:0:
368,256,39784,2,0,L|468:248,1,90,8|0,0:0|0:0,0:0:0:0:
476,312,40320,1,4,0:0:0:0:
420,180,40498,6,0,L|520:172,2,90,4|4|8,0:0|0:0|0:0,0:0:0:0:
224,284,41570,1,0,0:0:0:0:
172,328,41748,1,0,0:0:0:0:
103,332,41927,6,0,P|59:327|27:297,1,90,6|0,0:0|0:0,0:0:0:0:
88,264,42462,1,0,0:0:0:0:
32,228,42641,2,0,L|56:128,1,90,8|0,0:0|0:0,0:0:0:0:
176,196,43176,1,4,0:0:0:0:
220,248,43355,6,0,P|244:212|228:152,1,90,6|4,0:0|0:0,0:0:0:0:
196,116,43891,1,0,0:0:0:0:
244,68,44069,2,0,L|352:72,1,90,8|0,0:0|0:0,0:0:0:0:
376,124,44605,1,0,0:0:0:0:
400,60,44783,5,6,0:0:0:0:
132,20,45498,1,14,0:0:0:0:
238,167,45855,1,4,0:0:0:0:
238,167,46033,1,0,0:0:0:0:
238,167,46212,2,0,L|116:180,2,90,6|4|8,0:0|0:0|0:0,0:0:0:0:
440,136,47283,2,0,P|456:116|444:64,1,45
396,76,47640,6,0,P|384:32|336:0,1,90,6|0,0:0|0:0,0:0:0:0:
324,68,48176,2,0,L|264:64,1,45,0|8,0:0|0:0,0:0:0:0:
228,20,48533,2,0,P|192:56|156:56,1,90,0|4,0:0|0:0,0:0:0:0:
92,36,49068,2,0,P|76:88|96:132,2,90,6|4|8,0:0|0:0|0:0,0:0:0:0:
155,55,49961,2,0,P|160:80|144:120,1,45
144,164,50318,1,0,0:0:0:0:
40,180,50497,2,0,P|32:248|60:292,1,90,6|0,0:0|0:0,0:0:0:0:
108,268,51033,2,0,L|96:336,1,45,0|8,0:0|0:0,0:0:0:0:
144,164,51568,5,0,0:0:0:0:
156,98,51747,1,4,0:0:0:0:
208,140,51925,2,4,P|260:152|292:132,2,90,6|4|8,0:0|0:0|0:0,0:0:0:0:
320,240,52997,5,2,0:0:0:0:
292,304,53175,1,0,0:0:0:0:
360,296,53354,2,0,P|412:308|444:288,1,90,4|0,0:0|0:0,0:0:0:0:
508,304,53889,2,8,L|496:360,1,45,0|8,0:0|0:0,0:0:0:0:
320,240,54425,5,0,0:0:0:0:
292,180,54603,1,4,0:0:0:0:
320,120,54782,2,0,P|368:112|416:128,1,90,6|4,0:0|0:0,0:0:0:0:
476,128,55318,2,0,P|472:96|448:60,1,45,0|8,0:0|0:0,0:0:0:0:
388,196,55675,2,0,P|448:208|480:200,1,90
467,84,56210,5,6,0:0:0:0:
344,28,56567,1,0,0:0:0:0:
208,28,56925,1,10,0:0:0:0:
88,88,57282,1,0,0:0:0:0:
60,148,57460,1,4,0:0:0:0:
56,216,57639,2,0,P|68:264|92:296,2,90,6|4|10,0:0|0:0|0:0,0:0:0:0:
100,166,58710,6,0,P|81:153|60:148,1,45
16,96,59067,2,0,P|72:72|124:80,1,90,6|0,0:0|0:0,0:0:0:0:
148,28,59603,2,0,P|169:33|188:46,1,45,0|8,0:0|0:0,0:0:0:0:
212,108,59960,2,0,P|272:116|316:96,1,90,0|4,0:0|0:0,0:0:0:0:
360,76,60495,2,0,P|384:128|376:192,2,90,6|4|8,0:0|0:0|0:0,0:0:0:0:
340,12,61388,2,0,P|300:48|300:72,1,45
298,106,61745,1,0,0:0:0:0:
356,232,61924,6,0,L|436:224,1,45,6|0,0:0|0:0,0:0:0:0:
448,180,62281,1,0,0:0:0:0:
392,300,62459,1,0,0:0:0:0:
392,300,62638,2,0,L|296:308,1,90,10|0,0:0|0:0,0:0:0:0:
256,356,63174,1,4,0:0:0:0:
206,177,63352,2,0,L|296:184,2,90,6|4|8,0:0|0:0|0:0,0:0:0:0:
172,288,64423,5,0,0:0:0:0:
152,224,64602,1,0,0:0:0:0:
108,276,64781,2,0,P|56:300|36:336,2,90,6|0|8,0:0|0:0|0:0,0:0:0:0:
276,120,65852,5,0,0:0:0:0:
296,184,66030,1,4,0:0:0:0:
344,136,66209,2,0,P|396:148|424:180,2,90,6|4|8,0:0|0:0|0:0,0:0:0:0:
128,48,67280,5,0,0:0:0:0:
63,69,67459,1,0,0:0:0:0:
63,137,67637,5,6,0:0:0:0:
128,48,67994,1,0,0:0:0:0:
128,158,68352,1,8,0:0:0:0:
63,69,68709,1,0,0:0:0:0:
63,69,68887,1,4,0:0:0:0:
63,69,69066,1,6,0:0:0:0:
167,103,69423,1,4,0:0:0:0:
63,137,69780,2,0,L|59:153,2,15,10|0|0,0:0|0:0|0:0,0:0:0:0:
380,24,70494,6,0,P|452:36|488:72,1,90,4|0,0:0|0:0,0:0:0:0:
476,112,71030,1,0,0:0:0:0:
340,80,71208,2,0,P|268:92|232:128,1,90,10|0,0:0|0:0,0:0:0:0:
244,168,71744,1,4,0:0:0:0:
212,36,71922,2,0,L|104:48,1,90,4|4,0:0|0:0,0:0:0:0:
176,168,72458,5,0,0:0:0:0:
124,128,72637,1,10,0:0:0:0:
108,192,72815,1,0,0:0:0:0:
56,148,72994,1,0,0:0:0:0:
44,216,73172,1,0,0:0:0:0:
176,168,73351,6,0,P|204:212|188:272,1,90,6|0,0:0|0:0,0:0:0:0:
136,268,73886,2,0,P|156:316|168:320,1,45,0|8,0:0|0:0,0:0:0:0:
196,104,74422,5,0,0:0:0:0:
256,132,74601,1,4,0:0:0:0:
312,96,74779,2,0,P|340:140|324:200,1,90,6|4,0:0|0:0,0:0:0:0:
404,180,75315,2,0,P|384:228|372:232,1,45,0|8,0:0|0:0,0:0:0:0:
424,116,75672,2,0,B|468:104|496:116|532:148,1,90
428,38,76208,2,0,P|363:53|312:96,1,135,6|0,0:0|0:0,0:0:0:0:
340,239,76922,6,0,P|365:201|403:179,1,90,10|0,0:0|0:0,0:0:0:0:
424,116,77457,1,4,0:0:0:0:
460,224,77636,1,6,0:0:0:0:
424,116,77993,1,0,0:0:0:0:
428,296,78350,2,0,L|332:304,1,90,8|2,0:0|0:0,0:0:0:0:
164,144,79064,6,0,L|276:140,1,90,6|0,0:0|0:0,0:0:0:0:
320,156,79600,2,0,P|316:208|304:224,1,45,0|8,0:0|0:0,0:0:0:0:
253,140,79957,1,0,0:0:0:0:
296,88,80136,1,2,0:0:0:0:
244,48,80314,1,4,0:0:0:0:
304,16,80493,2,0,L|412:20,2,90,4|4|10,0:0|0:0|0:0,0:0:0:0:
244,48,81385,5,0,0:0:0:0:
192,8,81564,1,2,0:0:0:0:
140,52,81742,1,0,0:0:0:0:
92,8,81921,6,0,L|-8:16,2,90,4|0|0,0:0|0:0|0:0,0:0:0:0:
140,52,82814,1,0,0:0:0:0:
192,8,82992,1,2,0:0:0:0:
248,48,83171,1,4,0:0:0:0:
300,88,83349,2,0,L|389:80,1,90,4|0,0:0|0:0,0:0:0:0:
444,204,84064,5,8,0:0:0:0:
400,256,84242,2,0,L|310:263,1,90,2|0,0:0|0:0,0:0:0:0:
167,228,84778,2,0,L|256:220,1,90,4|0,0:0|0:0,0:0:0:0:
296,160,85492,6,0,P|332:188|340:204,2,45,8|0|0,0:0|0:0|0:0,0:0:0:0:
228,156,86028,1,4,0:0:0:0:
336,84,86206,2,0,L|425:76,2,90,6|4|8,0:0|0:0|0:0,0:0:0:0:
280,48,87099,5,2,0:0:0:0:
216,72,87277,1,0,0:0:0:0:
204,140,87456,1,0,0:0:0:0:
248,192,87635,2,0,L|232:304,1,90,6|0,0:0|0:0,0:0:0:0:
268,340,88170,1,0,0:0:0:0:
160,224,88349,2,0,L|172:134,1,90,8|0,0:0|0:0,0:0:0:0:
104,128,88884,1,4,0:0:0:0:
244,152,89063,6,0,L|236:92,1,45,6|0,0:0|0:0,0:0:0:0:
316,152,89420,2,0,L|312:208,2,45,4|0|8,0:0|0:0|0:0,0:0:0:0:
384,164,89956,2,0,L|392:108,2,45,2|0|0,0:0|0:0|0:0,0:0:0:0:
178,44,90491,2,12,L|172:134,2,90,4|4|8,0:0|0:0|0:0,0:0:0:0:
116,28,91563,5,0,0:0:0:0:
178,44,91741,1,4,0:0:0:0:
240,32,91920,1,4,0:0:0:0:
316,132,92277,1,4,0:0:0:0:
396,32,92634,2,0,L|400:16,2,15,2|0|0,0:0|0:0|0:0,0:0:0:0:
116,28,93348,6,0,P|72:56|20:40,1,90,2|0,0:0|0:0,0:0:0:0:
8,108,93884,2,0,L|32:164,1,45,0|8,0:0|0:0,0:0:0:0:
56,256,94241,2,0,P|76:204|112:164,1,90,0|4,0:0|0:0,0:0:0:0:
8,108,94776,1,6,0:0:0:0:
164,140,95133,5,0,0:0:0:0:
164,140,95312,2,0,P|212:140|260:172,1,90
276,228,95848,1,0,0:0:0:0:
324,172,96026,1,0,0:0:0:0:
476,168,96205,6,0,P|431:167|392:188,1,90,2|0,0:0|0:0,0:0:0:0:
344,244,96740,1,0,0:0:0:0:
240,152,96919,2,0,P|284:151|324:171,1,90,8|0,0:0|0:0,0:0:0:0:
344,244,97455,1,4,0:0:0:0:
348,100,97633,2,0,L|456:100,2,90,6|4|8,0:0|0:0|0:0,0:0:0:0:
480,40,98704,5,0,0:0:0:0:
438,100,98883,1,0,0:0:0:0:
412,32,99061,2,0,L|320:32,1,90,6|0,0:0|0:0,0:0:0:0:
256,60,99597,2,0,L|156:60,1,90
248,136,100133,5,0,0:0:0:0:
312,172,100311,1,4,0:0:0:0:
376,140,100490,2,0,P|424:136|468:156,1,90,6|4,0:0|0:0,0:0:0:0:
492,212,101026,2,0,P|471:255|432:283,1,90
372,280,101561,2,0,P|351:255|344:232,1,45
406,350,101918,6,0,P|337:346|314:327,1,90,6|0,0:0|0:0,0:0:0:0:
278,283,102454,1,0,0:0:0:0:
213,304,102632,1,8,0:0:0:0:
62,152,102990,1,0,0:0:0:0:
108,102,103168,1,4,0:0:0:0:
169,131,103347,5,6,0:0:0:0:
94,212,103704,1,4,0:0:0:0:
169,131,104061,2,0,P|219:152|222:236,1,135,8|0,0:0|0:0,0:0:0:0:
162,198,104775,6,0,P|156:248|200:288,1,90,2|0,0:0|0:0,0:0:0:0:
172,344,105311,2,0,P|204:344|236:324,1,45,0|8,0:0|0:0,0:0:0:0:
260,288,105668,2,0,P|304:284|346:268,1,90
314,201,106203,2,0,P|270:205|228:221,1,90,6|0,0:0|0:0,0:0:0:0:
168,192,106739,2,0,P|148:184|112:188,1,45,0|8,0:0|0:0,0:0:0:0:
72,228,107096,2,0,P|56:168|80:128,1,90
16,60,107632,6,0,L|136:56,1,90,2|0,0:0|0:0,0:0:0:0:
136,116,108167,1,0,0:0:0:0:
164,12,108346,2,0,L|284:8,1,90,10|4,0:0|0:0,0:0:0:0:
284,68,108882,1,4,0:0:0:0:
252,176,109060,2,0,L|162:178,2,90,6|4|8,0:0|0:0|0:0,0:0:0:0:
360,68,110131,5,0,0:0:0:0:
408,20,110310,1,0,0:0:0:0:
428,84,110488,2,8,P|472:112|496:160,2,90,6|4|8,0:0|0:0|0:0,0:0:0:0:
252,176,111560,5,0,0:0:0:0:
316,192,111738,1,4,0:0:0:0:
300,128,111917,2,0,P|268:96|216:88,2,90,6|4|8,0:0|0:0|0:0,0:0:0:0:
100,288,112988,5,0,0:0:0:0:
152,244,113167,1,0,0:0:0:0:
220,256,113345,5,6,0:0:0:0:
285,345,113702,1,0,0:0:0:0:
285,235,114059,1,8,0:0:0:0:
220,324,114416,1,0,0:0:0:0:
220,324,114595,1,4,0:0:0:0:
220,324,114774,1,6,0:0:0:0:
324,290,115131,1,4,0:0:0:0:
220,256,115488,2,0,L|212:240,2,15,2|0|0,0:0|0:0|0:0,0:0:0:0:
48,52,116202,5,2,0:0:0:0:
180,20,116559,1,2,0:0:0:0:
244,36,116738,2,0,L|236:92,1,45,0|8,0:0|0:0,0:0:0:0:
168,109,117095,2,0,L|180:20,1,90,2|4,0:0|0:0,0:0:0:0:
299,102,117630,2,0,L|288:192,2,90,6|4|10,0:0|0:0|0:0,0:0:0:0:
364,136,118702,1,2,0:0:0:0:
464,52,119059,5,2,0:0:0:0:
332,20,119416,1,2,0:0:0:0:
274,80,119594,2,0,L|268:36,1,45,0|8,0:0|0:0,0:0:0:0:
332,20,119951,2,0,L|343:109,1,90,0|6,0:0|0:0,0:0:0:0:
224,192,120487,2,4,L|212:102,2,90,4|0|14,0:0|0:0|0:0,0:0:0:0:
88,196,121558,1,2,0:0:0:0:
160,308,121915,5,2,0:0:0:0:
88,196,122273,1,2,0:0:0:0:
88,196,122451,1,2,0:0:0:0:
20,184,122630,2,0,L|8:292,1,90,8|0,0:0|0:0,0:0:0:0:
88,196,123165,1,4,0:0:0:0:
88,196,123344,5,6,0:0:0:0:
212,140,123701,1,4,0:0:0:0:
300,244,124058,1,10,0:0:0:0:
424,196,124415,1,0,0:0:0:0:
424,196,124594,1,2,0:0:0:0:
492,200,124772,6,0,L|504:92,1,90,6|0,0:0|0:0,0:0:0:0:
360,340,125486,2,0,L|369:250,1,90,8|0,0:0|0:0,0:0:0:0:
304,244,126022,1,0,0:0:0:0:
304,244,126201,5,4,0:0:0:0:
184,300,126558,1,6,0:0:0:0:
72,224,126915,1,10,0:0:0:0:
80,88,127272,1,2,0:0:0:0:
200,24,127629,6,0,L|300:28,1,90,2|0,0:0|0:0,0:0:0:0:
336,76,128165,1,2,0:0:0:0:
336,76,128522,1,2,0:0:0:0:
225,180,128879,5,4,0:0:0:0:
225,180,129057,2,0,L|135:176,1,90,6|4,0:0|0:0,0:0:0:0:
93,228,129593,1,2,0:0:0:0:
93,228,129950,1,2,0:0:0:0:
212,324,130307,5,0,0:0:0:0:
212,324,130486,2,0,L|301:327,1,90,6|0,0:0|0:0,0:0:0:0:
225,180,131200,2,0,L|136:177,1,90,10|0,0:0|0:0,0:0:0:0:
109,114,131735,1,4,0:0:0:0:
200,24,131914,2,0,L|289:27,1,90,6|0,0:0|0:0,0:0:0:0:
379,128,132628,1,8,0:0:0:0:
477,35,132985,5,2,0:0:0:0:
411,18,133164,1,2,0:0:0:0:
429,82,133342,2,8,P|470:117|509:113,2,90,4|0|0,0:0|0:0|0:0,0:0:0:0:
354,194,134414,5,2,0:0:0:0:
304,147,134592,1,6,0:0:0:0:
288,212,134771,2,0,P|292:265|322:290,2,90,4|4|8,0:0|0:0|0:0,0:0:0:0:
154,190,135842,5,2,0:0:0:0:
102,234,136021,1,2,0:0:0:0:
84,168,136199,2,0,P|33:186|17:221,2,90,4|0|8,0:0|0:0|0:0,0:0:0:0:
224,55,137270,5,0,0:0:0:0:
289,34,137449,1,4,0:0:0:0:
224,123,137628,5,4,0:0:0:0:
289,144,137985,1,4,0:0:0:0:
328,89,138342,2,0,L|349:106,2,15,10|0|0,0:0|0:0|0:0,0:0:0:0:
380,360,139056,6,0,P|452:348|488:312,1,90,6|0,0:0|0:0,0:0:0:0:
476,272,139592,1,0,0:0:0:0:
340,304,139770,2,0,P|268:292|232:256,1,90,10|0,0:0|0:0,0:0:0:0:
244,216,140306,1,4,0:0:0:0:
212,348,140484,1,4,0:0:0:0:
244,216,140841,5,4,0:0:0:0:
244,216,141020,1,0,0:0:0:0:
174,197,141198,1,10,0:0:0:0:
186,265,141377,1,0,0:0:0:0:
122,243,141556,1,0,0:0:0:0:
110,175,141734,1,0,0:0:0:0:
85,301,141913,6,0,P|55:259|61:206,1,90,6|0,0:0|0:0,0:0:0:0:
110,175,142448,2,0,P|137:211|141:229,1,45,0|8,0:0|0:0,0:0:0:0:
169,341,142984,5,0,0:0:0:0:
108,369,143162,1,4,0:0:0:0:
42,351,143341,2,0,P|12:309|18:256,1,90,6|4,0:0|0:0,0:0:0:0:
54,222,143877,2,0,P|81:258|85:276,1,45,0|8,0:0|0:0,0:0:0:0:
98,166,144234,2,0,P|56:153|12:159,1,90,2|0,0:0|0:0,0:0:0:0:
61,81,144769,2,4,P|108:71|213:77,1,135,2|0,0:0|0:0,0:0:0:0:
305,44,145484,6,0,P|352:32|417:51,1,90,10|0,0:0|0:0,0:0:0:0:
453,11,146019,1,4,0:0:0:0:
448,78,146198,1,6,0:0:0:0:
358,140,146555,1,4,0:0:0:0:
459,196,146912,2,0,P|477:234|458:283,1,90,10|0,0:0|0:0,0:0:0:0:
211,98,147626,6,0,L|323:94,1,90,6|0,0:0|0:0,0:0:0:0:
368,97,148162,2,0,P|356:53|342:42,1,45,0|8,0:0|0:0,0:0:0:0:
296,26,148519,1,0,0:0:0:0:
300,94,148697,1,2,0:0:0:0:
330,153,148876,1,4,0:0:0:0:
389,185,149054,2,0,P|445:176|467:142,2,90,4|4|10,0:0|0:0|0:0,0:0:0:0:
331,220,149947,5,0,0:0:0:0:
266,199,150126,1,2,0:0:0:0:
206,231,150304,1,0,0:0:0:0:
146,199,150483,2,0,P|139:250|163:286,2,90,4|0|2,0:0|0:0|0:0,0:0:0:0:
206,231,151376,5,0,0:0:0:0:
266,199,151554,1,0,0:0:0:0:
331,220,151733,1,4,0:0:0:0:
364,280,151911,2,0,P|407:286|445:263,1,90,4|4,0:0|0:0,0:0:0:0:
281,270,152625,5,8,0:0:0:0:
251,330,152804,2,0,P|198:334|164:305,1,90,2|0,0:0|0:0,0:0:0:0:
20,192,153340,2,0,L|172:188,1,135,4|0,0:0|0:0,0:0:0:0:
216,160,154054,2,0,P|208:140|184:116,2,45,8|0|2,0:0|0:0|0:0,0:0:0:0:
212,228,154589,1,4,0:0:0:0:
128,100,154768,2,0,L|28:104,2,90,4|4|8,0:0|0:0|0:0,0:0:0:0:
192,122,155661,5,2,0:0:0:0:
256,96,155839,1,2,0:0:0:0:
320,120,156018,1,0,0:0:0:0:
384,100,156196,2,0,L|484:104,1,90,6|0,0:0|0:0,0:0:0:0:
464,172,156732,1,0,0:0:0:0:
425,31,156911,2,0,L|336:28,1,90,14|0,0:0|0:0,0:0:0:0:
464,172,157446,1,4,0:0:0:0:
301,96,157625,6,0,L|256:96,1,45,6|0,0:0|0:0,0:0:0:0:
208,172,157982,2,0,L|256:168,2,45,4|0|10,0:0|0:0|0:0,0:0:0:0:
164,112,158517,2,0,L|120:112,2,45
32,36,159053,6,0,L|152:32,2,90,6|4|10,0:0|0:0|0:0,0:0:0:0:
72,164,160124,1,0,0:0:0:0:
122,209,160303,1,4,0:0:0:0:
183,236,160481,1,6,0:0:0:0:
316,219,160839,1,4,0:0:0:0:
408,120,161196,2,0,L|497:116,1,90,10|0,0:0|0:0,0:0:0:0:
258,38,161910,6,0,L|168:41,1,90,6|0,0:0|0:0,0:0:0:0:
320,2,162624,1,8,0:0:0:0:
404,118,162981,1,4,0:0:0:0:
409,189,163160,1,4,0:0:0:0:
390,258,163338,1,4,0:0:0:0:
287,358,163695,1,4,0:0:0:0:
143,367,164052,1,12,0:0:0:0:
20,290,164409,1,4,0:0:0:0:
26,74,164767,6,0,P|87:122|127:106,1,121.500000463486,6|0,0:0|0:0,0:0:0:0:
178,155,165302,2,0,P|194:123|187:82,1,60.7500002317429,0|8,0:0|0:0,0:0:0:0:
146,42,165659,2,0,P|220:26|278:54,1,121.500000463486,2|4,0:0|0:0,0:0:0:0:
366,41,166195,1,2,0:0:0:0:
366,41,166374,2,0,P|339:56|322:81,1,60.7500002317429
350,147,166731,2,0,P|376:162|406:165,1,60.7500002317429,0|8,0:0|0:0,0:0:0:0:
455,111,167088,2,0,P|455:80|442:52,1,60.7500002317429
405,165,167445,1,0,0:0:0:0:
475,184,167623,6,0,L|470:245,1,60.7500002317429,6|0,0:0|0:0,0:0:0:0:
397,235,167980,2,0,L|400:299,1,60.7500002317429
450,347,168338,2,0,P|389:368|339:336,1,121.500000463486,10|0,0:0|0:0,0:0:0:0:
306,278,168873,1,4,0:0:0:0:
276,149,169052,2,0,L|154:149,2,121.500000463486,6|4|8,0:0|0:0|0:0,0:0:0:0:
276,149,170123,5,0,0:0:0:0:
317,88,170302,1,0,0:0:0:0:
383,123,170480,2,0,P|338:157|265:142,1,121.500000463486,2|0,0:0|0:0,0:0:0:0:
220,196,171016,2,0,L|127:182,1,60.7500002317429,0|8,0:0|0:0,0:0:0:0:
93,216,171373,1,0,0:0:0:0:
54,344,171551,5,2,0:0:0:0:
43,271,171730,1,0,0:0:0:0:
93,216,171908,2,0,P|124:273|123:294,1,60.7500002317429,6|0,0:0|0:0,0:0:0:0:
43,271,172266,1,2,0:0:0:0:
93,216,172444,1,0,0:0:0:0:
55,153,172623,2,0,P|103:116|123:113,1,60.7500002317429,8|0,0:0|0:0,0:0:0:0:
154,66,172980,2,0,P|202:103|222:106,1,60.7500002317429
353,133,173337,6,0,P|412:104|491:115,2,121.500000463486,2|0|10,0:0|0:0|0:0,0:0:0:0:
254,24,174408,1,0,0:0:0:0:
183,41,174587,1,4,0:0:0:0:
118,7,174765,1,6,0:0:0:0:
63,142,175122,1,4,0:0:0:0:
200,192,175479,1,8,0:0:0:0:
256,144,175658,1,0,0:0:0:0:
320,180,175836,6,0,L|384:156,1,60.7500002317429,2|0,0:0|0:0,0:0:0:0:
512,248,176194,2,0,P|440:256|384:224,1,121.500000463486,6|0,0:0|0:0,0:0:0:0:
372,304,176729,1,0,0:0:0:0:
348,184,176908,2,0,P|276:184|216:224,1,121.500000463486,10|0,0:0|0:0,0:0:0:0:
208,276,177443,1,0,0:0:0:0:
36,200,177622,6,0,P|68:204|112:236,1,60.7500002317429,6|0,0:0|0:0,0:0:0:0:
132,276,177979,1,4,0:0:0:0:
132,276,178158,2,0,P|112:301|62:323,1,60.7500002317429,0|10,0:0|0:0,0:0:0:0:
204,260,178515,2,0,P|184:196|116:156,1,121.500000463486
16,136,179050,6,0,L|24:76,1,60.7500002317429,6|0,0:0|0:0,0:0:0:0:
96,84,179407,2,0,L|100:20,1,60.7500002317429
172,36,179764,2,0,P|236:12|300:40,1,121.500000463486,10|0,0:0|0:0,0:0:0:0:
268,100,180300,1,4,0:0:0:0:
340,84,180479,2,0,L|372:24,1,60.7500002317429,6|0,0:0|0:0,0:0:0:0:
420,80,180836,2,0,P|488:76|508:24,1,121.500000463486,4|8,0:0|0:0,0:0:0:0:
456,196,181550,5,0,0:0:0:0:
384,192,181728,1,0,0:0:0:0:
416,256,181907,2,0,P|484:276|516:224,2,121.500000463486,6|0|8,0:0|0:0|0:0,0:0:0:0:
308,104,182978,5,0,0:0:0:0:
236,120,183157,1,4,0:0:0:0:
288,172,183335,2,0,P|226:206|183:163,2,121.500000463486,6|4|8,0:0|0:0|0:0,0:0:0:0:
36,280,184407,1,0,0:0:0:0:
36,280,184585,1,0,0:0:0:0:
91,233,184764,5,6,0:0:0:0:
64,348,185121,1,0,0:0:0:0:
153,271,185478,1,8,0:0:0:0:
36,280,185835,1,0,0:0:0:0:
36,280,186014,1,4,0:0:0:0:
36,280,186192,1,6,0:0:0:0:
138,342,186549,1,4,0:0:0:0:
91,233,186906,1,8,0:0:0:0:
64,348,187263,5,0,0:0:0:0:
138,342,187442,1,0,0:0:0:0:
153,271,187621,2,0,P|228:276|276:328,1,121.500000463486,2|0,0:0|0:0,0:0:0:0:
336,300,188156,2,0,P|316:364|296:376,1,60.7500002317429,0|8,0:0|0:0,0:0:0:0:
300,240,188513,2,0,P|360:212|424:236,1,121.500000463486,2|4,0:0|0:0,0:0:0:0:
256,184,189049,6,0,P|196:156|132:180,1,121.500000463486,6|4,0:0|0:0,0:0:0:0:
96,224,189585,1,0,0:0:0:0:
104,104,189763,2,0,P|152:56|212:44,1,121.500000463486,10|0,0:0|0:0,0:0:0:0:
268,72,190299,1,0,0:0:0:0:
352,192,190477,6,0,P|420:200|456:156,1,121.500000463486,6|0,0:0|0:0,0:0:0:0:
484,100,191013,2,0,P|424:96|404:108,1,60.7500002317429,0|8,0:0|0:0,0:0:0:0:
228,288,191549,2,0,P|288:292|308:280,1,60.7500002317429,0|4,0:0|0:0,0:0:0:0:
344,336,191906,1,4,0:0:0:0:
476,272,192263,1,4,0:0:0:0:
352,192,192620,1,8,0:0:0:0:
160,312,192977,6,0,P|199:357|222:362,1,60.7500002317429
96,268,193334,2,0,P|90:324|135:386,1,121.500000463486,6|0,0:0|0:0,0:0:0:0:
21,292,193870,2,0,P|34:234|80:195,1,121.500000463486
104,128,194405,6,0,P|44:134|26:149,1,60.7500002317429,0|4,0:0|0:0,0:0:0:0:
176,112,194762,2,0,P|139:68|64:56,1,121.500000463486,6|4,0:0|0:0,0:0:0:0:
228,48,195298,2,0,P|249:133|176:200,1,182.250000695229,2|0,0:0|0:0,0:0:0:0:
120,168,196012,5,0,0:0:0:0:
128,240,196191,2,4,P|184:276|240:248,1,121.500000463486,6|0,0:0|0:0,0:0:0:0:
176,124,196905,1,8,0:0:0:0:
288,216,197262,1,0,0:0:0:0:
292,288,197441,1,4,0:0:0:0:
352,248,197619,2,0,P|420:280|460:244,2,121.500000463486,6|4|8,0:0|0:0|0:0,0:0:0:0:
496,32,198690,6,0,P|420:32|408:40,1,60.7500002317429,2|0,0:0|0:0,0:0:0:0:
344,116,199047,2,0,P|416:120|468:92,1,121.500000463486,6|0,0:0|0:0,0:0:0:0:
328,52,199583,2,0,P|300:64|280:104,1,60.7500002317429,0|8,0:0|0:0,0:0:0:0:
240,148,199940,2,0,P|184:116|176:96,1,60.7500002317429
220,56,200297,1,4,0:0:0:0:
48,20,200476,6,0,P|87:63|146:58,1,121.500000463486,6|4,0:0|0:0,0:0:0:0:
120,136,201012,2,0,B|84:156|96:208,1,60.7500002317429,0|8,0:0|0:0,0:0:0:0:
164,192,201369,2,0,B|200:212|188:264,1,60.7500002317429
12,340,201726,5,0,0:0:0:0:
40,272,201904,2,0,P|97:291|139:334,1,121.500000463486,2|0,0:0|0:0,0:0:0:0:
190,242,202440,1,0,0:0:0:0:
208,368,202618,2,0,P|240:368|280:340,1,60.7500002317429,10|0,0:0|0:0,0:0:0:0:
367,322,202976,2,0,P|357:350|336:372,1,60.7500002317429,0|4,0:0|0:0,0:0:0:0:
256,282,203333,1,6,0:0:0:0:
400,261,203690,1,4,0:0:0:0:
308,147,204047,1,12,0:0:0:0:
412,45,204404,6,0,P|440:49|484:89,1,60.7500002317429,2|0,0:0|0:0,0:0:0:0:
419,114,204761,2,0,P|363:97|339:43,2,121.500000463486,4|0|8,0:0|0:0|0:0,0:0:0:0:
192,32,205832,5,2,0:0:0:0:
264,44,206011,1,4,0:0:0:0:
220,100,206189,1,4,0:0:0:0:
74,91,206546,1,4,0:0:0:0:
144,224,206904,1,8,0:0:0:0:
74,91,207261,5,0,0:0:0:0:
2,107,207439,1,0,0:0:0:0:
22,39,207618,2,0,P|94:19|142:63,2,121.500000463486,2|0|8,0:0|0:0|0:0,0:0:0:0:
80,180,208689,1,0,0:0:0:0:
152,184,208868,1,4,0:0:0:0:
112,244,209046,5,6,0:0:0:0:
176,376,209403,1,4,0:0:0:0:
280,272,209760,1,8,0:0:0:0:
280,272,210117,6,0,P|292:304|316:328,1,45
328,224,210474,2,0,P|384:220|432:244,2,90,2|0|0,0:0|0:0|0:0,0:0:0:0:
210,88,211546,5,0,0:0:0:0:
210,88,211724,1,0,0:0:0:0:
210,88,211903,2,0,L|300:88,1,90,2|0,0:0|0:0,0:0:0:0:
336,148,212617,1,0,0:0:0:0:
196,308,212974,5,0,0:0:0:0:
196,308,213153,1,0,0:0:0:0:
196,308,213331,5,2,0:0:0:0:
117,221,213688,1,0,0:0:0:0:
130,336,214045,1,0,0:0:0:0:
187,234,214402,1,0,0:0:0:0:
82,285,214760,1,2,0:0:0:0:
196,308,215117,1,0,0:0:0:0:
117,221,215474,1,0,0:0:0:0:
84,80,215831,6,0,P|104:108|96:148,1,45
156,160,216188,2,0,L|256:156,2,90,2|0|0,0:0|0:0|0:0,0:0:0:0:
428,48,217259,5,0,0:0:0:0:
428,48,217438,1,0,0:0:0:0:
428,48,217616,2,0,L|304:48,1,90,2|0,0:0|0:0,0:0:0:0:
196,96,218331,1,0,0:0:0:0:
332,280,218688,5,0,0:0:0:0:
332,280,218866,1,0,0:0:0:0:
332,280,219045,5,2,0:0:0:0:
411,193,219402,1,0,0:0:0:0:
398,308,219759,1,0,0:0:0:0:
341,206,220116,1,0,0:0:0:0:
446,257,220473,1,0,0:0:0:0:
312,48,221930,5,2,0:0:0:0:
300,75,222108,1,0,0:0:0:0:
297,105,222287,1,0,0:0:0:0:
304,134,222465,1,0,0:0:0:0:
321,159,222644,1,0,0:0:0:0:
344,177,222822,1,0,0:0:0:0:
372,187,223001,2,0,P|412:196|440:192,1,45,2|0,0:0|0:0,0:0:0:0:
372,212,223358,5,2,0:0:0:0:
342,208,223536,1,0,0:0:0:0:
313,215,223715,1,0,0:0:0:0:
287,230,223894,1,0,0:0:0:0:
269,254,224072,1,0,0:0:0:0:
259,282,224251,1,0,0:0:0:0:
258,312,224429,2,0,P|261:352|274:378,1,45,2|0,0:0|0:0,0:0:0:0:
232,352,224786,5,2,0:0:0:0:
226,322,224965,1,0,0:0:0:0:
210,296,225143,1,0,0:0:0:0:
188,276,225322,1,0,0:0:0:0:
160,267,225500,1,0,0:0:0:0:
130,266,225679,1,0,0:0:0:0:
101,274,225858,2,0,P|63:290|43:309,1,45,2|0,0:0|0:0,0:0:0:0:
87,253,226215,5,2,0:0:0:0:
114,239,226393,1,0,0:0:0:0:
133,216,226572,1,0,0:0:0:0:
145,189,226750,1,0,0:0:0:0:
146,159,226929,1,0,0:0:0:0:
138,131,227107,1,0,0:0:0:0:
120,106,227286,2,0,P|92:75|67:61,1,45,2|0,0:0|0:0,0:0:0:0:
116,68,227643,5,2,0:0:0:0:
137,89,227822,1,0,0:0:0:0:
165,100,228000,1,0,0:0:0:0:
194,103,228179,1,0,0:0:0:0:
223,95,228357,1,0,0:0:0:0:
247,78,228536,1,0,0:0:0:0:
266,53,228714,2,0,P|286:16|292:-11,1,45,2|0,0:0|0:0,0:0:0:0:
354,85,229071,5,0,0:0:0:0:
333,106,229250,1,0,0:0:0:0:
305,117,229428,1,0,0:0:0:0:
276,120,229607,1,0,0:0:0:0:
247,112,229786,1,0,0:0:0:0:
223,95,229964,1,0,0:0:0:0:
204,70,230143,2,0,P|183:33|177:5,1,45,2|0,0:0|0:0,0:0:0:0:
112,20,230500,5,2,0:0:0:0:
84,35,230678,1,0,0:0:0:0:
62,57,230857,1,0,0:0:0:0:
47,85,231035,1,0,0:0:0:0:
149,189,231214,5,2,0:0:0:0:
153,157,231392,1,0,0:0:0:0:
148,126,231571,1,0,0:0:0:0:
134,98,231750,1,0,0:0:0:0:
56,204,231928,5,2,0:0:0:0:
29,188,232107,1,0,0:0:0:0:
5,209,232285,1,0,0:0:0:0:
19,238,232464,1,0,0:0:0:0:
50,235,232642,1,2,0:0:0:0:
80,227,232821,1,0,0:0:0:0:
111,221,232999,2,0,P|160:220|176:224,1,45
256,280,233356,5,2,0:0:0:0:
287,279,233535,1,0,0:0:0:0:
318,285,233714,1,0,0:0:0:0:
348,293,233892,1,0,0:0:0:0:
379,296,234071,1,0,0:0:0:0:
393,267,234249,1,0,0:0:0:0:
369,246,234428,1,2,0:0:0:0:
342,262,234606,1,0,0:0:0:0:
456,356,234785,5,2,0:0:0:0:
474,332,234963,1,0,0:0:0:0:
487,305,235142,1,0,0:0:0:0:
493,275,235320,1,0,0:0:0:0:
491,245,235499,1,0,0:0:0:0:
482,217,235678,1,0,0:0:0:0:
466,191,235856,1,2,0:0:0:0:
444,171,236035,1,0,0:0:0:0:
384,56,236213,5,2,0:0:0:0:
364,78,236392,1,0,0:0:0:0:
338,94,236570,1,0,0:0:0:0:
310,103,236749,1,0,0:0:0:0:
280,105,236927,1,0,0:0:0:0:
250,99,237106,1,0,0:0:0:0:
223,86,237284,2,0,P|192:64|184:48,1,45,2|0,0:0|0:0,0:0:0:0:
141,123,237642,5,2,0:0:0:0:
168,134,237820,1,0,0:0:0:0:
198,137,237999,1,0,0:0:0:0:
227,134,238177,1,0,0:0:0:0:
255,123,238356,1,0,0:0:0:0:
280,105,238534,1,0,0:0:0:0:
299,82,238713,2,0,P|317:48|318:31,1,45,2|0,0:0|0:0,0:0:0:0:
412,56,239070,5,2,0:0:0:0:
418,84,239249,1,0,0:0:0:0:
417,115,239427,1,0,0:0:0:0:
409,143,239606,1,0,0:0:0:0:
394,169,239784,1,0,0:0:0:0:
372,191,239963,1,0,0:0:0:0:
346,206,240141,1,2,0:0:0:0:
317,215,240320,1,0,0:0:0:0:
208,236,240498,5,0,0:0:0:0:
218,262,240677,1,0,0:0:0:0:
236,287,240855,1,0,0:0:0:0:
259,306,241034,1,0,0:0:0:0:
286,319,241213,1,2,0:0:0:0:
316,325,241391,1,0,0:0:0:0:
346,323,241570,1,0,0:0:0:0:
375,314,241748,1,0,0:0:0:0:
404,300,241927,5,2,0:0:0:0:
216,192,242652,1,2,0:0:0:0:
400,76,243366,2,0,L|412:68,2,15,2|0|0,0:0|0:0|0:0,0:0:0:0:
