osu file format v14

[General]
AudioFilename: audio.mp3
AudioLeadIn: 0
PreviewTime: 33221
Countdown: 0
SampleSet: Soft
StackLeniency: 0.7
Mode: 3
LetterboxInBreaks: 0
SpecialStyle: 0
WidescreenStoryboard: 0

[Editor]
Bookmarks: 8716,33221,57726,82232,100611
DistanceSpacing: 0.8
BeatDivisor: 3
GridSize: 8
TimelineZoom: 1.5

[Metadata]
Title:Tenshi no Osore
TitleUnicode:天使の怖れ
Artist:Hiroki Kikuta
ArtistUnicode:菊田裕樹
Creator:Weber
Version:EZ
Source:聖剣伝説2
Tags:Theme Squaresoft Square Enix Seiken Densetsu 2 SNES Ayyri Secret Of Mana Fear Of The Heavens Opening Title
BeatmapID:1295615
BeatmapSetID:614120

[Difficulty]
HPDrainRate:6
CircleSize:4
OverallDifficulty:6
ApproachRate:5
SliderMultiplier:1.4
SliderTickRate:1

[Events]
//Background and Video events
0,0,"ayy.png",0,0
//Break Periods
//Storyboard Layer 0 (Background)
//Storyboard Layer 1 (Fail)
//Storyboard Layer 2 (Pass)
//Storyboard Layer 3 (Foreground)
//Storyboard Sound Samples

[TimingPoints]
8736,382.897255902999,4,2,1,25,1,0
57746,-100,4,2,1,25,0,1
82252,-100,4,2,1,25,0,0
94504,-100,4,2,1,5,0,0

[HitObjects]
320,192,8736,5,2,0:0:0:0:
320,192,9246,1,0,0:0:0:0:
64,192,9501,1,2,0:0:0:0:
64,192,10012,1,0,0:0:0:0:
448,192,10267,128,2,11416:0:0:0:0:
192,192,11416,128,4,11799:0:0:0:0:
320,192,11799,1,2,0:0:0:0:
320,192,12309,1,0,0:0:0:0:
192,192,12564,128,4,12947:0:0:0:0:
448,192,12947,128,2,13330:0:0:0:0:
64,192,13330,128,4,14862:0:0:0:0:
320,192,14862,1,2,0:0:0:0:
320,192,15372,1,0,0:0:0:0:
192,192,15628,1,2,0:0:0:0:
192,192,16138,1,0,0:0:0:0:
448,192,16393,128,2,17542:0:0:0:0:
192,192,17542,128,4,17925:0:0:0:0:
320,192,17925,128,2,18308:0:0:0:0:
448,192,18308,128,4,18691:0:0:0:0:
320,192,18691,128,2,19074:0:0:0:0:
64,192,19074,128,4,19457:0:0:0:0:
192,192,19457,128,2,20605:0:0:0:0:
320,192,20605,128,4,20988:0:0:0:0:
448,192,20988,1,2,0:0:0:0:
448,192,21499,1,0,0:0:0:0:
64,192,21754,1,2,0:0:0:0:
64,192,22265,1,0,0:0:0:0:
448,192,22520,128,2,23668:0:0:0:0:
64,192,23668,128,4,24051:0:0:0:0:
320,192,24051,128,2,24434:0:0:0:0:
192,192,24434,128,4,24817:0:0:0:0:
64,192,24817,128,2,25200:0:0:0:0:
320,192,25200,128,4,25583:0:0:0:0:
64,192,25583,128,2,26732:0:0:0:0:
192,192,26732,128,4,27115:0:0:0:0:
448,192,27115,128,2,27497:0:0:0:0:
320,192,27497,128,4,27880:0:0:0:0:
64,192,27880,128,2,28263:0:0:0:0:
320,192,28263,128,4,28646:0:0:0:0:
192,192,28646,128,2,29795:0:0:0:0:
64,192,29795,128,4,30178:0:0:0:0:
320,192,30178,128,2,31709:0:0:0:0:
448,192,31709,128,0,33241:0:0:0:0:
192,192,33241,128,4,34007:0:0:0:0:
64,192,34007,128,4,34773:0:0:0:0:
448,192,34773,128,4,35921:0:0:0:0:
192,192,35921,128,2,36304:0:0:0:0:
320,192,36304,128,4,37070:0:0:0:0:
64,192,37070,128,2,37453:0:0:0:0:
448,192,37453,128,2,37836:0:0:0:0:
192,192,37836,128,4,39367:0:0:0:0:
320,192,39367,128,4,40133:0:0:0:0:
64,192,40133,128,2,40899:0:0:0:0:
448,192,40899,128,4,42048:0:0:0:0:
64,192,42048,128,2,42430:0:0:0:0:
192,192,42430,128,4,42813:0:0:0:0:
448,192,42813,128,2,43196:0:0:0:0:
320,192,43196,128,2,43579:0:0:0:0:
64,192,43579,128,2,43962:0:0:0:0:
192,192,43962,128,2,44345:0:0:0:0:
448,192,44345,128,2,44728:0:0:0:0:
192,192,44728,128,2,45111:0:0:0:0:
320,192,45111,128,2,45494:0:0:0:0:
64,192,45494,128,4,47408:0:0:0:0:
448,192,47408,128,2,47791:0:0:0:0:
320,192,47791,128,2,48174:0:0:0:0:
192,192,48174,128,2,48557:0:0:0:0:
64,192,48557,128,4,50471:0:0:0:0:
448,192,50471,128,2,50854:0:0:0:0:
320,192,50854,128,2,51237:0:0:0:0:
64,192,51237,128,2,51620:0:0:0:0:
192,192,51620,128,4,53152:0:0:0:0:
320,192,53152,128,4,54300:0:0:0:0:
192,192,54300,128,2,54683:0:0:0:0:
448,192,54683,1,6,0:0:0:0:
320,192,54938,1,0,0:0:0:0:
192,192,55194,1,0,0:0:0:0:
320,192,55449,1,2,0:0:0:0:
192,192,55704,1,0,0:0:0:0:
64,192,55959,1,0,0:0:0:0:
448,192,56215,1,2,0:0:0:0:
192,192,56406,1,0,0:0:0:0:
320,192,56598,1,2,0:0:0:0:
448,192,56789,1,0,0:0:0:0:
64,192,56981,1,2,0:0:0:0:
192,192,57172,1,0,0:0:0:0:
320,192,57363,1,2,0:0:0:0:
448,192,57555,1,0,0:0:0:0:
320,192,57746,128,10,58129:0:0:0:0:
192,192,58129,128,2,58512:0:0:0:0:
320,192,58512,128,10,58895:0:0:0:0:
192,192,58895,128,2,59278:0:0:0:0:
448,192,59278,128,10,59661:0:0:0:0:
64,192,59661,128,2,60044:0:0:0:0:
448,192,60044,128,10,60427:0:0:0:0:
64,192,60427,128,2,60810:0:0:0:0:
320,192,60810,128,10,61192:0:0:0:0:
192,192,61192,128,2,61575:0:0:0:0:
320,192,61575,128,10,61958:0:0:0:0:
192,192,61958,128,2,62341:0:0:0:0:
448,192,62341,128,10,62724:0:0:0:0:
64,192,62724,128,2,63107:0:0:0:0:
448,192,63107,128,10,63490:0:0:0:0:
64,192,63490,128,2,63873:0:0:0:0:
448,192,63873,128,8,64256:0:0:0:0:
320,192,64256,128,0,64638:0:0:0:0:
192,192,64638,128,6,65021:0:0:0:0:
64,192,65021,128,0,65404:0:0:0:0:
448,192,65404,128,8,65787:0:0:0:0:
192,192,65787,128,0,66170:0:0:0:0:
320,192,66170,128,6,66553:0:0:0:0:
64,192,66553,128,0,66936:0:0:0:0:
448,192,66936,128,8,67319:0:0:0:0:
192,192,67319,128,0,67702:0:0:0:0:
320,192,67702,128,6,68085:0:0:0:0:
64,192,68085,128,0,68467:0:0:0:0:
448,192,68467,128,8,68850:0:0:0:0:
192,192,68850,128,0,69233:0:0:0:0:
320,192,69233,128,6,69616:0:0:0:0:
448,192,69616,128,2,69999:0:0:0:0:
192,192,69999,128,8,71531:0:0:0:0:
64,192,69999,128,2,71531:0:0:0:0:
448,192,70765,1,0,0:0:0:0:
448,192,71531,128,2,73062:0:0:0:0:
320,192,71531,128,8,73062:0:0:0:0:
64,192,72296,1,0,0:0:0:0:
192,192,73062,128,8,74594:0:0:0:0:
64,192,73062,128,2,74594:0:0:0:0:
448,192,73828,1,0,0:0:0:0:
448,192,74594,128,8,76125:0:0:0:0:
320,192,74594,128,2,76125:0:0:0:0:
64,192,75360,1,0,0:0:0:0:
64,192,76125,128,8,82252:0:0:0:0:
192,192,77657,128,0,82252:0:0:0:0:
448,192,79189,128,0,82252:0:0:0:0:
320,192,80720,128,8,82252:0:0:0:0:
448,192,82635,128,4,83018:0:0:0:0:
320,192,83018,128,2,83400:0:0:0:0:
64,192,83400,128,4,83783:0:0:0:0:
320,192,83783,128,2,84932:0:0:0:0:
64,192,84932,128,4,85315:0:0:0:0:
192,192,85315,128,2,86081:0:0:0:0:
448,192,86081,128,4,86847:0:0:0:0:
64,192,86847,128,2,87612:0:0:0:0:
320,192,87612,128,4,88378:0:0:0:0:
192,192,88378,128,2,89575:0:0:0:0:
448,192,89575,1,2,0:0:0:0:
320,192,89766,1,2,0:0:0:0:
64,192,89910,128,4,91058:0:0:0:0:
192,192,91058,1,2,0:0:0:0:
320,192,91250,1,4,0:0:0:0:
448,192,91441,128,2,94504:0:0:0:0:
320,192,94504,128,4,100631:0:0:0:0:
