osu file format v14

[General]
AudioFilename: audio.mp3
AudioLeadIn: 0
PreviewTime: 61
Countdown: 0
SampleSet: Normal
StackLeniency: 0.7
Mode: 0
LetterboxInBreaks: 0
WidescreenStoryboard: 0

[Editor]
DistanceSpacing: 0.9
BeatDivisor: 4
GridSize: 16
TimelineZoom: 1

[Metadata]
Title:Music 1
TitleUnicode:Music 1
Artist:Hirokazu Tanaka
ArtistUnicode:Hirokazu Tanaka
Creator:Nitroz
Version:Level 19
Source:Tetris
Tags:NES Nintendo Entertainment System Dance of the Sugar Plum Fairy Pyotr Tchaikovsky
BeatmapID:1856470
BeatmapSetID:888131

[Difficulty]
HPDrainRate:7
CircleSize:5
OverallDifficulty:7
ApproachRate:8
SliderMultiplier:2.24
SliderTickRate:2

[Events]
//Background and Video events
0,0,"fz3ytsnldwe11.png",0,0
//Break Periods
//Storyboard Layer 0 (Background)
//Storyboard Layer 1 (Fail)
//Storyboard Layer 2 (Pass)
//Storyboard Layer 3 (Foreground)
//Storyboard Sound Samples

[TimingPoints]
61,399.39026419666,4,1,1,50,1,0
54777,399.39026419666,4,1,1,50,1,0

[Colours]
Combo1 : 255,192,0
Combo2 : 0,202,0
Combo3 : 18,124,255
Combo4 : 242,24,57

[HitObjects]
208,80,61,6,0,L|96:80,1,112,8|0,0:0|0:0,0:0:0:0:
304,80,460,2,0,L|416:80,1,112
208,192,859,2,0,L|96:192,1,112
304,192,1258,2,0,L|416:192,1,112
208,304,1658,6,0,B|128:304|128:304|128:272,1,112
304,304,2057,2,0,B|384:304|384:304|384:272,1,112
208,192,2457,2,0,B|168:192|168:192|168:160|168:160|128:160,1,112
304,192,2856,2,0,B|344:192|344:192|344:160|344:160|384:160,1,112
256,80,3256,5,4,0:0:0:0:
96,320,3655,1,0,0:0:0:0:
192,272,3855,1,0,0:0:0:0:
288,320,4054,2,0,B|432:320|432:320|432:240,1,224
240,80,4853,6,0,B|200:80|200:80|200:112|200:112|160:112,1,112
208,192,5253,2,0,L|320:192,1,112
432,192,5652,1,0,0:0:0:0:
432,304,5852,1,0,0:0:0:0:
320,304,6051,2,0,L|208:304,1,112
208,192,6451,5,0,0:0:0:0:
320,192,6650,1,0,0:0:0:0:
320,80,6850,2,0,L|208:80,1,112
96,80,7250,1,0,0:0:0:0:
96,192,7449,1,0,0:0:0:0:
96,304,7649,2,0,L|208:304,1,112
320,224,8048,6,0,B|320:144|320:144|352:144,1,112
192,224,8448,2,0,B|192:144|192:144|160:144,1,112
256,192,8847,1,8,0:0:0:0:
400,48,9246,1,0,0:0:0:0:
432,80,9346,1,0,0:0:0:0:
400,112,9446,1,0,0:0:0:0:
432,144,9546,1,0,0:0:0:0:
400,176,9646,6,0,L|400:288,1,112,4|0,0:0|0:0,0:0:0:0:
288,288,10045,1,0,0:0:0:0:
288,176,10245,1,0,0:0:0:0:
288,64,10445,2,0,L|176:64,1,112
64,64,10844,1,0,0:0:0:0:
64,176,11044,1,0,0:0:0:0:
176,176,11243,6,0,L|176:288,1,112
64,288,11643,1,0,0:0:0:0:
304,192,12042,2,0,B|344:192|344:192|344:160|344:160|384:160,1,112
496,160,12442,1,0,0:0:0:0:
208,192,12841,6,0,B|168:192|168:192|168:160|168:160|128:160,1,112
16,160,13241,1,0,0:0:0:0:
256,160,13640,2,0,L|256:48,2,112
128,256,14439,6,0,B|48:256|48:256|48:288,1,112
128,352,14838,2,0,B|208:352|208:352|208:320,1,112
208,208,15237,1,8,0:0:0:0:
64,80,15637,1,0,0:0:0:0:
96,48,15737,1,0,0:0:0:0:
128,80,15836,1,0,0:0:0:0:
160,48,15936,1,0,0:0:0:0:
192,80,16036,6,0,L|304:80,1,112,4|0,0:0|0:0,0:0:0:0:
416,80,16436,1,0,0:0:0:0:
416,192,16635,1,0,0:0:0:0:
304,192,16835,2,0,B|304:336|304:336|384:336,1,224
128,336,17634,6,0,L|16:336,1,112
16,224,18033,2,0,L|16:112,1,112
128,112,18432,1,0,0:0:0:0:
240,112,18632,1,0,0:0:0:0:
336,160,18832,2,0,L|448:160,1,112
448,272,19231,5,0,0:0:0:0:
336,272,19431,1,0,0:0:0:0:
240,320,19631,2,0,L|128:320,1,112
128,208,20030,1,0,0:0:0:0:
128,96,20230,1,0,0:0:0:0:
16,96,20429,2,0,L|16:208,1,112
16,320,20829,5,0,0:0:0:0:
112,352,21028,1,0,0:0:0:0:
208,320,21228,1,0,0:0:0:0:
304,352,21428,1,0,0:0:0:0:
400,320,21628,1,8,0:0:0:0:
400,96,22027,1,0,0:0:0:0:
368,128,22127,1,0,0:0:0:0:
400,160,22227,1,0,0:0:0:0:
368,192,22327,1,0,0:0:0:0:
400,224,22426,6,0,L|400:336,1,112,4|0,0:0|0:0,0:0:0:0:
288,336,22826,1,0,0:0:0:0:
176,336,23025,1,0,0:0:0:0:
64,336,23225,2,0,L|64:224,1,112
64,112,23625,1,0,0:0:0:0:
96,80,23724,1,0,0:0:0:0:
128,112,23824,1,0,0:0:0:0:
160,80,23924,1,0,0:0:0:0:
192,112,24024,6,0,L|304:112,1,112,4|0,0:0|0:0,0:0:0:0:
416,112,24423,1,0,0:0:0:0:
416,224,24623,1,0,0:0:0:0:
304,224,24823,2,0,L|192:224,1,112
192,336,25222,1,0,0:0:0:0:
224,304,25322,1,0,0:0:0:0:
256,336,25422,1,0,0:0:0:0:
288,304,25522,1,0,0:0:0:0:
320,336,25621,6,0,L|432:336,1,112,4|0,0:0|0:0,0:0:0:0:
432,224,26021,1,0,0:0:0:0:
432,112,26221,1,0,0:0:0:0:
432,0,26420,2,0,B|272:0|272:0|272:64,1,224
144,192,27618,1,0,0:0:0:0:
368,192,28018,1,8,0:0:0:0:
224,352,28817,5,0,0:0:0:0:
288,352,29016,1,0,0:0:0:0:
288,288,29216,1,0,0:0:0:0:
224,288,29416,1,0,0:0:0:0:
224,224,29615,1,0,0:0:0:0:
288,224,29815,1,0,0:0:0:0:
288,160,30015,1,0,0:0:0:0:
224,160,30214,1,0,0:0:0:0:
224,96,30414,1,0,0:0:0:0:
288,96,30614,1,0,0:0:0:0:
288,32,30814,1,0,0:0:0:0:
224,32,31013,1,0,0:0:0:0:
288,32,31213,1,0,0:0:0:0:
256,192,31612,1,4,0:0:0:0:
96,320,32012,6,0,L|176:320,1,74.6666666666667
256,320,32278,1,0,0:0:0:0:
256,320,32411,2,0,L|336:320,1,74.6666666666667
416,240,32677,1,0,0:0:0:0:
416,240,32811,2,0,L|336:240,1,74.6666666666667
256,240,33077,1,0,0:0:0:0:
256,240,33210,2,0,L|176:240,1,74.6666666666667
96,160,33476,1,0,0:0:0:0:
96,160,33609,2,0,L|176:160,1,74.6666666666667
256,160,33875,1,0,0:0:0:0:
256,160,34008,2,0,L|336:160,1,74.6666666666667
416,80,34275,2,0,L|336:80,1,74.6666666666667
176,80,34807,1,4,0:0:0:0:
288,352,35207,5,0,0:0:0:0:
224,352,35406,1,0,0:0:0:0:
224,288,35606,1,0,0:0:0:0:
288,288,35806,1,0,0:0:0:0:
288,224,36005,1,0,0:0:0:0:
224,224,36205,1,0,0:0:0:0:
224,160,36405,1,0,0:0:0:0:
288,160,36604,1,0,0:0:0:0:
288,96,36804,1,0,0:0:0:0:
224,96,37004,1,0,0:0:0:0:
224,32,37204,1,0,0:0:0:0:
288,32,37403,1,0,0:0:0:0:
224,32,37603,1,0,0:0:0:0:
256,192,38003,1,4,0:0:0:0:
416,320,38402,6,0,L|336:320,1,74.6666666666667
256,320,38668,1,0,0:0:0:0:
256,320,38801,2,0,L|176:320,1,74.6666666666667
96,240,39067,1,0,0:0:0:0:
96,240,39201,2,0,L|176:240,1,74.6666666666667
256,240,39467,1,0,0:0:0:0:
256,240,39600,2,0,L|336:240,1,74.6666666666667
416,160,39866,1,0,0:0:0:0:
416,160,39999,2,0,L|336:160,1,74.6666666666667
256,160,40265,1,0,0:0:0:0:
256,160,40398,2,0,L|176:160,1,74.6666666666667
96,80,40665,2,0,L|176:80,1,74.6666666666667
336,80,41197,1,4,0:0:0:0:
64,192,41597,5,0,0:0:0:0:
160,160,41797,1,0,0:0:0:0:
256,192,41996,1,0,0:0:0:0:
352,160,42196,1,0,0:0:0:0:
448,192,42396,1,0,0:0:0:0:
448,352,42795,2,0,L|384:352,1,56.0000000000001,4|0,0:0|0:0,0:0:0:0:
448,192,43195,5,0,0:0:0:0:
352,160,43395,1,0,0:0:0:0:
256,192,43594,1,0,0:0:0:0:
160,160,43794,1,0,0:0:0:0:
64,192,43994,1,0,0:0:0:0:
64,352,44393,2,0,L|128:352,1,56.0000000000001,4|0,0:0|0:0,0:0:0:0:
64,192,44792,5,0,0:0:0:0:
160,160,44992,1,0,0:0:0:0:
256,192,45191,1,0,0:0:0:0:
352,160,45391,1,0,0:0:0:0:
448,192,45591,1,0,0:0:0:0:
448,352,45990,2,0,L|384:352,1,56.0000000000001,4|0,0:0|0:0,0:0:0:0:
448,192,46390,5,0,0:0:0:0:
352,160,46590,1,0,0:0:0:0:
256,192,46789,1,0,0:0:0:0:
160,160,46989,1,0,0:0:0:0:
64,192,47189,1,0,0:0:0:0:
144,352,47588,5,0,0:0:0:0:
160,352,47688,1,0,0:0:0:0:
176,352,47788,1,0,0:0:0:0:
192,352,47887,1,0,0:0:0:0:
255,351,47987,5,0,0:0:0:0:
272,352,48087,1,0,0:0:0:0:
288,352,48187,1,0,0:0:0:0:
304,352,48287,1,0,0:0:0:0:
368,352,48387,5,0,0:0:0:0:
368,336,48487,1,0,0:0:0:0:
368,320,48586,1,0,0:0:0:0:
368,304,48686,1,0,0:0:0:0:
368,240,48786,5,0,0:0:0:0:
368,224,48886,1,0,0:0:0:0:
368,208,48986,1,0,0:0:0:0:
368,192,49086,1,0,0:0:0:0:
368,128,49185,5,0,0:0:0:0:
352,128,49285,1,0,0:0:0:0:
336,128,49385,1,0,0:0:0:0:
320,128,49484,1,0,0:0:0:0:
256,128,49584,5,0,0:0:0:0:
240,128,49684,1,0,0:0:0:0:
224,128,49784,1,0,0:0:0:0:
208,128,49884,1,0,0:0:0:0:
144,128,49984,5,0,0:0:0:0:
144,144,50084,1,0,0:0:0:0:
144,160,50183,1,0,0:0:0:0:
144,176,50283,1,0,0:0:0:0:
144,240,50383,5,0,0:0:0:0:
144,256,50483,1,0,0:0:0:0:
144,272,50583,1,0,0:0:0:0:
144,288,50683,1,0,0:0:0:0:
144,352,50783,5,4,0:0:0:0:
176,352,50883,1,0,0:0:0:0:
208,352,50983,1,0,0:0:0:0:
240,352,51083,1,0,0:0:0:0:
272,352,51182,1,0,0:0:0:0:
304,352,51282,1,0,0:0:0:0:
336,352,51382,1,0,0:0:0:0:
368,352,51482,1,0,0:0:0:0:
368,320,51582,5,0,0:0:0:0:
336,320,51682,1,0,0:0:0:0:
304,320,51782,1,0,0:0:0:0:
272,320,51882,1,0,0:0:0:0:
240,320,51981,1,0,0:0:0:0:
208,320,52081,1,0,0:0:0:0:
176,320,52181,1,0,0:0:0:0:
144,320,52281,1,0,0:0:0:0:
144,288,52381,5,0,0:0:0:0:
176,288,52481,1,0,0:0:0:0:
208,288,52581,1,0,0:0:0:0:
240,288,52681,1,0,0:0:0:0:
272,288,52780,1,0,0:0:0:0:
304,288,52880,1,0,0:0:0:0:
336,288,52980,1,0,0:0:0:0:
368,288,53080,1,0,0:0:0:0:
368,256,53180,5,0,0:0:0:0:
336,256,53280,1,0,0:0:0:0:
304,256,53380,1,0,0:0:0:0:
272,256,53480,1,0,0:0:0:0:
240,256,53579,1,0,0:0:0:0:
208,256,53679,1,0,0:0:0:0:
176,256,53779,1,0,0:0:0:0:
144,256,53879,1,0,0:0:0:0:
144,256,53978,1,4,0:0:0:0:
256,192,54378,5,0,0:0:0:0:
304,80,54777,2,0,L|416:80,1,112,8|0,0:0|0:0,0:0:0:0:
208,80,55176,2,0,L|96:80,1,112
304,192,55575,2,0,L|416:192,1,112
208,192,55974,2,0,L|96:192,1,112
304,304,56374,6,0,B|384:304|384:304|384:272,1,112
208,304,56773,2,0,B|128:304|128:304|128:272,1,112
304,192,57173,2,0,B|344:192|344:192|344:160|344:160|384:160,1,112
208,192,57572,2,0,B|168:192|168:192|168:160|168:160|128:160,1,112
256,80,57972,5,4,0:0:0:0:
416,320,58371,1,0,0:0:0:0:
320,272,58571,1,0,0:0:0:0:
224,320,58770,2,0,B|80:320|80:320|80:240,1,224
272,80,59569,6,0,B|312:80|312:80|312:112|312:112|352:112,1,112
304,192,59969,2,0,L|192:192,1,112
80,192,60368,1,0,0:0:0:0:
80,304,60568,1,0,0:0:0:0:
192,304,60767,2,0,L|304:304,1,112
304,192,61167,5,0,0:0:0:0:
192,192,61366,1,0,0:0:0:0:
192,80,61566,2,0,L|304:80,1,112
416,80,61966,1,0,0:0:0:0:
416,192,62165,1,0,0:0:0:0:
416,304,62365,2,0,L|304:304,1,112
192,224,62764,6,0,B|192:144|192:144|160:144,1,112
320,224,63164,2,0,B|320:144|320:144|352:144,1,112
256,192,63563,1,8,0:0:0:0:
112,48,63962,1,0,0:0:0:0:
80,80,64062,1,0,0:0:0:0:
112,112,64162,1,0,0:0:0:0:
80,144,64262,1,0,0:0:0:0:
112,176,64362,6,0,L|112:288,1,112,4|0,0:0|0:0,0:0:0:0:
224,288,64761,1,0,0:0:0:0:
224,176,64961,1,0,0:0:0:0:
224,64,65161,2,0,L|336:64,1,112
448,64,65560,1,0,0:0:0:0:
448,176,65760,1,0,0:0:0:0:
336,176,65959,6,0,L|336:288,1,112
448,288,66359,1,0,0:0:0:0:
208,192,66758,2,0,B|168:192|168:192|168:160|168:160|128:160,1,112
16,160,67158,1,0,0:0:0:0:
304,192,67557,6,0,B|344:192|344:192|344:160|344:160|384:160,1,112
496,160,67957,1,0,0:0:0:0:
256,160,68356,2,0,L|256:48,2,112
384,256,69155,6,0,B|464:256|464:256|464:288,1,112
384,352,69554,2,0,B|304:352|304:352|304:320,1,112
304,208,69953,1,8,0:0:0:0:
448,80,70353,1,0,0:0:0:0:
416,48,70453,1,0,0:0:0:0:
384,80,70552,1,0,0:0:0:0:
352,48,70652,1,0,0:0:0:0:
320,80,70752,6,0,L|208:80,1,112,4|0,0:0|0:0,0:0:0:0:
96,80,71152,1,0,0:0:0:0:
96,192,71351,1,0,0:0:0:0:
208,192,71551,2,0,B|208:336|208:336|128:336,1,224
384,336,72350,6,0,L|496:336,1,112
496,224,72749,2,0,L|496:112,1,112
384,112,73148,1,0,0:0:0:0:
272,112,73348,1,0,0:0:0:0:
176,160,73548,2,0,L|64:160,1,112
64,272,73947,5,0,0:0:0:0:
176,272,74147,1,0,0:0:0:0:
272,320,74347,2,0,L|384:320,1,112
384,208,74746,1,0,0:0:0:0:
384,96,74946,1,0,0:0:0:0:
496,96,75145,2,0,L|496:208,1,112
496,320,75545,5,0,0:0:0:0:
400,352,75744,1,0,0:0:0:0:
304,320,75944,1,0,0:0:0:0:
208,352,76144,1,0,0:0:0:0:
112,320,76344,1,8,0:0:0:0:
112,96,76743,1,0,0:0:0:0:
144,128,76843,1,0,0:0:0:0:
112,160,76943,1,0,0:0:0:0:
144,192,77043,1,0,0:0:0:0:
112,224,77142,6,0,L|112:336,1,112,4|0,0:0|0:0,0:0:0:0:
224,336,77542,1,0,0:0:0:0:
336,336,77741,1,0,0:0:0:0:
448,336,77941,2,0,L|448:224,1,112
448,112,78341,1,0,0:0:0:0:
416,80,78440,1,0,0:0:0:0:
384,112,78540,1,0,0:0:0:0:
352,80,78640,1,0,0:0:0:0:
320,112,78740,6,0,L|208:112,1,112,4|0,0:0|0:0,0:0:0:0:
96,112,79139,1,0,0:0:0:0:
96,224,79339,1,0,0:0:0:0:
208,224,79539,2,0,L|320:224,1,112
320,336,79938,1,0,0:0:0:0:
288,304,80038,1,0,0:0:0:0:
256,336,80138,1,0,0:0:0:0:
224,304,80238,1,0,0:0:0:0:
192,336,80337,6,0,L|80:336,1,112,4|0,0:0|0:0,0:0:0:0:
80,224,80737,1,0,0:0:0:0:
80,112,80937,1,0,0:0:0:0:
80,0,81136,2,0,B|240:0|240:0|240:64,1,224
368,192,82334,1,0,0:0:0:0:
144,192,82734,1,8,0:0:0:0:
288,352,83533,5,0,0:0:0:0:
224,352,83732,1,0,0:0:0:0:
224,288,83932,1,0,0:0:0:0:
288,288,84132,1,0,0:0:0:0:
288,224,84331,1,0,0:0:0:0:
224,224,84531,1,0,0:0:0:0:
224,160,84731,1,0,0:0:0:0:
288,160,84930,1,0,0:0:0:0:
288,96,85130,1,0,0:0:0:0:
224,96,85330,1,0,0:0:0:0:
224,32,85530,1,0,0:0:0:0:
288,32,85729,1,0,0:0:0:0:
224,32,85929,1,0,0:0:0:0:
256,192,86328,1,4,0:0:0:0:
416,320,86728,6,0,L|336:320,1,74.6666666666667
256,320,86994,1,0,0:0:0:0:
256,320,87127,2,0,L|176:320,1,74.6666666666667
96,240,87393,1,0,0:0:0:0:
96,240,87527,2,0,L|176:240,1,74.6666666666667
256,240,87793,1,0,0:0:0:0:
256,240,87926,2,0,L|336:240,1,74.6666666666667
416,160,88192,1,0,0:0:0:0:
416,160,88325,2,0,L|336:160,1,74.6666666666667
256,160,88591,1,0,0:0:0:0:
256,160,88724,2,0,L|176:160,1,74.6666666666667
96,80,88991,2,0,L|176:80,1,74.6666666666667
336,80,89523,1,4,0:0:0:0:
224,352,89923,5,0,0:0:0:0:
288,352,90122,1,0,0:0:0:0:
288,288,90322,1,0,0:0:0:0:
224,288,90522,1,0,0:0:0:0:
224,224,90721,1,0,0:0:0:0:
288,224,90921,1,0,0:0:0:0:
288,160,91121,1,0,0:0:0:0:
224,160,91320,1,0,0:0:0:0:
224,96,91520,1,0,0:0:0:0:
288,96,91720,1,0,0:0:0:0:
288,32,91920,1,0,0:0:0:0:
224,32,92119,1,0,0:0:0:0:
288,32,92319,1,0,0:0:0:0:
256,192,92719,1,4,0:0:0:0:
96,320,93118,6,0,L|176:320,1,74.6666666666667
256,320,93384,1,0,0:0:0:0:
256,320,93517,2,0,L|336:320,1,74.6666666666667
416,240,93783,1,0,0:0:0:0:
416,240,93917,2,0,L|336:240,1,74.6666666666667
256,240,94183,1,0,0:0:0:0:
256,240,94316,2,0,L|176:240,1,74.6666666666667
96,160,94582,1,0,0:0:0:0:
96,160,94715,2,0,L|176:160,1,74.6666666666667
256,160,94981,1,0,0:0:0:0:
256,160,95114,2,0,L|336:160,1,74.6666666666667
416,80,95381,2,0,L|336:80,1,74.6666666666667
176,80,95913,1,4,0:0:0:0:
448,192,96313,5,0,0:0:0:0:
352,160,96513,1,0,0:0:0:0:
256,192,96712,1,0,0:0:0:0:
160,160,96912,1,0,0:0:0:0:
64,192,97112,1,0,0:0:0:0:
64,352,97511,2,0,L|128:352,1,56.0000000000001,4|0,0:0|0:0,0:0:0:0:
64,192,97911,5,0,0:0:0:0:
160,160,98111,1,0,0:0:0:0:
256,192,98310,1,0,0:0:0:0:
352,160,98510,1,0,0:0:0:0:
448,192,98710,1,0,0:0:0:0:
448,352,99109,2,0,L|384:352,1,56.0000000000001,4|0,0:0|0:0,0:0:0:0:
448,192,99508,5,0,0:0:0:0:
352,160,99708,1,0,0:0:0:0:
256,192,99907,1,0,0:0:0:0:
160,160,100107,1,0,0:0:0:0:
64,192,100307,1,0,0:0:0:0:
64,352,100706,2,0,L|128:352,1,56.0000000000001,4|0,0:0|0:0,0:0:0:0:
64,192,101106,5,0,0:0:0:0:
160,160,101306,1,0,0:0:0:0:
256,192,101505,1,0,0:0:0:0:
352,160,101705,1,0,0:0:0:0:
448,192,101905,1,0,0:0:0:0:
368,352,102304,5,0,0:0:0:0:
352,352,102404,1,0,0:0:0:0:
336,352,102504,1,0,0:0:0:0:
320,352,102603,1,0,0:0:0:0:
257,351,102703,5,0,0:0:0:0:
240,352,102803,1,0,0:0:0:0:
224,352,102903,1,0,0:0:0:0:
208,352,103003,1,0,0:0:0:0:
144,352,103103,5,0,0:0:0:0:
144,336,103203,1,0,0:0:0:0:
144,320,103302,1,0,0:0:0:0:
144,304,103402,1,0,0:0:0:0:
144,240,103502,5,0,0:0:0:0:
144,224,103602,1,0,0:0:0:0:
144,208,103702,1,0,0:0:0:0:
144,192,103802,1,0,0:0:0:0:
144,128,103901,5,0,0:0:0:0:
160,128,104001,1,0,0:0:0:0:
176,128,104101,1,0,0:0:0:0:
192,128,104200,1,0,0:0:0:0:
256,128,104300,5,0,0:0:0:0:
272,128,104400,1,0,0:0:0:0:
288,128,104500,1,0,0:0:0:0:
304,128,104600,1,0,0:0:0:0:
368,128,104700,5,0,0:0:0:0:
368,144,104800,1,0,0:0:0:0:
368,160,104899,1,0,0:0:0:0:
368,176,104999,1,0,0:0:0:0:
368,240,105099,5,0,0:0:0:0:
368,256,105199,1,0,0:0:0:0:
368,272,105299,1,0,0:0:0:0:
368,288,105399,1,0,0:0:0:0:
368,352,105499,5,4,0:0:0:0:
336,352,105599,1,0,0:0:0:0:
304,352,105699,1,0,0:0:0:0:
272,352,105799,1,0,0:0:0:0:
240,352,105898,1,0,0:0:0:0:
208,352,105998,1,0,0:0:0:0:
176,352,106098,1,0,0:0:0:0:
144,352,106198,1,0,0:0:0:0:
144,320,106298,5,0,0:0:0:0:
176,320,106398,1,0,0:0:0:0:
208,320,106498,1,0,0:0:0:0:
240,320,106598,1,0,0:0:0:0:
272,320,106697,1,0,0:0:0:0:
304,320,106797,1,0,0:0:0:0:
336,320,106897,1,0,0:0:0:0:
368,320,106997,1,0,0:0:0:0:
368,288,107097,5,0,0:0:0:0:
336,288,107197,1,0,0:0:0:0:
304,288,107297,1,0,0:0:0:0:
272,288,107397,1,0,0:0:0:0:
240,288,107496,1,0,0:0:0:0:
208,288,107596,1,0,0:0:0:0:
176,288,107696,1,0,0:0:0:0:
144,288,107796,1,0,0:0:0:0:
144,256,107896,5,0,0:0:0:0:
176,256,107996,1,0,0:0:0:0:
208,256,108096,1,0,0:0:0:0:
240,256,108196,1,0,0:0:0:0:
272,256,108295,1,0,0:0:0:0:
304,256,108395,1,0,0:0:0:0:
336,256,108495,1,0,0:0:0:0:
368,256,108595,1,0,0:0:0:0:
368,256,108694,1,4,0:0:0:0:
256,192,109094,5,0,0:0:0:0:
256,192,109493,1,8,0:0:0:0:
256,192,109693,12,0,112688,0:0:0:0:
48,16,112888,6,0,B|48:64|48:64|144:16|144:16|48:80|48:80|48:192|48:192|48:96|48:96|160:192|160:192,1,616
224,16,112888,6,0,L|224:192,1,168
288,16,112888,6,0,B|288:176|288:176|352:176,1,224
416,16,112888,6,0,B|416:176|416:176|480:176,1,224
80,224,112888,6,0,B|0:224|64:288|64:288|112:352|-16:352,1,224
160,256,112888,6,0,P|96:304|192:320,1,224
176,240,112888,6,0,B|176:352|176:352|176:256|288:240,1,280
240,224,112888,6,0,B|336:224|336:224|240:224|240:224|240:288|240:288|320:288|320:288|240:288|240:288|240:352|240:352|320:352,1,560
336,224,112888,6,0,B|432:224|432:224|336:224|336:224|336:288|336:288|416:288|416:288|336:288|336:288|336:352|336:352|416:352,1,560
416,352,112888,6,0,B|416:224|416:224|512:352|512:352|512:208,1,392
