osu file format v14

[General]
AudioFilename: audio.mp3
AudioLeadIn: 0
PreviewTime: 21867
Countdown: 0
SampleSet: Soft
StackLeniency: 0.3
Mode: 0
LetterboxInBreaks: 0
WidescreenStoryboard: 1

[Editor]
Bookmarks: 4089,7657,9434,11212,11867,12990,14768,21867,36089,43212
DistanceSpacing: 1.1
BeatDivisor: 4
GridSize: 32
TimelineZoom: 3.299998

[Metadata]
Title:Invader Disco
TitleUnicode:Invader Disco
Artist:Hirokazu Koshio
ArtistUnicode:小塩広和
Creator:Hollow Delta
Version:Ultimatum v2
Source:Space Invaders Extreme 2
Tags:electronic instrumental mentai hydrocannon13 chalwa alphabet ds arcade nintendo stage background zuntata taito sound team boss stage one 1 cut short version ver. venax venex Bubblun Vespirit
BeatmapID:1571972
BeatmapSetID:628857

[Difficulty]
HPDrainRate:5.9
CircleSize:4.8
OverallDifficulty:8
ApproachRate:9
SliderMultiplier:1.89999990463257
SliderTickRate:1

[Events]
//Background and Video events
0,0,"nerd_re.jpg",0,0
//Break Periods
//Storyboard Layer 0 (Background)
//Storyboard Layer 1 (Fail)
//Storyboard Layer 2 (Pass)
//Storyboard Layer 3 (Foreground)
//Storyboard Layer 4 (Overlay)
//Storyboard Sound Samples

[TimingPoints]
556,444.444444444444,4,2,0,70,1,0
556,-66.6666666666667,4,2,0,70,0,0
1000,-133.333333333333,4,2,0,70,0,0
5000,-133.333333333333,4,2,0,60,0,0
5889,-80,4,2,0,100,0,0
6333,-80,4,2,0,60,0,0
6778,-80,4,2,0,60,0,0
7222,-80,4,2,0,50,0,0
7278,-133.333333333333,4,2,0,50,0,0
7444,-80,4,2,0,100,0,0
7667,-100,4,1,0,60,0,0
8000,-200,4,1,0,60,0,0
8333,-100,4,1,0,60,0,0
8667,-200,4,1,0,60,0,0
9000,-100,4,2,0,60,0,0
9055,-100,4,2,0,5,0,0
9222,-100,4,2,0,60,0,0
9278,-100,4,2,0,5,0,0
9444,-100,4,1,0,60,0,0
9778,-133.333333333333,4,1,0,60,0,0
10055,-133.333333333333,4,1,0,5,0,0
10111,-100,4,1,0,60,0,0
10444,-133.333333333333,4,1,0,60,0,0
10778,-100,4,2,0,60,0,0
10833,-100,4,2,0,5,0,0
11000,-100,4,2,0,60,0,0
11055,-100,4,2,0,5,0,0
11222,-100,4,1,0,60,0,0
11555,-133.333333333333,4,1,0,60,0,0
11741,-133.333333333333,4,1,0,5,0,0
11889,-100,4,1,0,60,0,0
11963,-100,4,1,0,5,0,0
12111,-100,4,1,0,60,0,0
12222,-133.333333333333,4,1,0,60,0,0
12555,-100,4,2,0,60,0,0
12611,-100,4,2,0,5,0,0
12778,-100,4,2,0,60,0,0
12833,-100,4,2,0,5,0,0
13000,-100,4,1,0,60,0,0
13333,-133.333333333333,4,1,0,60,0,0
13518,-133.333333333333,4,1,0,5,0,0
13667,-100,4,1,0,60,0,0
13741,-100,4,1,0,5,0,0
13889,-100,4,1,0,60,0,0
14000,-133.333333333333,4,1,0,60,0,0
14111,-133.333333333333,4,3,0,60,0,0
14278,-133.333333333333,4,3,0,5,0,0
14333,-100,4,3,0,60,0,0
14500,-100,4,3,0,5,0,0
14555,-100,4,3,0,60,0,0
14778,-100,4,3,0,70,0,0
14944,-100,4,3,0,5,0,0
15000,-100,4,3,0,70,0,0
15111,-100,4,1,0,60,0,0
15278,-100,4,1,0,5,0,0
15333,-100,4,1,0,60,0,0
15444,-133.333333333333,4,1,0,60,0,0
15611,-133.333333333333,4,1,0,5,0,0
15667,-133.333333333333,4,1,0,60,0,0
15944,-133.333333333333,4,1,0,5,0,0
16000,-133.333333333333,4,1,0,60,0,0
16111,-100,4,2,0,60,0,0
16555,-100,4,3,0,70,0,0
16722,-100,4,3,0,5,0,0
16778,-100,4,3,0,70,0,0
16889,-133.333333333333,4,1,0,60,0,0
17055,-133.333333333333,4,1,0,5,0,0
17111,-133.333333333333,4,1,0,60,0,0
17222,-100,4,1,0,60,0,0
17389,-100,4,1,0,5,0,0
17444,-100,4,1,0,60,0,0
17555,-133.333333333333,4,1,0,60,0,0
17722,-133.333333333333,4,1,0,5,0,0
17778,-133.333333333333,4,1,0,60,0,0
17889,-100,4,2,0,60,0,0
18333,-100,4,3,0,70,0,0
18500,-100,4,3,0,5,0,0
18555,-100,4,3,0,70,0,0
18667,-133.333333333333,4,1,0,60,0,0
18833,-133.333333333333,4,1,0,5,0,0
18889,-133.333333333333,4,1,0,60,0,0
19000,-100,4,1,0,60,0,0
19167,-100,4,1,0,5,0,0
19222,-100,4,1,0,60,0,0
19333,-133.333333333333,4,1,0,60,0,0
19500,-133.333333333333,4,1,0,5,0,0
19555,-133.333333333333,4,1,0,60,0,0
19667,-100,4,2,0,60,0,0
20111,-100,4,3,0,70,0,0
20278,-100,4,3,0,5,0,0
20333,-100,4,3,0,70,0,0
20444,-100,4,1,0,60,0,0
20611,-100,4,1,0,5,0,0
20667,-100,4,1,0,60,0,0
20778,-100,4,1,0,60,0,0
20944,-100,4,1,0,5,0,0
21000,-100,4,1,0,60,0,0
21278,-100,4,1,0,5,0,0
21333,-100,4,1,0,60,0,0
21444,-100,4,2,0,60,0,0
21889,-41.6666666666667,4,2,0,60,0,1
22000,-50,4,2,0,100,0,0
22555,-50,4,2,0,50,0,0
22611,-100,4,2,0,50,0,0
22667,-50,4,2,0,50,0,0
22778,-50,4,2,0,70,0,0
23667,-100,4,2,0,100,0,0
24333,-100,4,2,0,60,0,0
24555,-100,4,3,0,70,0,0
24667,-100,4,3,0,5,0,0
24778,-100,4,3,0,70,0,0
24889,-100,4,3,0,5,0,0
25000,-100,4,3,0,100,0,0
25111,-100,4,3,0,5,0,0
25222,-100,4,3,0,70,0,0
25333,-100,4,3,0,5,0,0
25444,-50,4,2,0,100,0,0
25778,-50,4,2,0,60,0,0
26111,-50,4,2,0,50,0,0
26167,-100,4,2,0,50,0,0
26222,-50,4,2,0,50,0,0
26333,-50,4,2,0,70,0,0
26778,-50,4,2,0,100,0,0
27000,-50,4,2,0,70,0,0
27222,-50,4,2,0,60,0,0
27444,-50,4,3,0,60,0,0
28222,-50,4,2,0,60,0,0
29000,-41.6666666666667,4,2,0,60,0,1
29111,-50,4,2,0,100,0,0
29667,-50,4,2,0,50,0,0
29722,-100,4,2,0,50,0,0
29778,-50,4,2,0,50,0,0
29889,-50,4,2,0,70,0,0
30778,-100,4,3,0,60,0,0
31778,-100,4,2,0,60,0,0
32555,-100,4,2,0,100,0,0
33444,-100,4,2,0,70,0,0
34333,-50,4,2,0,70,0,1
34944,-50,4,2,0,5,0,1
35000,-50,4,2,0,60,0,1
35667,-100,4,2,0,70,0,1
36111,-80,4,3,0,60,0,0
37444,-80,4,2,0,60,0,0
37889,-80,4,3,0,60,0,0
38500,-80,4,3,0,5,0,0
38555,-80,4,3,0,60,0,0
39222,-80,4,2,0,60,0,0
39667,-80,4,3,0,60,0,0
40185,-80,4,3,0,60,0,0
40333,-80,4,3,0,60,0,0
40407,-80,4,3,0,60,0,0
40555,-80,4,3,0,65,0,0
41000,-80,4,2,0,60,0,0
41444,-80,4,3,0,65,0,0
41963,-80,4,3,0,5,0,0
42111,-80,4,3,0,65,0,0
42333,-80,4,3,0,65,0,0
42555,-80,4,3,0,70,0,0
42722,-80,4,3,0,5,0,0
42778,-80,4,3,0,70,0,0
42944,-80,4,3,0,5,0,0
43000,-80,4,3,0,70,0,0
43555,-80,4,3,0,60,0,0
44555,-80,4,2,0,60,0,0
45000,-80,4,3,0,70,0,0
45333,-80,4,3,0,60,0,0
45611,-80,4,3,0,5,0,0
45667,-133.333333333333,4,3,0,60,0,0
45889,-133.333333333333,4,3,0,65,0,0
46000,-133.333333333333,4,3,0,60,0,0
46333,-80,4,2,0,60,0,0
46778,-80,4,3,0,70,0,0
47111,-80,4,3,0,60,0,0
47222,-133.333333333333,4,3,0,60,0,0
47296,-133.333333333333,4,3,0,60,0,0
47444,-133.333333333333,4,3,0,60,0,0
47518,-133.333333333333,4,3,0,60,0,0
47555,-80,4,3,0,60,0,0
47667,-80,4,3,0,65,0,0
47889,-133.333333333333,4,3,0,65,0,0
48111,-80,4,2,0,60,0,0
48555,-80,4,3,0,70,0,0
48889,-80,4,3,0,60,0,0
49000,-133.333333333333,4,3,0,60,0,0
49222,-79.9999999999999,4,3,0,60,0,0
49444,-80,4,3,0,60,0,0
49555,-133.333333333333,4,3,0,60,0,0
49889,-80,4,2,0,60,0,0
50333,-50,4,2,0,60,0,1
50444,-50,4,2,0,60,0,0
50667,-50,4,2,0,100,0,0
51000,-50,4,2,0,50,0,0
51055,-100,4,2,0,50,0,0
51111,-50,4,2,0,50,0,0
51222,-40,4,2,0,70,0,0
51444,-50,4,2,0,70,0,0
51555,-66.6666666666667,4,2,0,70,0,0
51667,-100,4,2,0,70,0,0
51889,-66.6666666666667,4,2,0,70,0,0
52000,-50,4,2,0,70,0,0
52111,-66.6666666666667,4,2,0,100,0,0
52444,-50,4,2,0,100,0,0
52778,-66.6666666666667,4,2,0,70,0,0
53000,-50,4,3,0,70,0,0
53111,-50,4,3,0,5,0,0
53222,-66.6666666666667,4,3,0,70,0,0
53333,-66.6666666666667,4,3,0,5,0,0
53444,-50,4,3,0,100,0,0
53555,-50,4,3,0,5,0,0
53667,-66.6666666666667,4,3,0,70,0,0
53778,-66.6666666666667,4,3,0,5,0,0
53889,-66.6666666666667,4,2,0,100,0,0
54222,-50,4,2,0,100,0,0
54555,-50,4,2,0,50,0,0
54611,-100,4,2,0,50,0,0
54667,-50,4,2,0,50,0,0
54778,-40,4,2,0,70,0,0
55000,-50,4,2,0,70,0,0
55111,-66.6666666666667,4,2,0,70,0,0
55222,-100,4,2,0,70,0,0
55444,-66.6666666666667,4,2,0,70,0,0
55555,-50,4,2,0,70,0,0
55667,-40,4,2,0,70,0,0
56000,-40,4,3,0,70,0,0
56667,-40,4,2,0,60,0,0
57444,-50,4,2,0,80,0,1
57555,-50,4,2,0,65,0,0
58111,-50,4,2,0,50,0,0
58167,-100,4,2,0,50,0,0
58222,-50,4,2,0,50,0,0
58333,-40,4,2,0,70,0,0
59222,-40,4,3,0,60,0,0
60222,-40,4,2,0,60,0,0
61000,-66.6666666666667,4,2,0,100,0,0
61333,-100,4,2,0,100,0,0
61444,-100,4,2,0,70,0,0
61667,-200,4,2,0,70,0,0
61889,-200,4,2,0,60,0,0
62000,-400,4,2,0,60,0,0
62778,-50,4,2,0,100,0,1
63444,-50,4,2,0,50,0,1
63667,-50,4,2,0,70,0,1
64111,-50,4,3,0,50,0,1
64167,-100,4,3,0,50,0,1
64333,-50,4,3,0,80,0,1
64555,-100,4,2,0,100,0,0

[Colours]
Combo1 : 128,64,0
Combo2 : 128,0,0
Combo3 : 255,255,128

[HitObjects]
63,121,556,6,0,B|102:117|129:92|129:92|157:112|198:108,1,142.499998283386,4|0,2:0|0:0,0:0:0:0:
141,237,1000,2,0,L|138:199,3,35.6249995708466
129,109,1444,2,0,L|121:38,1,71.2499991416931
137,183,1889,1,0,0:0:0:0:
268,89,2333,6,0,B|288:90|302:80|302:80|315:92|335:94,1,71.2499991416931
292,199,2778,2,0,L|295:157,3,35.6249995708466
303,72,3222,2,0,L|306:-6,1,71.2499991416931
296,146,3667,1,0,0:0:0:0:
375,104,4111,5,0,0:0:0:0:
390,96,4222,1,0,0:0:0:0:
408,95,4333,1,0,0:0:0:0:
426,99,4444,1,0,0:0:0:0:
408,95,4555,5,0,0:0:0:0:
382,102,4666,1,0,0:0:0:0:
361,118,4777,1,0,0:0:0:0:
345,139,4888,1,0,0:0:0:0:
361,118,5000,5,2,0:0:0:0:
356,78,5111,1,0,0:0:0:0:
341,42,5222,1,0,0:0:0:0:
311,13,5333,1,0,0:0:0:0:
341,42,5444,5,2,0:0:0:0:
356,100,5555,1,0,0:0:0:0:
350,159,5666,1,0,0:0:0:0:
326,214,5777,1,0,0:0:0:0:
258,210,5889,6,0,L|80:195,1,178.124991059303,2|0,0:0|0:0,0:0:0:0:
102,281,6333,1,4,3:0:0:0:
236,124,6555,1,4,3:0:0:0:
247,139,6667,1,0,0:0:0:0:
280,228,6778,6,0,P|308:234|335:222,1,59.3749970197678,8|0,3:0|0:0,0:0:0:0:
387,169,7000,2,0,P|397:141|391:113,1,59.3749970197678,8|0,3:0|0:0,0:0:0:0:
334,65,7222,5,0,1:0:0:0:
334,65,7278,2,0,L|332:47,1,17.8124997854233,0|0,1:0|1:0,1:0:0:0:
402,42,7444,2,0,L|398:-3,2,29.6874985098839,0|0|0,3:0|3:0|3:0,0:0:0:0:
257,56,7667,6,0,L|162:47,1,94.9999952316285,4|0,3:0|2:0,0:0:0:0:
226,136,8000,6,0,L|178:131,1,47.4999976158143,4|0,3:0|2:0,0:0:0:0:
241,219,8333,22,0,L|146:210,1,94.9999952316285,4|0,3:0|2:0,0:0:0:0:
210,299,8667,6,0,L|162:294,1,47.4999976158143,4|0,3:0|2:0,0:0:0:0:
243,323,9000,6,0,L|245:346,1,23.7499988079071,2|0,0:0|0:0,0:0:0:0:
100,240,9222,2,0,L|97:216,1,23.7499988079071,2|0,0:0|0:0,0:0:0:0:
273,376,9444,6,0,P|317:385|360:366,1,94.9999952316285,0|0,0:0|2:0,0:0:0:0:
437,342,9778,6,0,P|408:323|396:290,1,71.2499991416931,4|0,3:0|2:0,0:0:0:0:
241,316,10111,22,0,P|272:349|318:358,1,94.9999952316285,4|0,3:0|2:0,0:0:0:0:
416,296,10444,6,0,P|409:262|423:231,1,71.2499991416931,4|0,3:0|0:0,0:0:0:0:
512,272,10778,6,0,L|488:269,1,23.7499988079071,2|0,0:0|0:0,0:0:0:0:
337,285,11000,2,0,L|339:261,1,23.7499988079071,2|0,0:0|0:0,0:0:0:0:
326,108,11222,6,0,P|283:127|237:119,1,94.9999952316285,4|0,0:0|0:0,0:0:0:0:
391,117,11555,6,0,P|379:149|350:169,1,71.2499991416931,2|0,2:0|2:0,0:0:0:0:
442,66,11889,22,0,P|461:108|453:154,1,94.9999952316285,8|0,3:0|0:0,0:0:0:0:
449,1,12222,6,0,P|481:12|501:41,1,71.2499991416931,0|0,0:0|2:0,0:0:0:0:
442,66,12555,6,0,L|422:80,1,23.7499988079071,2|0,0:0|0:0,0:0:0:0:
299,136,12778,2,0,L|274:132,1,23.7499988079071,2|0,0:0|0:0,0:0:0:0:
62,105,13000,6,0,L|53:10,1,94.9999952316285,6|0,2:0|2:0,0:0:0:0:
148,144,13333,6,0,L|177:79,1,71.2499991416931,2|0,2:0|2:0,0:0:0:0:
203,221,13667,22,0,L|280:165,1,94.9999952316285,8|0,3:0|2:0,0:0:0:0:
211,315,14000,6,0,L|281:308,1,71.2499991416931,0|0,0:0|2:0,0:0:0:0:
151,368,14333,5,8,0:0:0:0:
151,368,14555,1,8,0:0:0:0:
22,246,14778,6,0,P|54:231|88:237,1,71.2499964237214,2|0,2:0|0:0,0:0:0:0:
150,247,15000,5,0,0:0:0:0:
272,267,15111,22,0,P|237:275|205:263,1,71.2499964237214,4|0,3:0|0:0,0:0:0:0:
150,247,15333,5,0,0:0:0:0:
64,217,15444,22,0,P|90:219|109:235,1,53.4374993562699,4|0,3:0|0:0,0:0:0:0:
150,247,15667,5,0,0:0:0:0:
224,288,15778,22,0,P|197:280|181:261,1,53.4374993562699,4|0,3:0|0:0,0:0:0:0:
150,247,16000,5,0,0:0:0:0:
329,209,16111,5,2,0:0:0:0:
329,209,16333,1,2,0:0:0:0:
377,347,16555,6,0,L|384:277,1,71.2499991416931,6|0,0:0|0:0,0:0:0:0:
386,252,16778,5,0,0:0:0:0:
488,311,16889,22,0,L|493:258,1,53.4374993562699,4|0,3:0|0:0,0:0:0:0:
494,239,17112,5,0,0:0:0:0:
329,209,17222,22,0,L|336:139,1,71.2499991416931,4|0,3:0|0:0,0:0:0:0:
338,114,17445,5,4,3:0:0:0:
440,173,17556,22,0,L|445:120,1,53.4374993562699,4|0,2:0|0:0,0:0:0:0:
446,101,17779,5,0,0:0:0:0:
281,71,17889,5,2,0:0:0:0:
281,71,18111,1,2,0:0:0:0:
232,220,18333,6,0,B|181:225|181:225|165:212,1,71.2499964237214,6|0,0:0|0:0,0:0:0:0:
147,197,18555,5,0,0:0:0:0:
197,295,18667,22,0,B|159:297|159:297|147:287,1,53.4374993562699,4|0,3:0|0:0,0:0:0:0:
132,275,18889,5,0,0:0:0:0:
2,203,19000,22,0,B|53:198|53:198|69:211,1,71.2499964237214,8|0,3:0|2:0,0:0:0:0:
87,226,19222,5,0,0:0:0:0:
37,128,19333,22,0,B|75:126|75:126|87:136,1,53.4374993562699,4|0,3:0|0:0,0:0:0:0:
102,148,19556,5,0,0:0:0:0:
27,276,19667,5,2,0:0:0:0:
27,276,19889,1,2,0:0:0:0:
268,303,20111,6,0,L|198:296,1,71.2499991416931,2|0,0:0|0:0,0:0:0:0:
173,294,20334,5,0,0:0:0:0:
317,212,20444,22,0,L|247:205,1,71.2499991416931,0|0,0:0|0:0,0:0:0:0:
222,203,20667,5,0,0:0:0:0:
284,112,20778,22,0,L|213:106,1,71.2499991416931,8|0,3:0|0:0,0:0:0:0:
189,104,21001,5,4,3:0:0:0:
333,21,21111,22,0,L|263:14,1,71.2499991416931,0|0,0:0|0:0,0:0:0:0:
238,12,21334,5,0,0:0:0:0:
95,144,21444,5,6,0:0:0:0:
308,115,21667,1,6,0:0:0:0:
23,159,21889,6,0,P|130:207|115:74,1,284.999976997376,4|0,0:0|0:0,0:0:0:0:
122,94,22222,2,0,L|126:127,8,23.7499988079071,0|0|0|0|0|0|0|0|0,0:0|0:0|0:0|0:0|0:0|0:0|0:0|0:0|0:0,0:0:0:0:
218,154,22555,5,0,1:0:0:0:
218,154,22611,2,0,L|241:151,1,23.7499988079071,0|0,1:0|1:0,1:0:0:0:
183,218,22778,6,0,L|151:222,5,23.7499988079071,4|0|0|0|0|0,3:0|0:0|0:0|0:0|0:0|0:0,0:0:0:0:
234,242,23000,2,0,L|266:238,5,23.7499988079071,4|0|0|0|0|0,3:0|0:0|0:0|0:0|0:0|0:0,0:0:0:0:
288,179,23222,6,0,L|286:149,5,23.7499988079071,4|0|0|0|0|0,3:2|0:0|0:0|0:0|0:0|0:0,0:0:0:0:
331,235,23444,2,0,L|333:265,5,23.7499988079071,4|0|0|0|0|0,3:0|0:0|0:0|0:0|0:0|0:0,0:0:0:0:
384,176,23667,6,0,L|430:183,2,47.4999976158143,4|0|0,3:0|0:0|0:0,0:0:0:0:
340,106,24000,2,0,L|293:98,2,47.4999976158143,4|0|0,3:0|0:0|0:0,0:0:0:0:
419,255,24333,1,2,0:0:0:0:
230,243,24555,6,0,L|233:290,1,47.4999976158143,4|0,3:0|0:0,0:0:0:0:
419,255,24778,2,0,L|415:207,1,47.4999976158143,4|0,3:0|0:0,0:0:0:0:
318,343,25000,2,0,L|365:339,1,47.4999976158143,4|0,3:2|0:0,0:0:0:0:
330,153,25222,2,0,L|282:157,1,47.4999976158143,4|0,3:0|0:0,0:0:0:0:
188,347,25444,6,0,B|94:365|94:365|19:316|19:316|75:296,1,237.499988079071,4|0,3:0|0:0,0:0:0:0:
119,256,25778,2,0,L|115:278,8,23.7499988079071,2|0|0|0|0|0|0|0|0,0:0|0:0|0:0|0:0|0:0|0:0|0:0|0:0|0:0,0:0:0:0:
51,210,26111,5,0,1:0:0:0:
51,210,26167,2,0,L|27:212,1,23.7499988079071,0|0,1:0|1:0,1:0:0:0:
97,145,26333,6,0,L|129:142,5,23.7499988079071,4|0|0|0|0|0,3:0|0:0|0:0|0:0|0:0|0:0,0:0:0:0:
182,206,26555,2,0,L|205:210,5,23.7499988079071,4|0|0|0|0|0,3:0|0:0|0:0|0:0|0:0|0:0,0:0:0:0:
262,131,26778,6,0,L|268:99,5,23.7499988079071,4|0|0|0|0|0,3:2|0:0|0:0|0:0|0:0|0:0,0:0:0:0:
291,240,27000,2,0,L|293:272,5,23.7499988079071,4|0|0|0|0|0,3:0|0:0|0:0|0:0|0:0|0:0,0:0:0:0:
405,114,27222,5,0,0:0:0:0:
381,316,27555,1,0,0:0:0:0:
401,139,27778,5,2,0:0:0:0:
384,290,27889,1,2,0:0:0:0:
273,197,28222,1,2,0:0:0:0:
280,350,28333,1,2,0:0:0:0:
183,167,28555,5,2,0:0:0:0:
243,347,28778,1,2,0:0:0:0:
209,354,29000,6,0,P|257:246|125:262,1,284.999985694885,4|0,2:0|0:0,0:0:0:0:
145,254,29333,2,0,L|149:286,8,23.7499988079071,0|0|0|0|0|0|0|0|0,0:0|0:0|0:0|0:0|0:0|0:0|0:0|0:0|0:0,0:0:0:0:
262,361,29667,5,0,1:0:0:0:
262,361,29722,2,0,L|259:384,1,23.7499988079071,0|0,1:0|1:0,1:0:0:0:
323,322,29889,6,0,L|328:290,5,23.7499988079071,4|0|0|0|0|0,3:0|0:0|0:0|0:0|0:0|0:0,0:0:0:0:
420,288,30111,2,0,L|417:256,5,23.7499988079071,4|0|0|0|0|0,3:0|0:0|0:0|0:0|0:0|0:0,0:0:0:0:
276,238,30333,6,0,L|273:206,5,23.7499988079071,4|0|0|0|0|0,3:2|0:0|0:0|0:0|0:0|0:0,0:0:0:0:
180,198,30555,2,0,L|186:166,5,23.7499988079071,4|0|0|0|0|0,3:0|0:0|0:0|0:0|0:0|0:0,0:0:0:0:
350,156,30778,6,0,L|356:108,2,47.4999976158143,4|0|0,3:0|0:0|0:0,0:0:0:0:
137,124,31111,2,0,L|132:76,2,47.4999976158143,4|0|0,3:0|0:0|0:0,0:0:0:0:
273,214,31444,2,0,L|279:166,2,47.4999976158143,4|0|0,0:0|0:0|0:0,0:0:0:0:
82,229,31778,2,0,L|78:181,2,47.4999976158143,4|2|0,3:0|0:0|0:0,0:0:0:0:
328,328,32111,5,6,2:0:0:0:
90,347,32333,1,2,0:0:0:0:
355,151,32555,5,0,0:0:0:0:
360,198,32666,1,0,0:0:0:0:
335,135,32889,5,0,0:0:0:0:
390,179,33000,1,0,0:0:0:0:
296,140,33222,5,0,0:0:0:0:
401,128,33333,1,0,0:0:0:0:
260,187,33555,5,0,0:0:0:0:
357,62,33666,1,0,0:0:0:0:
272,276,33889,5,0,0:0:0:0:
242,40,34111,1,0,0:0:0:0:
176,347,34333,6,0,B|217:378|217:378|354:361|354:361|259:349,1,284.999985694885,4|0,0:0|0:0,0:0:0:0:
118,269,34778,2,0,P|182:258|177:192,1,142.499992847443,4|0,0:0|0:0,0:0:0:0:
90,187,35000,1,4,0:0:0:0:
90,187,35111,1,4,0:0:0:0:
53,305,35222,6,0,B|60:376|60:376|90:374,1,94.9999952316285,4|0,0:0|0:0,0:0:0:0:
262,198,35444,2,0,B|254:127|254:127|224:129,1,94.9999952316285,4|0,0:0|0:0,0:0:0:0:
290,273,35667,6,0,L|293:296,1,23.7499988079071,0|0,3:0|3:0,0:0:0:0:
303,283,35778,2,0,L|310:305,1,23.7499988079071,0|0,3:0|3:0,0:0:0:0:
359,322,35889,2,0,L|369:342,1,23.7499988079071,0|0,3:0|3:0,0:0:0:0:
374,326,36000,2,0,L|388:344,1,23.7499988079071,0|0,3:0|3:0,0:0:0:0:
452,352,36111,5,4,3:0:0:0:
454,322,36222,1,0,0:0:0:0:
508,251,36444,5,4,3:0:0:0:
476,214,36555,1,0,0:0:0:0:
464,125,36778,5,4,3:0:0:0:
390,119,36889,1,0,0:0:0:0:
319,64,37111,5,4,3:0:0:0:
233,136,37222,1,0,0:0:0:0:
452,352,37444,5,2,0:0:0:0:
452,352,37667,1,2,0:0:0:0:
292,227,37889,5,4,3:0:0:0:
262,229,38000,1,0,0:0:0:0:
191,283,38222,5,4,0:0:0:0:
154,251,38333,1,0,0:0:0:0:
65,239,38556,5,4,0:0:0:0:
59,165,38667,1,0,0:0:0:0:
4,94,38889,5,4,3:0:0:0:
76,8,39000,1,0,0:0:0:0:
292,227,39222,5,2,0:0:0:0:
292,227,39444,1,2,0:0:0:0:
288,92,39667,5,4,2:0:0:0:
286,122,39778,1,0,0:0:0:0:
342,169,40000,5,0,0:0:0:0:
387,172,40111,1,8,3:0:0:0:
443,219,40333,5,8,3:0:0:0:
439,287,40444,1,0,0:0:0:0:
392,343,40667,5,0,0:0:0:0:
290,337,40778,1,0,0:0:0:0:
499,256,41000,5,2,0:0:0:0:
499,256,41223,1,2,0:0:0:0:
250,315,41444,5,6,2:0:0:0:
252,285,41555,1,0,0:0:0:0:
196,238,41777,5,2,2:0:0:0:
151,235,41888,1,8,3:0:0:0:
95,188,42110,5,8,3:0:0:0:
99,120,42221,1,0,0:0:0:0:
146,64,42444,5,0,0:0:0:0:
248,70,42555,1,4,3:0:0:0:
194,184,42777,5,8,0:0:0:0:
194,184,43000,1,4,0:0:0:0:
34,218,43222,6,0,P|49:242|77:252,1,59.3749970197678,0|0,0:0|0:0,0:0:0:0:
357,196,43555,2,0,P|341:220|313:230,1,59.3749970197678,4|0,3:0|0:0,0:0:0:0:
52,267,43889,6,0,P|80:273|107:261,1,59.3749970197678,4|0,3:0|0:0,0:0:0:0:
339,245,44222,2,0,P|311:251|284:239,1,59.3749970197678,4|0,3:0|0:0,0:0:0:0:
203,316,44555,5,2,0:0:0:0:
201,286,44666,1,0,0:0:0:0:
196,214,44778,1,2,0:0:0:0:
194,184,44889,1,0,0:0:0:0:
189,112,45000,6,0,L|248:117,1,59.3749970197678,2|0,0:0|0:0,0:0:0:0:
489,274,45333,2,0,L|428:268,1,59.3749970197678,4|0,0:0|0:0,0:0:0:0:
488,149,45667,6,0,L|452:145,1,35.6249995708466,4|0,0:0|0:0,0:0:0:0:
190,237,46000,2,0,L|225:240,1,35.6249995708466,8|0,3:0|0:0,0:0:0:0:
344,128,46333,5,2,0:0:0:0:
342,158,46444,1,0,0:0:0:0:
337,230,46556,1,2,0:0:0:0:
335,260,46667,1,0,0:0:0:0:
330,332,46778,5,2,0:0:0:0:
328,362,46889,2,0,L|269:357,1,59.3749970197678,0|0,0:0|0:0,0:0:0:0:
184,308,47111,5,0,0:0:0:0:
182,325,47222,2,0,L|147:322,1,35.6249995708466,8|0,3:0|0:0,0:0:0:0:
251,212,47444,21,4,3:0:0:0:
249,242,47555,2,0,L|190:237,1,59.3749970197678,0|4,0:0|3:0,0:0:0:0:
105,188,47777,5,4,3:0:0:0:
103,205,47889,2,0,L|68:202,1,35.6249995708466,0|0,0:0|0:0,0:0:0:0:
156,135,48111,5,2,0:0:0:0:
185,142,48222,1,0,0:0:0:0:
85,117,48334,1,2,0:0:0:0:
56,110,48445,1,0,0:0:0:0:
105,188,48555,5,2,0:0:0:0:
107,217,48667,2,0,L|112:276,1,59.3749970197678,0|0,0:0|0:0,0:0:0:0:
223,194,48889,5,0,0:0:0:0:
224,211,49001,2,0,L|226:245,1,35.6249995708466,8|0,3:0|0:0,0:0:0:0:
340,164,49222,21,8,3:0:0:0:
342,193,49333,2,0,L|347:252,1,59.3749970197678
458,170,49556,5,0,0:0:0:0:
459,187,49668,2,0,L|461:221,1,35.6249995708466,4|0,3:0|0:0,0:0:0:0:
389,84,49889,5,4,3:2:0:0:
360,77,50000,1,0,0:0:0:0:
460,102,50112,1,4,2:0:0:0:
489,109,50223,1,0,0:0:0:0:
270,118,50333,5,4,0:0:0:0:
75,15,50555,1,0,0:0:0:0:
59,33,50667,2,0,L|61:56,8,23.7499988079071,0|0|0|0|0|0|0|0|0,0:0|0:0|0:0|0:0|0:0|0:0|0:0|0:0|0:0,0:0:0:0:
43,156,51000,5,0,1:0:0:0:
43,156,51055,2,0,L|19:158,1,23.7499988079071,0|0,1:0|1:0,1:0:0:0:
112,142,51223,6,0,L|117:97,6,29.6874985098839,4|0|0|0|0|0|0,0:3|0:0|0:0|0:0|0:0|0:0|0:0,0:0:0:0:
163,199,51444,6,0,L|178:178,2,23.7499988079071
162,249,51555,2,0,L|195:245,2,17.8124997854233,4|0|0,0:3|0:0|0:0,0:0:0:0:
55,368,51667,6,0,L|48:359,6,11.8749994039536,4|0|0|0|0|0|0,3:2|0:0|0:0|0:0|0:0|0:0|0:0,0:0:0:0:
112,329,51889,6,0,L|114:311,2,17.8124997854233
162,328,52000,2,0,L|181:314,2,23.7499988079071,4|0|0,0:3|0:0|0:0,0:0:0:0:
240,357,52111,6,0,P|303:385|371:371,1,142.499998283386,4|0,3:0|0:0,0:0:0:0:
420,314,52444,6,0,P|410:307|407:296,8,23.7499988079071,4|0|0|0|0|0|0|0|0,3:0|0:0|0:0|0:0|0:0|0:0|0:0|0:0|0:0,0:0:0:0:
479,263,52778,2,0,L|485:192,1,71.2499991416931,2|0,0:0|0:0,0:0:0:0:
427,123,53000,6,0,L|435:25,1,94.9999952316285,4|0,3:0|0:0,0:0:0:0:
320,152,53222,6,0,L|325:81,1,71.2499991416931,4|0,3:0|0:0,0:0:0:0:
213,139,53444,22,0,L|221:41,1,94.9999952316285,4|0,3:2|0:0,0:0:0:0:
106,168,53667,6,0,L|111:97,1,71.2499991416931,4|0,3:0|0:0,0:0:0:0:
14,143,53889,5,4,3:0:0:0:
264,256,54111,1,0,0:0:0:0:
280,238,54223,2,0,L|278:215,8,23.7499988079071,0|0|0|0|0|0|0|0|0,0:0|0:0|0:0|0:0|0:0|0:0|0:0|0:0|0:0,0:0:0:0:
351,190,54555,5,0,1:0:0:0:
351,190,54611,2,0,L|348:166,1,23.7499988079071,0|0,1:0|1:0,1:0:0:0:
413,226,54778,6,0,L|418:271,6,29.6874985098839,4|0|0|0|0|0|0,3:0|0:0|0:0|0:0|0:0|0:0|0:0,0:0:0:0:
463,167,55000,6,0,L|478:188,2,23.7499988079071
462,117,55111,2,0,L|495:121,2,17.8124997854233,4|0|0,3:0|0:0|0:0,0:0:0:0:
336,56,55222,6,0,L|329:65,6,11.8749994039536,4|0|0|0|0|0|0,3:2|0:0|0:0|0:0|0:0|0:0|0:0,0:0:0:0:
392,101,55444,6,0,L|394:119,2,17.8124997854233
442,102,55555,2,0,L|461:116,2,23.7499988079071,4|0|0,3:0|0:0|0:0,0:0:0:0:
425,31,55667,5,2,0:0:0:0:
447,291,56000,1,0,0:0:0:0:
286,75,56222,5,0,0:0:0:0:
302,269,56333,1,0,0:0:0:0:
286,75,56667,1,2,0:0:0:0:
302,269,56778,1,2,0:0:0:0:
141,53,57000,5,2,0:0:0:0:
163,313,57222,1,2,0:0:0:0:
29,153,57444,5,4,2:0:0:0:
279,266,57666,1,0,0:0:0:0:
295,248,57778,2,0,L|293:225,8,23.7499988079071,0|0|0|0|0|0|0|0|0,0:0|0:0|0:0|0:0|0:0|0:0|0:0|0:0|0:0,0:0:0:0:
432,271,58111,5,0,1:0:0:0:
432,271,58167,2,0,L|434:294,1,23.7499988079071,0|0,1:0|1:0,1:0:0:0:
368,160,58333,6,0,L|369:130,6,29.6874985098839,4|0|0|0|0|0|0,3:0|0:0|0:0|0:0|0:0|0:0|0:0,0:0:0:0:
410,220,58555,6,0,L|439:222,2,29.6874985098839,4|0|0,3:0|0:0|0:0,0:0:0:0:
366,257,58667,2,0,L|364:286,2,29.6874985098839,4|0|0,3:0|0:0|0:0,0:0:0:0:
283,210,58778,6,0,L|312:212,6,29.6874985098839,4|0|0|0|0|0|0,2:0|0:0|0:0|0:0|0:0|0:0|0:0,0:0:0:0:
222,163,59000,6,0,L|224:134,2,29.6874985098839
179,201,59112,2,0,L|150:199,2,29.6874985098839
215,271,59222,5,4,3:0:0:0:
0,13,59555,1,4,3:0:0:0:
215,271,59889,1,4,3:0:0:0:
0,13,60222,1,6,3:0:0:0:
0,13,60333,1,2,0:0:0:0:
215,271,60555,5,2,0:0:0:0:
0,13,60778,1,2,0:0:0:0:
0,309,61000,6,0,L|70:302,1,71.2499991416931,0|0,0:0|0:0,0:0:0:0:
70,302,61333,6,0,L|117:297,1,47.4999976158143,0|0,0:0|0:0,0:0:0:0:
117,297,61667,6,0,L|140:294,1,23.7499988079071,0|0,0:0|0:0,0:0:0:0:
140,294,62000,6,0,L|151:292,1,11.8749994039536,0|0,0:0|0:0,0:0:0:0:
151,292,62333,5,0,0:0:0:0:
151,292,62555,1,0,0:0:0:0:
53,137,62778,6,0,B|62:232|62:232|251:214,1,284.999985694885,4|0,0:0|0:0,0:0:0:0:
397,175,63222,2,0,B|393:143|393:143|330:148,1,94.9999952316285,4|0,0:0|0:0,0:0:0:0:
277,296,63444,5,4,0:0:0:0:
279,317,63555,1,4,0:0:0:0:
265,154,63667,2,0,L|256:59,1,94.9999952316285,4|0,0:0|0:0,0:0:0:0:
285,383,63889,1,4,0:0:0:0:
344,196,64111,5,0,1:0:0:0:
344,196,64167,2,0,L|346:219,1,23.7499988079071,0|0,1:0|1:0,1:0:0:0:
198,209,64333,6,0,L|192:161,3,47.4999976158143,0|0|0|0,3:0|3:0|3:0|3:0,0:0:0:0:
178,151,64555,1,2,0:0:0:0:
256,192,64667,12,0,68111,0:0:0:0:
