osu file format v14

[General]
AudioFilename: audio.mp3
AudioLeadIn: 0
PreviewTime: 6819
Countdown: 0
SampleSet: Soft
StackLeniency: 0.7
Mode: 0
LetterboxInBreaks: 0
WidescreenStoryboard: 0

[Editor]
DistanceSpacing: 0.9
BeatDivisor: 4
GridSize: 4
TimelineZoom: 1

[Metadata]
Title:Target o Kowase!
TitleUnicode:ターゲットをこわせ!
Artist:Hirokazu Ando, Tadashi Ikegami, Shogo Sakai, Takuto Kitsuta
ArtistUnicode:安藤浩和、池上正、酒井省吾、橘田拓人
Creator:Hobbes2
Version:Normal
Source:大乱闘スマッシュブラザーズDX
Tags:PolkaMocha ColdTooth Break the Targets! Ready? Go! Nintendo Gamecube Game Cube Super Smash Bros. Brothers Melee HAL Mario
BeatmapID:1161761
BeatmapSetID:542759

[Difficulty]
HPDrainRate:3.5
CircleSize:3.2
OverallDifficulty:3.5
ApproachRate:4.5
SliderMultiplier:1.2
SliderTickRate:1

[Events]
//Background and Video events
0,0,"targets lol.jpg",0,0
//Break Periods
//Storyboard Layer 0 (Background)
//Storyboard Layer 1 (Fail)
//Storyboard Layer 2 (Pass)
//Storyboard Layer 3 (Foreground)
//Storyboard Sound Samples

[TimingPoints]
255,416.811392844738,4,2,1,45,1,0
41936,-100,4,2,1,45,0,0
48605,-100,4,2,1,15,0,0

[Colours]
Combo1 : 255,121,255
Combo2 : 40,148,255
Combo3 : 255,91,91
Combo4 : 0,255,128

[HitObjects]
108,296,255,6,0,B|96:232|96:232|108:152,1,120
120,128,880,2,0,P|196:148|248:120,1,120
280,108,1505,1,0,0:0:0:0:
356,188,1922,6,0,P|372:260|352:328,1,120
320,336,2547,2,0,P|240:332|208:336,2,90,0|0|0,0:0|0:0|0:0,0:0:0:0:
420,376,3589,6,0,P|464:344|488:256,1,120,2|2,0:0|0:0,0:0:0:0:
496,232,4214,1,0,0:0:0:0:
496,232,4423,2,0,B|472:172|516:156|480:88,1,120,2|2,0:0|0:0,0:0:0:0:
396,60,5256,6,0,L|396:0,2,60,2|0|8,0:0|0:0|0:0,0:0:0:0:
324,140,6090,2,0,P|292:168|268:184,1,60,8|0,0:0|0:0,0:0:0:0:
232,204,6507,2,0,P|207:221|185:241,1,60,8|8,0:0|0:0,0:0:0:0:
136,268,6923,6,0,P|124:184|84:148,1,120,4|8,0:1|0:0,0:0:0:0:
57,129,7549,1,0,0:0:0:0:
20,168,7757,2,0,L|20:288,1,120,2|8,0:0|0:0,0:0:0:0:
102,358,8591,6,0,P|152:360|182:356,2,60,4|0|8,0:0|0:0|0:0,0:0:0:0:
20,288,9424,2,0,P|26:258|36:230,2,60,2|2|8,0:0|0:0|0:0,0:0:0:0:
102,358,10258,6,0,P|178:361|224:354,1,120,4|8,0:0|0:0,0:0:0:0:
275,350,10883,1,0,0:0:0:0:
275,350,11092,1,2,0:0:0:0:
347,270,11508,1,8,0:0:0:0:
382,168,11925,6,0,B|386:99|386:99|374:76|342:56,1,120,4|8,0:0|0:0,0:0:0:0:
297,57,12550,1,0,0:0:0:0:
297,57,12759,2,0,P|225:67|155:60,1,120,6|8,0:0|0:0,0:0:0:0:
79,107,13592,6,0,B|71:154|71:154|79:185|79:185|69:240,1,120,4|8,0:0|0:0,0:0:0:0:
75,278,14218,2,0,P|142:276|176:330,1,120,0|2,0:0|0:0,0:0:0:0:
182,367,14843,1,8,0:0:0:0:
281,325,15260,6,0,P|287:254|281:194,1,120,4|8,0:0|0:0,0:0:0:0:
258,157,15885,1,0,0:0:0:0:
276,106,16093,2,0,L|275:39,2,60,2|2|8,0:0|0:0|0:0,0:0:0:0:
365,168,16927,6,0,B|396:198|396:198|388:288,1,120,4|8,0:0|0:0,0:0:0:0:
381,328,17552,1,0,0:0:0:0:
488,322,17969,2,0,P|487:365|488:387,2,60,2|8|0,0:0|0:0|0:0,0:0:0:0:
483,268,18594,6,0,B|494:135,1,120,4|8,0:0|0:0,0:0:0:0:
477,96,19219,1,0,0:0:0:0:
477,96,19428,2,0,P|366:96|340:98,1,120,2|8,0:0|0:0,0:0:0:0:
255,133,20261,6,4,B|204:186|230:263|230:263|275:284|312:250,1,210
76,311,21929,6,0,L|76:226,1,60,6|2,0:0|0:0,0:0:0:0:
79,196,22346,1,8,0:0:0:0:
173,247,22762,2,0,P|244:267|299:271,1,120,2|8,0:0|0:0,0:0:0:0:
344,275,23388,1,2,0:0:0:0:
392,252,23596,6,0,B|404:194|404:194|405:125,1,120,2|8,0:0|0:0,0:0:0:0:
392,80,24221,2,0,B|334:68|334:68|265:67,1,120,2|0,0:0|0:0,0:0:0:0:
219,65,24846,1,8,0:0:0:0:
146,145,25263,6,0,P|88:150|74:146,1,60,2|2,0:0|0:0,0:0:0:0:
36,129,25680,1,8,0:0:0:0:
100,42,26097,2,0,L|167:6,2,60,2|2|8,0:0|0:0|0:0,0:0:0:0:
36,129,26930,6,0,P|34:205|41:253,1,120,4|10,0:3|0:0,0:0:0:0:
51,301,27556,2,0,P|130:286|183:302,1,120,4|2,0:3|0:0,0:0:0:0:
220,306,28181,2,0,L|222:227,1,60,8|0,0:0|0:0,0:0:0:0:
229,192,28598,6,0,B|268:196|288:185|288:185|312:160|350:160,1,120,4|8,0:0|0:0,0:0:0:0:
395,161,29223,2,0,L|380:294,1,120,0|2,0:0|0:0,0:0:0:0:
374,333,29848,1,8,0:0:0:0:
270,362,30265,6,0,B|222:375|222:375|143:375,1,120,4|8,0:0|0:0,0:0:0:0:
97,372,30890,2,0,P|90:315|84:266,2,90,0|0|8,0:0|0:0|0:0,0:0:0:0:
170,292,31932,6,0,P|179:235|173:164,1,120,4|8,0:0|0:0,0:0:0:0:
161,120,32557,2,0,P|235:116|272:73,1,120,0|2,0:0|0:0,0:0:0:0:
297,42,33183,1,8,0:0:0:0:
401,70,33599,6,0,L|474:61,2,60,2|0|8,0:0|0:0|0:0,0:0:0:0:
324,146,34433,2,0,L|295:213,2,60,8|8|10,0:0|0:0|0:0,0:0:0:0:
297,42,35267,6,0,P|225:29|159:52,1,120,4|0,0:0|0:0,0:0:0:0:
138,73,35892,2,0,B|141:123|141:123|122:158|135:206,1,120
147,242,36517,1,0,0:0:0:0:
39,245,36934,6,0,L|19:125,1,120,0|0,0:0|0:0,0:0:0:0:
29,73,37559,2,0,L|83:-3,2,90,0|0|0,0:0|0:0|0:0,0:0:0:0:
123,124,38601,6,0,P|204:124|253:127,1,120,2|2,0:0|0:0,0:0:0:0:
296,134,39226,1,0,0:0:0:0:
296,134,39435,2,0,P|290:218|293:265,1,120,2|2,0:0|0:0,0:0:0:0:
397,278,40268,6,0,P|453:274|465:272,2,60,2|0|8,0:0|0:0|0:0,0:0:0:0:
291,253,41102,2,0,P|238:251|209:258,1,60,8|0,0:0|0:0,0:0:0:0:
187,284,41519,2,0,P|157:287|127:284,1,60,8|8,0:0|0:0,0:0:0:0:
78,307,41936,6,0,P|77:208|70:178,1,120,4|8,0:1|0:0,0:0:0:0:
42,142,42561,1,0,0:0:0:0:
84,108,42769,2,0,P|152:92|216:96,1,120,2|8,0:0|0:0,0:0:0:0:
305,61,43603,6,0,L|298:-4,2,60,4|0|8,0:0|0:0|0:0,0:0:0:0:
363,151,44437,2,0,P|372:194|374:229,1,60,2|2,0:0|0:0,0:0:0:0:
376,263,44853,1,8,0:0:0:0:
280,312,45270,5,4,0:0:0:0:
256,192,45479,12,0,48605,0:0:0:0:
