osu file format v14

[General]
AudioFilename: audio.mp3
AudioLeadIn: 0
PreviewTime: 6819
Countdown: 0
SampleSet: Soft
StackLeniency: 0.7
Mode: 0
LetterboxInBreaks: 0
WidescreenStoryboard: 0

[Editor]
DistanceSpacing: 1.2
BeatDivisor: 8
GridSize: 4
TimelineZoom: 1

[Metadata]
Title:Target o Kowase!
TitleUnicode:ターゲットをこわせ!
Artist:Hirokazu Ando, Tadashi Ikegami, Shogo Sakai, Takuto Kitsuta
ArtistUnicode:安藤浩和、池上正、酒井省吾、橘田拓人
Creator:Hobbes2
Version:Light Insane
Source:大乱闘スマッシュブラザーズDX
Tags:PolkaMocha ColdTooth Break the Targets! Ready? Go! Nintendo Gamecube Game Cube Super Smash Bros. Brothers Melee HAL Mario
BeatmapID:1224677
BeatmapSetID:542759

[Difficulty]
HPDrainRate:5
CircleSize:4
OverallDifficulty:6.5
ApproachRate:7.5
SliderMultiplier:1.8
SliderTickRate:1

[Events]
//Background and Video events
0,0,"targets lol.jpg",0,0
//Break Periods
//Storyboard Layer 0 (Background)
//Storyboard Layer 1 (Fail)
//Storyboard Layer 2 (Pass)
//Storyboard Layer 3 (Foreground)
//Storyboard Sound Samples

[TimingPoints]
255,416.811392844738,4,2,1,45,1,0
41936,-100,4,2,1,45,0,0
48605,-100,4,2,1,15,0,0

[Colours]
Combo1 : 255,121,255
Combo2 : 40,148,255
Combo3 : 255,91,91
Combo4 : 0,255,128

[HitObjects]
88,56,255,5,0,0:0:0:0:
88,56,359,2,0,P|168:48|200:48,1,90,0|0,0:0|0:0,0:0:0:0:
177,47,671,2,0,P|250:80|277:96,1,90,0|0,0:0|0:0,0:0:0:0:
258,83,984,2,0,P|304:148|320:175,1,90,0|0,0:0|0:0,0:0:0:0:
309,156,1297,2,0,P|317:236|317:268,2,90,0|0|0,0:0|0:0|0:0,0:0:0:0:
204,181,1922,5,0,0:0:0:0:
204,181,2026,2,0,P|128:187|101:196,1,90,0|0,0:0|0:0,0:0:0:0:
115,190,2339,2,0,P|121:266|130:293,1,90,0|0,0:0|0:0,0:0:0:0:
124,278,2651,2,0,P|200:272|227:263,1,90,0|0,0:0|0:0,0:0:0:0:
212,268,2964,1,0,0:0:0:0:
317,245,3172,1,0,0:0:0:0:
420,277,3381,1,0,0:0:0:0:
397,172,3589,5,2,0:0:0:0:
397,172,3693,2,0,P|400:97|398:60,1,90,0|0,0:0|0:0,0:0:0:0:
399,82,4006,2,0,P|324:79|287:81,1,90,2|0,0:0|0:0,0:0:0:0:
309,79,4318,2,0,P|264:79|219:76,1,90,0|0,0:0|0:0,0:0:0:0:
219,76,4631,2,0,P|185:49|144:22,2,90,0|2|0,0:0|0:0|0:0,0:0:0:0:
221,190,5256,5,2,0:0:0:0:
221,190,5360,1,8,0:0:0:0:
221,190,5465,1,0,0:0:0:0:
302,259,5673,2,0,L|305:304,3,45,8|0|2|2,0:0|0:0|0:0|0:0,0:0:0:0:
320,341,6090,2,0,L|195:353,1,90,8|0,0:0|0:0,0:0:0:0:
309,266,6507,2,0,L|434:254,1,90,8|8,0:0|0:0,0:0:0:0:
398,257,6819,1,2,0:0:0:0:
398,257,6923,6,0,P|396:190|387:129,1,90,4|0,0:1|0:0,0:0:0:0:
388,70,7340,2,0,P|321:72|260:81,1,90,8|0,0:0|0:0,0:0:0:0:
210,138,7757,2,0,L|147:137,2,45,2|0|2,0:0|0:0|0:0,0:0:0:0:
278,221,8174,2,0,L|341:222,2,45,8|0|0,0:0|0:0|0:0,0:0:0:0:
186,278,8591,5,4,0:0:0:0:
125,377,8799,1,0,0:0:0:0:
55,284,9008,2,0,B|66:234|66:234|49:169,1,90,8|0,0:0|0:0,0:0:0:0:
22,94,9424,2,0,L|22:-3,2,90,2|2|8,0:0|0:0|0:0,0:0:0:0:
56,196,10050,1,0,0:0:0:0:
149,143,10258,5,4,0:0:0:0:
149,143,10362,1,0,0:0:0:0:
149,143,10466,2,0,P|206:135|265:143,1,90,0|8,0:0|0:0,0:0:0:0:
335,185,10883,1,0,0:0:0:0:
283,280,11092,2,0,L|277:348,2,45,2|0|2,0:0|0:0|0:0,0:0:0:0:
387,280,11508,2,0,L|393:348,2,45,8|0|0,0:0|0:0|0:0,0:0:0:0:
335,185,11925,5,4,0:0:0:0:
335,185,12029,1,0,0:0:0:0:
335,185,12134,2,0,P|336:104|336:65,1,90,0|8,0:0|0:0,0:0:0:0:
240,45,12550,2,0,L|192:45,1,45,0|0,0:0|0:0,0:0:0:0:
154,45,12759,2,0,B|162:98|162:98|148:163,2,90,6|2|8,0:0|0:0|0:0,0:0:0:0:
57,93,13384,1,0,0:0:0:0:
57,200,13592,5,4,0:0:0:0:
57,200,13697,2,0,P|55:276|53:303,1,90,0|0,0:0|0:0,0:0:0:0:
54,289,14009,2,0,P|130:291|157:293,1,90,8|0,0:0|0:0,0:0:0:0:
143,291,14322,2,0,P|145:215|147:188,1,90,0|0,0:0|0:0,0:0:0:0:
145,201,14634,2,0,P|221:203|248:205,2,90,2|8|0,0:0|0:0|0:0,0:0:0:0:
209,113,15260,5,4,0:0:0:0:
209,113,15364,2,0,P|253:115|298:115,1,90,0|0,0:0|0:0,0:0:0:0:
298,115,15677,2,0,P|328:148|359:180,1,90,8|0,0:0|0:0,0:0:0:0:
359,180,15989,2,0,P|356:224|356:269,1,90,0|0,0:0|0:0,0:0:0:0:
356,269,16302,1,2,0:0:0:0:
283,349,16510,1,8,0:0:0:0:
255,244,16719,1,0,0:0:0:0:
179,321,16927,6,0,L|127:341,2,45,4|0|0,0:0|0:0|0:0,0:0:0:0:
263,251,17344,2,0,P|261:167|254:127,1,90,8|0,0:0|0:0,0:0:0:0:
260,161,17656,2,0,B|212:171|212:171|148:161,1,90,0|0,0:0|0:0,0:0:0:0:
171,165,17969,2,0,B|129:158|129:158|82:169,2,90,2|8|0,0:0|0:0|0:0,0:0:0:0:
128,264,18594,6,0,L|75:276,2,45,4|0|0,0:0|0:0|0:0,0:0:0:0:
220,322,19011,2,0,P|300:317|333:321,1,90,8|0,0:0|0:0,0:0:0:0:
309,317,19324,1,0,0:0:0:0:
309,317,19428,2,0,P|353:318|398:312,1,90,2|2,0:0|0:0,0:0:0:0:
488,224,19845,2,0,P|443:218|398:219,1,90,8|0,0:0|0:0,0:0:0:0:
281,219,20261,5,12,0:0:0:0:
281,219,20366,1,12,0:0:0:0:
281,219,20470,1,12,0:0:0:0:
281,219,20574,6,0,P|225:163|214:137,2,90,12|12|12,0:0|0:0|0:0,0:0:0:0:
43,328,21929,6,0,L|54:267,3,45,6|2|2|2,0:0|0:0|0:0|0:0,0:0:0:0:
57,243,22346,2,0,P|106:251|162:253,1,90,8|0,0:0|0:0,0:0:0:0:
146,253,22658,1,0,0:0:0:0:
146,253,22762,2,0,P|190:245|235:242,1,90,2|2,0:0|0:0,0:0:0:0:
339,273,23179,1,8,0:0:0:0:
339,273,23283,1,0,0:0:0:0:
339,273,23388,1,2,0:0:0:0:
448,302,23596,6,0,P|449:336|449:365,2,45,2|0|0,0:0|0:0|0:0,0:0:0:0:
446,260,23909,1,2,0:0:0:0:
446,260,24013,2,0,P|445:193|447:154,1,90,8|2,0:0|0:0,0:0:0:0:
445,170,24325,2,0,P|446:103|444:64,1,90,0|2,0:0|0:0,0:0:0:0:
445,80,24638,1,0,0:0:0:0:
353,29,24846,1,8,0:0:0:0:
252,77,25055,1,0,0:0:0:0:
151,29,25263,6,0,L|97:31,3,45,2|2|2|2,0:0|0:0|0:0|0:0,0:0:0:0:
65,38,25680,2,0,P|69:95|65:144,1,90,8|0,0:0|0:0,0:0:0:0:
67,128,25993,1,0,0:0:0:0:
67,128,26097,2,0,B|62:184|62:184|71:223,1,90,2|2,0:0|0:0,0:0:0:0:
157,281,26514,2,0,L|156:333,2,45,8|0|2,0:0|0:0|0:0,0:0:0:0:
244,218,26930,6,0,P|264:173|267:158,1,45,4|2,0:3|0:0,0:0:0:0:
364,140,27243,2,0,P|319:120|304:117,1,45,4|10,0:3|0:0,0:0:0:0:
286,20,27556,2,0,P|266:65|263:80,1,45,4|2,0:3|0:0,0:0:0:0:
166,98,27868,2,0,P|211:118|226:121,1,45,4|2,0:3|0:0,0:0:0:0:
323,121,28181,1,8,0:0:0:0:
343,226,28389,1,0,0:0:0:0:
298,331,28598,5,4,0:0:0:0:
298,331,28702,2,0,P|214:328|187:334,1,90,0|0,0:0|0:0,0:0:0:0:
209,329,29014,2,0,L|98:328,1,90,8|0,0:0|0:0,0:0:0:0:
119,328,29327,2,0,B|104:277|104:277|116:209,1,90,0|0,0:0|0:0,0:0:0:0:
111,240,29640,2,0,B|117:202|117:202|103:152,2,90,2|8|0,0:0|0:0|0:0,0:0:0:0:
9,201,30265,5,4,0:0:0:0:
9,201,30369,2,0,P|5:120|6:93,1,90,0|0,0:0|0:0,0:0:0:0:
5,111,30682,2,0,P|5:66|8:21,1,90,8|0,0:0|0:0,0:0:0:0:
8,21,30994,2,0,P|91:21|112:19,1,90,0|0,0:0|0:0,0:0:0:0:
98,20,31307,1,2,0:0:0:0:
206,11,31515,1,8,0:0:0:0:
164,111,31724,1,0,0:0:0:0:
164,111,31828,1,0,0:0:0:0:
164,111,31932,6,0,L|164:171,1,45,4|0,0:0|0:0,0:0:0:0:
271,170,32245,2,0,L|271:230,1,45,0|8,0:0|0:0,0:0:0:0:
378,229,32557,2,0,L|378:289,1,45,0|0,0:0|0:0,0:0:0:0:
485,288,32870,2,0,L|485:348,1,45,0|2,0:0|0:0,0:0:0:0:
384,373,33183,2,0,P|309:376|261:367,1,90,8|0,0:0|0:0,0:0:0:0:
197,328,33599,6,0,L|135:330,3,45,2|8|0|2,0:0|0:0|0:0|0:0,0:0:0:0:
115,348,34016,2,0,P|117:270|113:244,1,90,8|2,0:0|0:0,0:0:0:0:
101,220,34329,1,0,0:0:0:0:
101,220,34433,2,8,L|75:162,2,45,8|0|8,0:0|0:0|0:0,0:0:0:0:
143,90,34850,1,10,0:0:0:0:
143,90,34954,1,0,0:0:0:0:
143,90,35058,1,10,0:0:0:0:
259,66,35267,5,4,0:0:0:0:
259,66,35371,2,0,L|325:139,1,90,0|0,0:0|0:0,0:0:0:0:
319,132,35683,2,0,L|331:229,1,90,0|0,0:0|0:0,0:0:0:0:
330,221,35996,2,0,L|283:307,1,90,0|0,0:0|0:0,0:0:0:0:
288,299,36308,2,0,L|200:343,2,90,0|0|0,0:0|0:0|0:0,0:0:0:0:
396,289,36934,5,0,0:0:0:0:
396,289,37038,2,0,P|442:266|462:226,1,90,0|0,0:0|0:0,0:0:0:0:
460,233,37351,2,0,L|459:136,1,90
460,144,37664,2,0,P|436:106|396:89,1,90,0|0,0:0|0:0,0:0:0:0:
396,89,37976,1,0,0:0:0:0:
293,54,38184,1,0,0:0:0:0:
318,166,38393,1,0,0:0:0:0:
264,259,38601,5,2,0:0:0:0:
264,259,38705,2,0,P|189:262|152:260,1,90,0|0,0:0|0:0,0:0:0:0:
174,261,39018,2,0,P|171:186|173:149,1,90,2|0,0:0|0:0,0:0:0:0:
171,171,39330,2,0,P|171:126|168:81,1,90,0|0,0:0|0:0,0:0:0:0:
168,81,39643,2,0,P|141:40|114:6,2,90,0|2|0,0:0|0:0|0:0,0:0:0:0:
264,131,40268,5,2,0:0:0:0:
264,131,40373,1,8,0:0:0:0:
264,131,40477,1,0,0:0:0:0:
342,205,40685,2,0,L|341:264,3,45,8|0|2|2,0:0|0:0|0:0|0:0,0:0:0:0:
340,290,41102,2,0,P|280:296|234:290,1,90,8|0,0:0|0:0,0:0:0:0:
348,212,41519,2,0,P|392:209|437:215,1,90,8|8,0:0|0:0,0:0:0:0:
437,215,41831,1,2,0:0:0:0:
437,215,41936,6,0,P|437:145|441:103,1,90,4|0,0:1|0:0,0:0:0:0:
480,25,42352,2,0,L|352:26,1,90,8|0,0:0|0:0,0:0:0:0:
390,25,42665,1,0,0:0:0:0:
390,25,42769,2,0,L|308:24,2,45,2|0|2,0:0|0:0|0:0,0:0:0:0:
424,132,43186,2,0,L|506:133,2,45,8|0|0,0:0|0:0|0:0,0:0:0:0:
320,163,43603,5,4,0:0:0:0:
253,102,43811,1,0,0:0:0:0:
234,190,44020,2,0,B|225:241|225:241|233:286,1,90,8|0,0:0|0:0,0:0:0:0:
317,344,44437,2,0,B|326:293|326:293|318:248,2,90,2|2|8,0:0|0:0|0:0,0:0:0:0:
213,374,45062,2,0,P|153:374|145:372,1,45,0|0,0:0|0:0,0:0:0:0:
127,374,45270,5,4,0:0:0:0:
256,192,45374,12,0,48605,0:0:0:0:
