osu file format v14

[General]
AudioFilename: audio.mp3
AudioLeadIn: 0
PreviewTime: 6819
Countdown: 0
SampleSet: Soft
StackLeniency: 0.7
Mode: 0
LetterboxInBreaks: 0
WidescreenStoryboard: 0

[Editor]
DistanceSpacing: 1.3
BeatDivisor: 4
GridSize: 4
TimelineZoom: 1

[Metadata]
Title:Target o Kowase!
TitleUnicode:ターゲットをこわせ!
Artist:Hirokazu Ando, Tadashi Ikegami, Shogo Sakai, Takuto Kitsuta
ArtistUnicode:安藤浩和、池上正、酒井省吾、橘田拓人
Creator:Hobbes2
Version:Hard
Source:大乱闘スマッシュブラザーズDX
Tags:PolkaMocha ColdTooth Break the Targets! Ready? Go! Nintendo Gamecube Game Cube Super Smash Bros. Brothers Melee HAL Mario
BeatmapID:1161438
BeatmapSetID:542759

[Difficulty]
HPDrainRate:4
CircleSize:3.7
OverallDifficulty:5.5
ApproachRate:6.5
SliderMultiplier:1.5
SliderTickRate:1

[Events]
//Background and Video events
0,0,"targets lol.jpg",0,0
//Break Periods
//Storyboard Layer 0 (Background)
//Storyboard Layer 1 (Fail)
//Storyboard Layer 2 (Pass)
//Storyboard Layer 3 (Foreground)
//Storyboard Sound Samples

[TimingPoints]
255,416.811392844738,4,2,1,45,1,0
41936,-100,4,2,1,45,0,0
48605,-100,4,2,1,15,0,0

[Colours]
Combo1 : 255,121,255
Combo2 : 40,148,255
Combo3 : 255,91,91
Combo4 : 0,255,128

[HitObjects]
46,75,255,6,0,B|117:50|117:50|207:77,1,150
258,139,880,2,0,P|274:224|254:304,1,150
179,337,1505,2,0,P|99:338|71:339,1,75,0|0,0:0|0:0,0:0:0:0:
28,275,1922,6,0,B|31:217|31:217|14:188|14:188|17:123,1,150,0|0,0:0|0:0,0:0:0:0:
70,47,2547,2,0,P|140:39|189:40,1,112.5,0|0,0:0|0:0,0:0:0:0:
230,44,2964,2,0,P|291:38|330:25,2,75
167,131,3589,6,0,L|157:285,1,150,2|2,0:0|0:0,0:0:0:0:
224,351,4214,1,0,0:0:0:0:
321,362,4423,2,0,P|397:356|416:349,1,75,2|0,0:0|0:0,0:0:0:0:
473,298,4839,2,0,B|483:246|483:246|469:176,1,112.5,2|0,0:0|0:0,0:0:0:0:
457,140,5256,6,0,L|446:89,2,37.5,2|8|0,0:0|0:0|0:0,0:0:0:0:
381,201,5673,2,0,L|392:252,2,37.5,8|0|2,0:0|0:0|0:0,0:0:0:0:
292,242,6090,6,0,P|187:262|156:257,1,112.5,8|0,0:0|0:0,0:0:0:0:
134,253,6507,2,0,B|139:212|139:212|131:159,1,75,8|8,0:0|0:0,0:0:0:0:
52,230,6923,6,0,P|83:321|157:335,1,150,4|8,0:1|0:0,0:0:0:0:
224,353,7549,1,0,0:0:0:0:
320,344,7757,2,0,P|382:317|406:287,1,75,2|2,0:0|0:0,0:0:0:0:
448,238,8174,2,0,L|453:135,1,75,8|0,0:0|0:0,0:0:0:0:
444,66,8591,6,0,L|353:56,1,75,4|0,0:0|0:0,0:0:0:0:
273,63,9008,2,0,L|182:53,1,75,8|0,0:0|0:0,0:0:0:0:
145,137,9424,2,0,P|142:174|136:245,1,75,2|2,0:0|0:0,0:0:0:0:
186,297,9841,2,0,P|223:300|294:305,1,75,8|0,0:0|0:0,0:0:0:0:
354,273,10258,6,0,L|404:280,2,37.5,4|0|0,0:0|0:0|0:0,0:0:0:0:
319,181,10675,2,0,P|314:108|322:26,1,150,8|2,0:0|0:0,0:0:0:0:
417,13,11300,1,2,0:0:0:0:
486,80,11508,2,0,P|491:149|492:177,1,75,8|0,0:0|0:0,0:0:0:0:
486,252,11925,6,0,B|488:276|508:304|508:304|464:272|400:272,1,150,4|8,0:0|0:0,0:0:0:0:
328,294,12550,1,0,0:0:0:0:
254,229,12759,2,0,B|223:204|223:204|208:266|239:331,1,150,6|8,0:0|0:0,0:0:0:0:
328,294,13384,1,0,0:0:0:0:
396,224,13592,6,0,P|410:153|409:81,1,112.5,4|0,0:0|0:0,0:0:0:0:
399,65,14009,2,0,B|360:57|360:57|303:70,1,75,8|0,0:0|0:0,0:0:0:0:
290,156,14426,2,0,B|255:163|255:163|216:155,1,75,2|2,0:0|0:0,0:0:0:0:
120,134,14843,1,8,0:0:0:0:
36,86,15052,1,0,0:0:0:0:
36,183,15260,6,0,L|46:280,2,75,4|0|8,0:0|0:0|0:0,0:0:0:0:
36,86,15885,1,0,0:0:0:0:
120,36,16093,2,0,L|217:26,2,75,2|2|8,0:0|0:0|0:0,0:0:0:0:
36,86,16719,1,0,0:0:0:0:
36,183,16927,6,0,L|41:241,2,37.5,4|0|0,0:0|0:0|0:0,0:0:0:0:
131,205,17344,2,0,P|207:213|238:206,1,75,8|0,0:0|0:0,0:0:0:0:
288,161,17761,2,0,L|301:62,2,75,2|2|8,0:0|0:0|0:0,0:0:0:0:
341,242,18386,1,0,0:0:0:0:
398,320,18594,6,0,B|418:361|418:361|364:384|288:364,1,150,4|8,0:0|0:0,0:0:0:0:
220,351,19219,1,0,0:0:0:0:
160,273,19428,2,0,B|132:198|188:198|160:127,1,150,2|8,0:0|0:0,0:0:0:0:
111,42,20053,1,0,0:0:0:0:
202,9,20261,6,4,L|262:-6,2,37.5
221,54,20574,2,4,P|261:98|291:131,2,75
144,302,21929,5,6,0:0:0:0:
157,205,22137,1,2,0:0:0:0:
170,108,22346,2,0,P|176:70|187:25,1,75,8|0,0:0|0:0,0:0:0:0:
281,21,22762,2,0,P|346:21|416:95,1,150,2|8,0:0|0:0,0:0:0:0:
435,168,23388,1,2,0:0:0:0:
406,260,23596,6,0,B|408:304|380:340|380:340|338:331|294:353,1,150,2|8,0:0|0:0,0:0:0:0:
219,343,24221,2,0,B|197:330|155:339|155:339|148:291|129:258,1,150,2|2,0:0|0:0,0:0:0:0:
72,179,24846,1,8,0:0:0:0:
255,57,25263,6,0,L|355:55,1,75,2|2,0:0|0:0,0:0:0:0:
358,147,25680,2,0,L|258:149,1,75,8|0,0:0|0:0,0:0:0:0:
213,216,26097,2,0,P|211:282|218:325,2,75,2|2|8,0:0|0:0|0:0,0:0:0:0:
284,149,26722,1,2,0:0:0:0:
349,220,26930,6,0,L|375:371,1,150,4|10,0:3|0:0,0:0:0:0:
462,323,27556,2,0,L|487:175,1,150,4|2,0:3|0:0,0:0:0:0:
502,78,28181,1,8,0:0:0:0:
416,30,28389,1,0,0:0:0:0:
326,68,28598,6,0,P|236:75|164:64,1,150,4|8,0:0|0:0,0:0:0:0:
97,10,29223,1,0,0:0:0:0:
40,88,29431,2,0,P|35:154|35:178,1,75,2|2,0:0|0:0,0:0:0:0:
125,200,29848,2,0,P|128:237|130:274,1,75,8|0,0:0|0:0,0:0:0:0:
54,336,30265,6,0,P|134:326|227:334,1,150,4|8,0:0|0:0,0:0:0:0:
300,342,30890,2,0,B|346:365|346:365|343:319|352:282,1,112.5,0|0,0:0|0:0,0:0:0:0:
359,256,31307,2,0,B|367:213|367:213|355:157,2,75,2|8|0,0:0|0:0|0:0,0:0:0:0:
270,214,31932,6,0,L|107:218,1,150,4|8,0:0|0:0,0:0:0:0:
42,277,32557,1,0,0:0:0:0:
101,353,32766,2,0,L|194:353,1,75,2|2,0:0|0:0,0:0:0:0:
273,351,33183,1,8,0:0:0:0:
368,333,33391,1,0,0:0:0:0:
413,246,33599,6,0,L|407:195,2,37.5,2|8|0,0:0|0:0|0:0,0:0:0:0:
317,227,34016,2,0,L|311:176,2,37.5,8|0|2,0:0|0:0|0:0,0:0:0:0:
221,208,34433,2,0,B|218:207|151:166|127:78,1,150,8|10,0:0|0:0,0:0:0:0:
93,1,35058,1,10,0:0:0:0:
20,66,35267,6,0,B|1:140|1:140|21:229,1,150,4|0,0:0|0:0,0:0:0:0:
84,282,35892,2,0,B|160:313|163:247|255:291,1,150
320,318,36517,2,0,P|379:317|413:311,1,75,0|0,0:0|0:0,0:0:0:0:
486,347,36934,6,0,L|498:190,1,150,0|0,0:0|0:0,0:0:0:0:
504,99,37559,2,0,L|390:105,1,112.5,0|0,0:0|0:0,0:0:0:0:
343,120,37976,2,0,P|330:162|338:193,2,75
317,24,38601,6,0,L|165:20,1,150,2|2,0:0|0:0,0:0:0:0:
74,51,39226,1,0,0:0:0:0:
55,146,39435,2,0,P|48:197|47:233,1,75,2|0,0:0|0:0,0:0:0:0:
47,318,39852,2,0,B|37:344|37:344|125:329,1,112.5,2|0,0:0|0:0,0:0:0:0:
168,322,40268,6,0,L|223:314,2,37.5,2|8|0,0:0|0:0|0:0,0:0:0:0:
188,226,40685,2,0,L|243:218,2,37.5,8|0|2,0:0|0:0|0:0,0:0:0:0:
208,130,41102,2,0,P|232:91|260:51,1,75,8|0,0:0|0:0,0:0:0:0:
337,26,41519,1,8,0:0:0:0:
396,103,41727,1,8,0:0:0:0:
428,196,41936,6,0,P|406:261|338:225,1,150,4|8,0:1|0:0,0:0:0:0:
284,160,42561,1,0,0:0:0:0:
198,112,42769,2,0,P|129:116|105:124,1,75,2|2,0:0|0:0,0:0:0:0:
72,200,43186,2,0,P|76:269|84:293,1,75,8|0,0:0|0:0,0:0:0:0:
163,320,43603,6,0,L|259:320,2,75,4|0|8,0:0|0:0|0:0,0:0:0:0:
77,274,44228,1,0,0:0:0:0:
160,224,44437,2,0,L|256:224,2,75,2|2|8,0:0|0:0|0:0,0:0:0:0:
77,274,45062,1,0,0:0:0:0:
163,320,45270,5,4,0:0:0:0:
256,192,45479,12,0,48605,0:0:0:0:
