osu file format v14

[General]
AudioFilename: audio.mp3
AudioLeadIn: 0
PreviewTime: 24207
Countdown: 0
SampleSet: None
StackLeniency: 0.7
Mode: 0
LetterboxInBreaks: 0
WidescreenStoryboard: 1

[Editor]
DistanceSpacing: 1.1
BeatDivisor: 2
GridSize: 16
TimelineZoom: 1

[Metadata]
Title:Dangerous Dinner
TitleUnicode:Dangerous Dinner
Artist:Hirokazu Ando & Jun Ishikawa
ArtistUnicode:Hirokazu Ando & Jun Ishikawa
Creator:Lone Pixel
Version:Stage 1
Source:Kirby's Return to Dreamland
Tags:Kirby Game Nintendo Wii Adventure Halcandra Volcano Magma
BeatmapID:1231444
BeatmapSetID:581822

[Difficulty]
HPDrainRate:3
CircleSize:3.3
OverallDifficulty:3
ApproachRate:5
SliderMultiplier:0.7
SliderTickRate:1

[Events]
//Background and Video events
0,0,"Screenshot.jpg",0,0
//Break Periods
2,35074,36341
//Storyboard Layer 0 (Background)
//Storyboard Layer 1 (Fail)
//Storyboard Layer 2 (Pass)
//Storyboard Layer 3 (Foreground)
//Storyboard Sound Samples

[TimingPoints]
208,333.333333333333,4,3,0,100,1,0
26874,-100,4,3,0,100,0,1
32207,-100,4,3,0,100,0,0
34874,-100,4,3,0,5,0,0
37541,-100,4,3,0,100,0,0
58874,-100,4,3,0,100,0,1
64207,-100,4,3,0,100,0,0
69541,-100,4,3,0,5,0,0

[Colours]
Combo1 : 255,192,0
Combo2 : 0,202,0
Combo3 : 18,124,255
Combo4 : 242,24,57

[HitObjects]
366,310,208,5,4,3:1:0:0:
366,194,707,1,0,3:1:0:0:
229,57,1541,2,0,L|130:57,1,70,0|8,3:1|3:2,3:1:0:0:
159,133,2207,2,0,L|259:133,1,70,0|8,3:1|3:2,3:1:0:0:
306,133,2874,5,4,3:1:0:0:
306,248,3374,1,0,3:1:0:0:
442,384,4207,2,0,L|518:384,1,70,0|8,3:1|3:2,3:1:0:0:
512,306,4874,2,0,L|417:306,1,70,0|8,3:1|3:2,3:1:0:0:
364,306,5541,6,4,B|245:306|245:306|245:283,1,140,4|0,3:1|3:1,3:1:0:0:
245,92,7041,2,0,L|245:41,1,35
299,2,7541,1,0,3:1:0:0:
375,2,7874,1,0,3:1:0:0:
429,56,8207,6,4,B|513:140|513:140|496:156,1,140,4|0,3:1|3:1,3:1:0:0:
416,236,9374,1,0,3:1:0:0:
361,290,9707,1,0,3:1:0:0:
283,290,10041,1,0,3:1:0:0:
283,97,10874,6,0,B|349:116|385:78|402:97|402:97|402:120,1,140,4|0,3:1|3:1,3:1:0:0:
411,255,12374,2,0,L|383:283,1,35
440,334,12874,1,0,3:1:0:0:
494,279,13207,1,0,3:1:0:0:
494,201,13541,6,0,B|433:167|435:115|409:116|409:116|393:133,1,140,4|0,3:1|3:1,3:1:0:0:
315,211,14707,1,0,3:1:0:0:
260,156,15041,1,0,3:1:0:0:
205,210,15374,2,0,B|174:245|197:273|153:311,1,105,0|0,3:1|3:1,3:1:0:0:
95,343,16207,5,4,3:1:0:0:
95,265,16541,1,0,3:1:0:0:
95,188,16874,2,0,L|95:108,1,70,0|0,3:1|3:1,3:1:0:0:
172,118,17541,5,4,3:1:0:0:
172,194,17874,1,0,3:1:0:0:
172,270,18207,2,0,L|172:344,1,70,0|0,3:1|3:1,3:1:0:0:
249,340,18874,5,4,3:1:0:0:
249,263,19207,1,0,3:1:0:0:
249,185,19541,2,0,L|249:116,1,70,0|0,3:1|3:1,3:1:0:0:
325,115,20207,5,4,3:1:0:0:
325,230,20707,2,0,L|325:335,1,105,0|0,3:1|3:1,3:1:0:0:
247,335,21541,5,4,3:1:0:0:
170,335,21874,1,0,3:1:0:0:
93,335,22207,2,0,P|58:330|24:311,1,70,0|0,3:1|3:1,3:1:0:0:
27,236,22874,5,4,3:1:0:0:
103,236,23207,1,0,3:1:0:0:
180,236,23541,2,0,P|216:231|250:212,1,70,0|0,3:1|3:1,3:1:0:0:
245,138,24207,5,4,3:1:0:0:
167,138,24541,1,0,3:1:0:0:
90,138,24874,2,0,P|55:133|21:114,1,70,0|0,3:1|3:1,3:1:0:0:
24,39,25541,5,4,3:1:0:0:
139,39,26041,2,0,B|181:31|192:82|270:54,1,105,0|0,3:1|3:1,3:1:0:0:
316,61,26874,5,4,1:1:0:0:
316,176,27374,1,0,1:1:0:0:
316,291,27874,1,0,1:1:0:0:
316,367,28207,5,4,1:1:0:0:
200,367,28707,1,0,1:1:0:0:
84,367,29207,1,0,1:1:0:0:
10,367,29541,5,4,1:1:0:0:
10,251,30041,1,0,1:1:0:0:
10,135,30541,1,0,1:1:0:0:
10,58,30874,5,4,1:1:0:0:
121,58,31374,2,2,P|183:119|172:154,1,105,4|2,1:1|1:1,1:1:0:0:
256,192,32207,12,0,34874,2:1:0:0:
230,75,37541,6,4,B|349:75|349:75|349:98,1,140,4|0,3:1|3:1,3:1:0:0:
349,248,39041,2,0,L|317:282,1,35,0|0,3:1|3:1,3:1:0:0:
261,317,39541,1,0,3:1:0:0:
185,334,39874,1,0,3:1:0:0:
108,339,40207,2,0,B|0:339|0:339|0:308,1,140,4|0,3:1|3:1,3:1:0:0:
0,191,41374,1,0,3:1:0:0:
39,124,41707,1,0,3:1:0:0:
108,158,42041,1,0,3:1:0:0:
286,87,42874,6,0,B|220:106|184:68|167:87|167:87|167:110,1,140,4|0,3:1|3:1,3:1:0:0:
210,292,44374,2,0,L|252:292,1,35,0|0,3:1|3:1,3:1:0:0:
263,366,44874,1,0,3:1:0:0:
319,313,45208,1,0,3:1:0:0:
372,257,45541,6,0,B|390:192|352:156|371:139|371:139|398:139,1,140,4|0,3:1|3:1,3:1:0:0:
274,139,46707,1,0,3:1:0:0:
209,97,47041,1,0,3:1:0:0:
136,121,47374,2,0,B|95:146|75:116|32:135,1,105,0|0,3:1|3:1,3:1:0:0:
35,211,48207,5,4,3:1:0:0:
111,211,48541,1,0,3:1:0:0:
187,211,48874,2,0,L|187:291,1,70,0|0,3:1|3:1,3:1:0:0:
264,281,49541,5,4,3:1:0:0:
340,281,49874,1,0,3:1:0:0:
416,281,50207,2,0,L|416:207,1,70,0|0,3:1|3:1,3:1:0:0:
338,211,50874,5,4,3:1:0:0:
261,211,51207,1,0,3:1:0:0:
183,211,51541,2,0,L|183:142,1,70,0|0,3:1|3:1,3:1:0:0:
259,141,52207,5,4,3:1:0:0:
177,59,52707,2,0,P|113:98|101:144,1,105,0|0,3:1|3:1,3:1:0:0:
102,200,53541,5,4,3:1:0:0:
177,200,53874,1,0,3:1:0:0:
231,145,54207,2,0,P|251:115|260:77,1,70,0|0,3:1|3:1,3:1:0:0:
204,27,54874,5,4,3:1:0:0:
127,27,55207,1,0,3:1:0:0:
72,81,55541,2,0,P|53:110|44:148,1,70,0|0,3:1|3:1,3:1:0:0:
98,198,56207,5,4,3:1:0:0:
175,198,56541,1,0,3:1:0:0:
252,198,56874,2,0,P|287:193|321:174,1,70,0|0,3:1|3:1,3:1:0:0:
366,117,57541,5,4,3:1:0:0:
275,45,58041,2,0,B|233:37|222:88|231:141,1,105,0|0,3:1|3:1,3:1:0:0:
228,198,58874,5,4,1:1:0:0:
343,198,59374,1,0,1:1:0:0:
343,82,59874,1,0,1:1:0:0:
266,82,60207,5,4,1:1:0:0:
266,197,60707,1,0,1:1:0:0:
381,197,61207,1,0,1:1:0:0:
381,119,61541,5,4,1:1:0:0:
265,119,62041,1,0,1:1:0:0:
265,234,62541,1,0,1:1:0:0:
341,234,62874,5,4,1:1:0:0:
341,118,63374,2,2,P|404:136|443:181,1,105,4|2,1:1|1:1,1:1:0:0:
256,192,64207,12,0,69541,2:1:0:0:
