osu file format v14

[General]
AudioFilename: audio.mp3
AudioLeadIn: 0
PreviewTime: 39365
Countdown: 1
SampleSet: None
StackLeniency: 0.7
Mode: 3
LetterboxInBreaks: 0
SpecialStyle: 0
WidescreenStoryboard: 0

[Editor]
Bookmarks: 15061,27213,39365,63669,69745,84935,97087,103163
DistanceSpacing: 0.9
BeatDivisor: 4
GridSize: 32
TimelineZoom: 2.899999

[Metadata]
Title:VERTeX
TitleUnicode:VERTeX
Artist:Hiro
ArtistUnicode:Hiro 「maimai」 より
Creator:Raveille
Version:Zenith
Source:maimai ORANGE
Tags:sega maimai
BeatmapID:1783681
BeatmapSetID:853441

[Difficulty]
HPDrainRate:7.8
CircleSize:4
OverallDifficulty:7.8
ApproachRate:5
SliderMultiplier:1.4
SliderTickRate:1

[Events]
//Background and Video events
0,0,"cropped-1920-1080-677959.png",0,0
//Break Periods
//Storyboard Layer 0 (Background)
//Storyboard Layer 1 (Fail)
//Storyboard Layer 2 (Pass)
//Storyboard Layer 3 (Foreground)
//Storyboard Sound Samples

[TimingPoints]
1391,253.164556962025,3,2,0,25,1,0
57593,-100,3,2,0,25,0,1
63669,-100,3,2,0,25,0,0
97087,-100,3,2,0,25,0,1
101644,-100,3,2,0,50,0,0
103163,-100,3,2,0,25,0,1
114555,-100,3,2,0,25,0,0

[HitObjects]
64,192,1390,128,0,1707:0:0:0:0:
192,192,1390,128,0,1707:0:0:0:0:
448,192,1390,128,0,1707:0:0:0:0:
64,192,1770,128,0,2150:0:0:0:0:
320,192,1770,128,0,1897:0:0:0:0:
448,192,1770,128,0,2277:0:0:0:0:
192,192,1897,128,0,2023:0:0:0:0:
320,192,2023,128,0,2277:0:0:0:0:
192,192,2150,128,0,2277:0:0:0:0:
64,192,2277,128,0,2403:0:0:0:0:
192,192,2403,128,0,2656:0:0:0:0:
320,192,2403,128,0,2530:0:0:0:0:
448,192,2403,128,0,2783:0:0:0:0:
64,192,2530,128,0,2783:0:0:0:0:
320,192,2656,128,0,2783:0:0:0:0:
192,192,2783,128,0,2909:0:0:0:0:
64,192,2909,128,0,2973:0:0:0:0:
320,192,2909,128,0,3099:0:0:0:0:
448,192,2909,128,0,3163:0:0:0:0:
64,192,3036,128,0,3163:0:0:0:0:
192,192,3036,128,0,3163:0:0:0:0:
320,192,3163,128,0,3289:0:0:0:0:
64,192,3289,128,0,3416:0:0:0:0:
192,192,3289,128,0,3542:0:0:0:0:
448,192,3289,128,0,3669:0:0:0:0:
320,192,3416,128,0,3669:0:0:0:0:
64,192,3542,128,0,3796:0:0:0:0:
192,192,3669,128,0,3796:0:0:0:0:
448,192,3796,128,0,3922:0:0:0:0:
64,192,3922,128,0,4049:0:0:0:0:
192,192,3922,128,0,4049:0:0:0:0:
320,192,3922,128,0,4175:0:0:0:0:
448,192,4049,128,0,4175:0:0:0:0:
64,192,4175,128,0,4302:0:0:0:0:
192,192,4175,128,0,4302:0:0:0:0:
320,192,4302,128,0,4365:0:0:0:0:
448,192,4302,128,0,4365:0:0:0:0:
64,192,4428,128,0,4618:0:0:0:0:
192,192,4428,128,0,4618:0:0:0:0:
448,192,4428,128,0,4682:0:0:0:0:
320,192,4555,128,0,4682:0:0:0:0:
64,192,4682,128,0,4808:0:0:0:0:
192,192,4682,128,0,4745:0:0:0:0:
320,192,4808,128,0,5061:0:0:0:0:
192,192,4808,128,0,5061:0:0:0:0:
448,192,4808,128,0,4935:0:0:0:0:
64,192,4935,128,0,5188:0:0:0:0:
448,192,5061,128,0,5315:0:0:0:0:
192,192,5188,128,0,5315:0:0:0:0:
64,192,5315,128,0,5441:0:0:0:0:
192,192,5441,128,0,5694:0:0:0:0:
320,192,5441,128,0,5821:0:0:0:0:
448,192,5441,128,0,5568:0:0:0:0:
64,192,5568,128,0,5821:0:0:0:0:
448,192,5694,128,0,5821:0:0:0:0:
192,192,5821,128,0,5947:0:0:0:0:
64,192,5947,128,0,6137:0:0:0:0:
320,192,5947,128,0,6137:0:0:0:0:
448,192,5947,128,0,6137:0:0:0:0:
192,192,6074,128,0,6201:0:0:0:0:
64,192,6201,128,0,6264:0:0:0:0:
448,192,6201,128,0,6264:0:0:0:0:
64,192,6327,128,0,6580:0:0:0:0:
320,192,6327,128,0,6454:0:0:0:0:
448,192,6327,128,0,6580:0:0:0:0:
192,192,6454,128,0,6580:0:0:0:0:
320,192,6580,128,0,6707:0:0:0:0:
64,192,6707,128,0,6770:0:0:0:0:
192,192,6707,128,0,6770:0:0:0:0:
448,192,6707,128,0,6770:0:0:0:0:
320,192,6770,128,0,6897:0:0:0:0:
64,192,6834,128,0,6960:0:0:0:0:
192,192,6897,128,0,7023:0:0:0:0:
448,192,6960,128,0,7087:0:0:0:0:
320,192,7023,128,0,7150:0:0:0:0:
64,192,7087,128,0,7213:0:0:0:0:
192,192,7150,128,0,7277:0:0:0:0:
448,192,7213,128,0,7340:0:0:0:0:
320,192,7277,128,0,7403:0:0:0:0:
64,192,7340,128,0,7403:0:0:0:0:
192,192,7403,128,0,7466:0:0:0:0:
64,192,7466,128,0,7530:0:0:0:0:
320,192,7466,128,0,7593:0:0:0:0:
448,192,7466,128,0,7593:0:0:0:0:
192,192,7593,128,0,7656:0:0:0:0:
64,192,7593,128,0,7656:0:0:0:0:
192,192,7720,128,0,7783:0:0:0:0:
320,192,7720,128,0,7783:0:0:0:0:
448,192,7720,128,0,7783:0:0:0:0:
64,192,7720,128,0,7783:0:0:0:0:
192,192,7846,128,0,7909:0:0:0:0:
320,192,7846,128,0,7973:0:0:0:0:
448,192,7846,128,0,7973:0:0:0:0:
64,192,7973,128,0,8163:0:0:0:0:
192,192,7973,128,0,8163:0:0:0:0:
320,192,8099,128,0,8163:0:0:0:0:
448,192,8099,128,0,8163:0:0:0:0:
64,192,8226,128,0,8353:0:0:0:0:
192,192,8226,128,0,8289:0:0:0:0:
448,192,8226,128,0,8353:0:0:0:0:
192,192,8353,1,0,0:0:0:0:
64,192,8479,128,0,8606:0:0:0:0:
320,192,8479,128,0,8542:0:0:0:0:
448,192,8479,128,0,8606:0:0:0:0:
320,192,8606,1,0,0:0:0:0:
64,192,8732,128,0,8859:0:0:0:0:
192,192,8732,128,0,8859:0:0:0:0:
448,192,8732,128,0,8859:0:0:0:0:
320,192,8859,128,0,8985:0:0:0:0:
64,192,8985,128,0,9049:0:0:0:0:
192,192,8985,128,0,9049:0:0:0:0:
448,192,8985,128,0,9175:0:0:0:0:
64,192,9112,128,0,9175:0:0:0:0:
192,192,9112,128,0,9175:0:0:0:0:
192,192,9239,128,0,9302:0:0:0:0:
64,192,9239,128,0,9302:0:0:0:0:
320,192,9239,128,0,9302:0:0:0:0:
448,192,9239,128,0,9302:0:0:0:0:
192,192,9365,128,0,9492:0:0:0:0:
320,192,9365,128,0,9428:0:0:0:0:
448,192,9365,128,0,9428:0:0:0:0:
320,192,9492,128,0,9682:0:0:0:0:
448,192,9492,128,0,9682:0:0:0:0:
192,192,9618,128,0,9682:0:0:0:0:
64,192,9618,128,0,9682:0:0:0:0:
64,192,9745,128,0,9935:0:0:0:0:
320,192,9745,128,0,9808:0:0:0:0:
448,192,9745,128,0,9935:0:0:0:0:
320,192,9872,1,0,0:0:0:0:
64,192,9998,128,0,10188:0:0:0:0:
192,192,9998,128,0,10061:0:0:0:0:
448,192,9998,128,0,10188:0:0:0:0:
192,192,10125,1,0,0:0:0:0:
64,192,10251,128,0,10378:0:0:0:0:
320,192,10251,128,0,10378:0:0:0:0:
448,192,10251,128,0,10378:0:0:0:0:
192,192,10378,128,0,10504:0:0:0:0:
320,192,10504,128,0,10568:0:0:0:0:
448,192,10504,128,0,10568:0:0:0:0:
64,192,10504,128,0,10694:0:0:0:0:
320,192,10631,128,0,10694:0:0:0:0:
448,192,10631,128,0,10694:0:0:0:0:
448,192,10758,128,0,10821:0:0:0:0:
320,192,10758,128,0,10821:0:0:0:0:
192,192,10758,128,0,10821:0:0:0:0:
64,192,10758,128,0,10821:0:0:0:0:
64,192,10884,128,0,10947:0:0:0:0:
192,192,10884,128,0,10947:0:0:0:0:
320,192,10884,128,0,11011:0:0:0:0:
64,192,11011,128,0,11201:0:0:0:0:
192,192,11011,128,0,11201:0:0:0:0:
320,192,11137,128,0,11201:0:0:0:0:
448,192,11137,128,0,11201:0:0:0:0:
64,192,11264,128,0,11454:0:0:0:0:
192,192,11264,128,0,11327:0:0:0:0:
448,192,11264,128,0,11454:0:0:0:0:
192,192,11390,1,0,0:0:0:0:
64,192,11517,128,0,11707:0:0:0:0:
320,192,11517,128,0,11580:0:0:0:0:
448,192,11517,128,0,11707:0:0:0:0:
320,192,11644,1,0,0:0:0:0:
64,192,11770,128,0,11960:0:0:0:0:
192,192,11770,128,0,11834:0:0:0:0:
448,192,11770,128,0,11960:0:0:0:0:
192,192,11897,1,0,0:0:0:0:
64,192,12023,128,0,12530:0:0:0:0:
320,192,12023,128,0,12213:0:0:0:0:
448,192,12023,128,0,12466:0:0:0:0:
192,192,12150,128,0,12277:0:0:0:0:
320,192,12277,128,0,12403:0:0:0:0:
192,192,12403,128,0,12530:0:0:0:0:
448,192,12530,128,0,12656:0:0:0:0:
320,192,12656,128,0,12783:0:0:0:0:
64,192,12783,128,0,13226:0:0:0:0:
448,192,12783,128,0,13099:0:0:0:0:
192,192,12783,128,0,12909:0:0:0:0:
320,192,12909,128,0,13036:0:0:0:0:
192,192,13036,128,0,13163:0:0:0:0:
448,192,13163,128,0,13289:0:0:0:0:
64,192,13289,128,0,13353:0:0:0:0:
192,192,13289,128,0,13353:0:0:0:0:
320,192,13289,128,0,13353:0:0:0:0:
192,192,13416,128,0,13479:0:0:0:0:
320,192,13416,128,0,13479:0:0:0:0:
448,192,13416,128,0,13479:0:0:0:0:
64,192,13542,128,0,13859:0:0:0:0:
192,192,13606,128,0,13796:0:0:0:0:
320,192,13669,128,0,13732:0:0:0:0:
448,192,13732,128,0,13985:0:0:0:0:
320,192,13796,128,0,13922:0:0:0:0:
192,192,13859,128,0,13922:0:0:0:0:
64,192,13922,128,0,13985:0:0:0:0:
192,192,13985,128,0,14049:0:0:0:0:
320,192,14049,128,0,14112:0:0:0:0:
448,192,14112,128,0,14175:0:0:0:0:
320,192,14175,128,0,14239:0:0:0:0:
192,192,14239,128,0,14302:0:0:0:0:
448,192,14302,128,0,14998:0:0:0:0:
320,192,14302,128,0,14365:0:0:0:0:
192,192,14365,128,0,14428:0:0:0:0:
64,192,14428,128,0,14492:0:0:0:0:
192,192,14492,128,0,14555:0:0:0:0:
320,192,14555,128,0,14618:0:0:0:0:
192,192,14618,128,0,14682:0:0:0:0:
64,192,14682,128,0,14745:0:0:0:0:
192,192,14745,128,0,14808:0:0:0:0:
320,192,14808,128,0,14872:0:0:0:0:
64,192,14808,128,0,14872:0:0:0:0:
192,192,14935,128,0,14998:0:0:0:0:
64,192,14935,128,0,14998:0:0:0:0:
64,192,15061,1,0,0:0:0:0:
192,192,15061,128,0,15188:0:0:0:0:
320,192,15061,128,0,15188:0:0:0:0:
448,192,15061,128,0,15315:0:0:0:0:
64,192,15188,128,0,15315:0:0:0:0:
320,192,15315,1,0,0:0:0:0:
448,192,15441,1,0,0:0:0:0:
64,192,15441,128,0,15694:0:0:0:0:
192,192,15441,128,0,15568:0:0:0:0:
320,192,15441,128,0,15568:0:0:0:0:
448,192,15568,128,0,15694:0:0:0:0:
192,192,15694,1,0,0:0:0:0:
320,192,15821,1,0,0:0:0:0:
64,192,15821,128,0,15947:0:0:0:0:
192,192,15821,128,0,15947:0:0:0:0:
448,192,15821,128,0,16074:0:0:0:0:
320,192,15947,128,0,16074:0:0:0:0:
192,192,16074,128,0,16137:0:0:0:0:
64,192,16074,128,0,16264:0:0:0:0:
192,192,16201,128,0,16264:0:0:0:0:
448,192,16201,128,0,16264:0:0:0:0:
320,192,16327,128,0,16390:0:0:0:0:
448,192,16327,128,0,16517:0:0:0:0:
64,192,16454,128,0,16517:0:0:0:0:
320,192,16454,128,0,16517:0:0:0:0:
192,192,16580,1,0,0:0:0:0:
64,192,16580,128,0,16834:0:0:0:0:
320,192,16580,128,0,16707:0:0:0:0:
448,192,16580,128,0,16707:0:0:0:0:
192,192,16707,128,0,16834:0:0:0:0:
320,192,16834,1,0,0:0:0:0:
64,192,16960,1,0,0:0:0:0:
192,192,16960,128,0,17087:0:0:0:0:
320,192,16960,128,0,17213:0:0:0:0:
448,192,16960,128,0,17087:0:0:0:0:
64,192,17087,128,0,17213:0:0:0:0:
448,192,17213,1,0,0:0:0:0:
320,192,17340,1,0,0:0:0:0:
192,192,17340,128,0,17466:0:0:0:0:
448,192,17340,128,0,17466:0:0:0:0:
64,192,17340,128,0,17593:0:0:0:0:
320,192,17466,128,0,17593:0:0:0:0:
448,192,17593,128,0,17656:0:0:0:0:
192,192,17593,128,0,17783:0:0:0:0:
64,192,17720,128,0,17783:0:0:0:0:
448,192,17720,128,0,17783:0:0:0:0:
320,192,17846,128,0,17909:0:0:0:0:
64,192,17846,128,0,18036:0:0:0:0:
192,192,17973,128,0,18036:0:0:0:0:
320,192,17973,128,0,18036:0:0:0:0:
448,192,18099,1,0,0:0:0:0:
64,192,18099,128,0,18226:0:0:0:0:
192,192,18099,128,0,18353:0:0:0:0:
320,192,18099,128,0,18353:0:0:0:0:
448,192,18226,128,0,18353:0:0:0:0:
64,192,18353,1,0,0:0:0:0:
192,192,18479,1,0,0:0:0:0:
64,192,18479,128,0,18732:0:0:0:0:
320,192,18479,128,0,18606:0:0:0:0:
448,192,18479,128,0,18606:0:0:0:0:
192,192,18606,128,0,18732:0:0:0:0:
320,192,18732,1,0,0:0:0:0:
448,192,18859,1,0,0:0:0:0:
64,192,18859,128,0,18985:0:0:0:0:
192,192,18859,128,0,18985:0:0:0:0:
320,192,18859,128,0,19112:0:0:0:0:
448,192,18985,128,0,19112:0:0:0:0:
64,192,19112,128,0,19175:0:0:0:0:
192,192,19112,128,0,19302:0:0:0:0:
64,192,19239,128,0,19302:0:0:0:0:
320,192,19239,128,0,19302:0:0:0:0:
320,192,19365,128,0,19555:0:0:0:0:
192,192,19365,128,0,19428:0:0:0:0:
192,192,19492,128,0,19555:0:0:0:0:
448,192,19492,128,0,19555:0:0:0:0:
64,192,19618,1,0,0:0:0:0:
192,192,19618,128,0,19745:0:0:0:0:
320,192,19618,128,0,19745:0:0:0:0:
448,192,19618,128,0,19872:0:0:0:0:
64,192,19745,128,0,19872:0:0:0:0:
192,192,19872,1,0,0:0:0:0:
320,192,19998,1,0,0:0:0:0:
64,192,19998,128,0,20251:0:0:0:0:
192,192,19998,128,0,20125:0:0:0:0:
448,192,19998,128,0,20125:0:0:0:0:
320,192,20125,128,0,20251:0:0:0:0:
448,192,20251,1,0,0:0:0:0:
320,192,20378,1,0,0:0:0:0:
64,192,20378,128,0,20504:0:0:0:0:
192,192,20378,128,0,20504:0:0:0:0:
448,192,20378,128,0,20631:0:0:0:0:
320,192,20504,128,0,20631:0:0:0:0:
64,192,20631,128,0,20694:0:0:0:0:
192,192,20631,128,0,20821:0:0:0:0:
64,192,20758,128,0,20821:0:0:0:0:
320,192,20758,128,0,20821:0:0:0:0:
448,192,20758,128,0,20821:0:0:0:0:
192,192,20884,128,0,21074:0:0:0:0:
320,192,20884,128,0,21074:0:0:0:0:
64,192,21011,128,0,21074:0:0:0:0:
448,192,21011,128,0,21074:0:0:0:0:
320,192,21137,1,0,0:0:0:0:
64,192,21137,128,0,21264:0:0:0:0:
192,192,21137,128,0,21264:0:0:0:0:
448,192,21137,128,0,21390:0:0:0:0:
320,192,21264,128,0,21390:0:0:0:0:
64,192,21390,1,0,0:0:0:0:
192,192,21517,1,0,0:0:0:0:
64,192,21517,128,0,21770:0:0:0:0:
320,192,21517,128,0,21644:0:0:0:0:
448,192,21517,128,0,21644:0:0:0:0:
192,192,21644,128,0,21770:0:0:0:0:
448,192,21770,1,0,0:0:0:0:
64,192,21897,1,0,0:0:0:0:
320,192,21897,128,0,22023:0:0:0:0:
448,192,21897,128,0,22023:0:0:0:0:
192,192,21897,128,0,22150:0:0:0:0:
64,192,22023,128,0,22150:0:0:0:0:
448,192,22150,128,0,22213:0:0:0:0:
320,192,22150,128,0,22340:0:0:0:0:
192,192,22277,128,0,22340:0:0:0:0:
448,192,22277,128,0,22340:0:0:0:0:
192,192,22403,128,0,22593:0:0:0:0:
64,192,22403,128,0,22466:0:0:0:0:
64,192,22530,128,0,22593:0:0:0:0:
320,192,22530,128,0,22593:0:0:0:0:
192,192,22656,1,0,0:0:0:0:
64,192,22656,128,0,22783:0:0:0:0:
320,192,22656,128,0,22909:0:0:0:0:
448,192,22656,128,0,22909:0:0:0:0:
192,192,22783,128,0,22909:0:0:0:0:
64,192,22909,1,0,0:0:0:0:
320,192,23036,1,0,0:0:0:0:
64,192,23036,128,0,23289:0:0:0:0:
192,192,23036,128,0,23289:0:0:0:0:
448,192,23036,128,0,23163:0:0:0:0:
320,192,23163,128,0,23289:0:0:0:0:
448,192,23289,1,0,0:0:0:0:
320,192,23416,1,0,0:0:0:0:
64,192,23416,128,0,23542:0:0:0:0:
192,192,23416,128,0,23542:0:0:0:0:
448,192,23416,128,0,23669:0:0:0:0:
320,192,23542,128,0,23669:0:0:0:0:
192,192,23669,128,0,23732:0:0:0:0:
64,192,23669,128,0,23859:0:0:0:0:
192,192,23796,128,0,23859:0:0:0:0:
320,192,23796,128,0,23859:0:0:0:0:
320,192,23922,128,0,24112:0:0:0:0:
448,192,23922,128,0,23985:0:0:0:0:
64,192,24049,128,0,24112:0:0:0:0:
448,192,24049,128,0,24112:0:0:0:0:
192,192,24175,1,0,0:0:0:0:
64,192,24175,128,0,24428:0:0:0:0:
320,192,24175,128,0,24302:0:0:0:0:
448,192,24175,128,0,24302:0:0:0:0:
192,192,24302,128,0,24428:0:0:0:0:
320,192,24428,1,0,0:0:0:0:
64,192,24555,1,0,0:0:0:0:
192,192,24555,128,0,24808:0:0:0:0:
320,192,24555,128,0,24682:0:0:0:0:
448,192,24555,128,0,24682:0:0:0:0:
64,192,24682,128,0,24808:0:0:0:0:
448,192,24808,1,0,0:0:0:0:
192,192,24935,1,0,0:0:0:0:
64,192,24935,128,0,25061:0:0:0:0:
320,192,24935,128,0,25061:0:0:0:0:
448,192,24935,128,0,25188:0:0:0:0:
192,192,25061,128,0,25188:0:0:0:0:
320,192,25188,128,0,25251:0:0:0:0:
64,192,25188,128,0,25378:0:0:0:0:
192,192,25315,128,0,25378:0:0:0:0:
320,192,25315,128,0,25378:0:0:0:0:
192,192,25441,128,0,25631:0:0:0:0:
64,192,25441,128,0,25504:0:0:0:0:
448,192,25441,128,0,25504:0:0:0:0:
320,192,25568,128,0,25631:0:0:0:0:
448,192,25568,128,0,25631:0:0:0:0:
64,192,25694,128,0,25758:0:0:0:0:
64,192,25821,128,0,25884:0:0:0:0:
320,192,25821,128,0,25947:0:0:0:0:
448,192,25821,128,0,25979:0:0:0:0:
192,192,25821,128,0,25916:0:0:0:0:
64,192,26074,128,0,26137:0:0:0:0:
192,192,26074,128,0,26137:0:0:0:0:
320,192,26137,128,0,26264:0:0:0:0:
448,192,26137,128,0,26264:0:0:0:0:
64,192,26201,128,0,26264:0:0:0:0:
192,192,26201,128,0,26264:0:0:0:0:
64,192,26327,128,0,26390:0:0:0:0:
192,192,26327,128,0,26390:0:0:0:0:
64,192,26454,128,0,26612:0:0:0:0:
192,192,26454,128,0,26580:0:0:0:0:
320,192,26454,128,0,26549:0:0:0:0:
448,192,26454,128,0,26517:0:0:0:0:
64,192,26707,128,0,26770:0:0:0:0:
448,192,26707,128,0,26770:0:0:0:0:
192,192,26770,128,0,26897:0:0:0:0:
320,192,26770,128,0,26897:0:0:0:0:
64,192,26834,128,0,26897:0:0:0:0:
448,192,26834,128,0,26897:0:0:0:0:
64,192,26960,128,0,27150:0:0:0:0:
448,192,26960,128,0,27150:0:0:0:0:
192,192,27087,128,0,27150:0:0:0:0:
320,192,27087,128,0,27150:0:0:0:0:
192,192,27213,128,0,27340:0:0:0:0:
320,192,27213,128,0,27340:0:0:0:0:
448,192,27213,128,0,27340:0:0:0:0:
64,192,27213,1,0,0:0:0:0:
64,192,27340,128,0,27466:0:0:0:0:
192,192,27466,128,0,27593:0:0:0:0:
320,192,27466,128,0,27720:0:0:0:0:
64,192,27593,128,0,27720:0:0:0:0:
448,192,27593,128,0,27720:0:0:0:0:
192,192,27720,128,0,27846:0:0:0:0:
64,192,27846,128,0,27973:0:0:0:0:
448,192,27846,128,0,27909:0:0:0:0:
192,192,27973,128,0,28099:0:0:0:0:
448,192,27973,128,0,28226:0:0:0:0:
320,192,28099,128,0,28226:0:0:0:0:
64,192,28099,128,0,28163:0:0:0:0:
64,192,28226,128,0,28479:0:0:0:0:
192,192,28226,128,0,28353:0:0:0:0:
320,192,28353,128,0,28416:0:0:0:0:
448,192,28353,128,0,28416:0:0:0:0:
192,192,28479,128,0,28606:0:0:0:0:
320,192,28479,128,0,28606:0:0:0:0:
448,192,28606,128,0,28732:0:0:0:0:
64,192,28732,128,0,28859:0:0:0:0:
192,192,28732,128,0,28859:0:0:0:0:
320,192,28732,128,0,28796:0:0:0:0:
448,192,28796,128,0,28985:0:0:0:0:
320,192,28859,128,0,28922:0:0:0:0:
64,192,28922,128,0,28985:0:0:0:0:
192,192,28985,128,0,29112:0:0:0:0:
320,192,28985,128,0,29112:0:0:0:0:
448,192,29049,128,0,29175:0:0:0:0:
64,192,29112,128,0,29239:0:0:0:0:
320,192,29175,128,0,29239:0:0:0:0:
192,192,29239,128,0,29302:0:0:0:0:
448,192,29239,128,0,29302:0:0:0:0:
64,192,29365,128,0,29428:0:0:0:0:
192,192,29365,128,0,29428:0:0:0:0:
320,192,29428,128,0,29492:0:0:0:0:
448,192,29428,128,0,29492:0:0:0:0:
64,192,29492,128,0,29555:0:0:0:0:
192,192,29492,128,0,29618:0:0:0:0:
320,192,29555,128,0,29618:0:0:0:0:
448,192,29618,128,0,29745:0:0:0:0:
64,192,29618,128,0,29682:0:0:0:0:
320,192,29682,128,0,29745:0:0:0:0:
64,192,29745,128,0,29872:0:0:0:0:
192,192,29745,128,0,29808:0:0:0:0:
320,192,29808,128,0,29872:0:0:0:0:
448,192,29872,128,0,30061:0:0:0:0:
192,192,29872,128,0,30061:0:0:0:0:
64,192,30125,1,0,0:0:0:0:
192,192,30125,1,0,0:0:0:0:
64,192,30188,1,0,0:0:0:0:
192,192,30188,1,0,0:0:0:0:
320,192,30251,128,0,30378:0:0:0:0:
448,192,30251,1,0,0:0:0:0:
448,192,30378,128,0,30504:0:0:0:0:
64,192,30504,128,0,30631:0:0:0:0:
320,192,30504,128,0,30631:0:0:0:0:
192,192,30631,128,0,30758:0:0:0:0:
448,192,30631,128,0,30758:0:0:0:0:
320,192,30758,128,0,30884:0:0:0:0:
64,192,30884,128,0,30947:0:0:0:0:
192,192,30884,128,0,30947:0:0:0:0:
64,192,31011,128,0,31137:0:0:0:0:
320,192,31011,128,0,31074:0:0:0:0:
448,192,31011,128,0,31074:0:0:0:0:
448,192,31137,128,0,31201:0:0:0:0:
192,192,31137,128,0,31201:0:0:0:0:
64,192,31201,128,0,31264:0:0:0:0:
320,192,31264,128,0,31327:0:0:0:0:
448,192,31264,128,0,31390:0:0:0:0:
192,192,31390,128,0,31517:0:0:0:0:
320,192,31390,128,0,31517:0:0:0:0:
64,192,31517,128,0,31644:0:0:0:0:
448,192,31517,128,0,31580:0:0:0:0:
192,192,31644,128,0,31707:0:0:0:0:
448,192,31644,128,0,31770:0:0:0:0:
64,192,31770,128,0,31960:0:0:0:0:
192,192,31770,128,0,31897:0:0:0:0:
320,192,31770,128,0,31834:0:0:0:0:
448,192,31834,128,0,31897:0:0:0:0:
320,192,31897,128,0,31960:0:0:0:0:
192,192,31960,128,0,32023:0:0:0:0:
64,192,32023,128,0,32087:0:0:0:0:
448,192,32023,128,0,32213:0:0:0:0:
192,192,32087,128,0,32150:0:0:0:0:
320,192,32150,128,0,32213:0:0:0:0:
192,192,32213,128,0,32277:0:0:0:0:
64,192,32277,128,0,32466:0:0:0:0:
448,192,32277,128,0,32466:0:0:0:0:
320,192,32340,128,0,32403:0:0:0:0:
192,192,32403,128,0,32466:0:0:0:0:
320,192,32466,128,0,32530:0:0:0:0:
64,192,32530,128,0,32593:0:0:0:0:
192,192,32530,128,0,32593:0:0:0:0:
448,192,32530,128,0,32783:0:0:0:0:
320,192,32593,128,0,32656:0:0:0:0:
64,192,32656,128,0,32783:0:0:0:0:
320,192,32720,128,0,32783:0:0:0:0:
192,192,32783,128,0,32846:0:0:0:0:
448,192,32846,128,0,32973:0:0:0:0:
192,192,32909,128,0,32973:0:0:0:0:
320,192,32973,128,0,33036:0:0:0:0:
64,192,33036,128,0,33099:0:0:0:0:
192,192,33036,128,0,33099:0:0:0:0:
448,192,33036,128,0,33099:0:0:0:0:
64,192,33163,128,0,33226:0:0:0:0:
320,192,33163,128,0,33226:0:0:0:0:
448,192,33163,128,0,33226:0:0:0:0:
192,192,33289,128,0,33416:0:0:0:0:
320,192,33289,128,0,33416:0:0:0:0:
448,192,33289,128,0,33416:0:0:0:0:
64,192,33289,1,0,0:0:0:0:
64,192,33416,128,0,33542:0:0:0:0:
192,192,33542,128,0,33669:0:0:0:0:
320,192,33542,128,0,33796:0:0:0:0:
64,192,33669,128,0,33796:0:0:0:0:
448,192,33669,128,0,33796:0:0:0:0:
192,192,33796,128,0,33922:0:0:0:0:
64,192,33922,128,0,34049:0:0:0:0:
448,192,33922,128,0,33985:0:0:0:0:
192,192,34049,128,0,34175:0:0:0:0:
448,192,34049,128,0,34302:0:0:0:0:
320,192,34175,128,0,34302:0:0:0:0:
64,192,34175,128,0,34239:0:0:0:0:
64,192,34302,128,0,34555:0:0:0:0:
192,192,34302,128,0,34428:0:0:0:0:
320,192,34428,128,0,34492:0:0:0:0:
448,192,34428,128,0,34492:0:0:0:0:
192,192,34555,128,0,34682:0:0:0:0:
320,192,34555,128,0,34682:0:0:0:0:
448,192,34682,128,0,34808:0:0:0:0:
64,192,34808,128,0,34935:0:0:0:0:
192,192,34808,128,0,34935:0:0:0:0:
320,192,34808,128,0,34872:0:0:0:0:
448,192,34872,128,0,35061:0:0:0:0:
320,192,34935,128,0,34998:0:0:0:0:
64,192,34998,128,0,35061:0:0:0:0:
192,192,35061,128,0,35188:0:0:0:0:
320,192,35061,128,0,35188:0:0:0:0:
448,192,35125,128,0,35251:0:0:0:0:
64,192,35188,128,0,35315:0:0:0:0:
320,192,35251,128,0,35315:0:0:0:0:
192,192,35315,128,0,35378:0:0:0:0:
448,192,35315,128,0,35378:0:0:0:0:
64,192,35441,128,0,35504:0:0:0:0:
192,192,35441,128,0,35504:0:0:0:0:
320,192,35504,128,0,35568:0:0:0:0:
448,192,35504,128,0,35568:0:0:0:0:
64,192,35568,128,0,35631:0:0:0:0:
192,192,35568,128,0,35694:0:0:0:0:
320,192,35631,128,0,35694:0:0:0:0:
448,192,35694,128,0,35821:0:0:0:0:
64,192,35694,128,0,35758:0:0:0:0:
320,192,35758,128,0,35821:0:0:0:0:
192,192,35821,128,0,35947:0:0:0:0:
64,192,35884,128,0,35947:0:0:0:0:
320,192,35947,128,0,36011:0:0:0:0:
448,192,35947,128,0,36011:0:0:0:0:
64,192,36011,128,0,36074:0:0:0:0:
192,192,36011,128,0,36074:0:0:0:0:
320,192,36074,128,0,36137:0:0:0:0:
448,192,36074,128,0,36137:0:0:0:0:
64,192,36137,128,0,36264:0:0:0:0:
192,192,36201,128,0,36327:0:0:0:0:
320,192,36264,128,0,36327:0:0:0:0:
64,192,36327,128,0,36390:0:0:0:0:
448,192,36327,128,0,36580:0:0:0:0:
320,192,36454,128,0,36517:0:0:0:0:
64,192,36454,128,0,36517:0:0:0:0:
64,192,36580,128,0,36644:0:0:0:0:
192,192,36580,128,0,36770:0:0:0:0:
64,192,36707,128,0,36770:0:0:0:0:
448,192,36707,128,0,36770:0:0:0:0:
192,192,36834,128,0,37023:0:0:0:0:
448,192,36834,128,0,36897:0:0:0:0:
320,192,36960,128,0,37023:0:0:0:0:
448,192,36960,128,0,37023:0:0:0:0:
64,192,37087,128,0,37340:0:0:0:0:
192,192,37087,128,0,37213:0:0:0:0:
320,192,37213,128,0,37277:0:0:0:0:
192,192,37277,128,0,37340:0:0:0:0:
320,192,37340,128,0,37530:0:0:0:0:
64,192,37466,128,0,37530:0:0:0:0:
448,192,37466,128,0,37530:0:0:0:0:
64,192,37593,128,0,37783:0:0:0:0:
192,192,37593,128,0,37656:0:0:0:0:
192,192,37720,128,0,37783:0:0:0:0:
320,192,37720,128,0,37783:0:0:0:0:
320,192,37846,128,0,37909:0:0:0:0:
448,192,37846,128,0,38036:0:0:0:0:
64,192,37973,128,0,38036:0:0:0:0:
320,192,37973,128,0,38036:0:0:0:0:
64,192,38099,128,0,38289:0:0:0:0:
448,192,38099,128,0,38163:0:0:0:0:
192,192,38226,128,0,38289:0:0:0:0:
448,192,38226,128,0,38289:0:0:0:0:
64,192,38353,128,0,38542:0:0:0:0:
192,192,38353,128,0,38542:0:0:0:0:
320,192,38353,128,0,38542:0:0:0:0:
448,192,38479,128,0,38542:0:0:0:0:
192,192,38606,128,0,38796:0:0:0:0:
320,192,38606,128,0,38796:0:0:0:0:
448,192,38606,128,0,38796:0:0:0:0:
64,192,38732,128,0,38796:0:0:0:0:
64,192,38859,128,0,39175:0:0:0:0:
192,192,38859,128,0,39112:0:0:0:0:
320,192,38859,128,0,39049:0:0:0:0:
448,192,38859,128,0,38985:0:0:0:0:
192,192,39365,128,0,39428:0:0:0:0:
64,192,39365,128,0,39618:0:0:0:0:
448,192,39365,128,0,39618:0:0:0:0:
320,192,39428,128,0,39492:0:0:0:0:
192,192,39492,128,0,39555:0:0:0:0:
320,192,39555,128,0,39618:0:0:0:0:
192,192,39618,128,0,39682:0:0:0:0:
320,192,39682,128,0,39745:0:0:0:0:
192,192,39745,128,0,39808:0:0:0:0:
320,192,39808,128,0,39872:0:0:0:0:
64,192,39872,128,0,40061:0:0:0:0:
448,192,39872,128,0,40061:0:0:0:0:
192,192,39998,128,0,40061:0:0:0:0:
320,192,39998,128,0,40061:0:0:0:0:
64,192,40125,128,0,40315:0:0:0:0:
320,192,40125,128,0,40315:0:0:0:0:
448,192,40125,128,0,40315:0:0:0:0:
192,192,40251,128,0,40315:0:0:0:0:
320,192,40378,128,0,40441:0:0:0:0:
448,192,40378,128,0,40441:0:0:0:0:
448,192,40504,128,0,40631:0:0:0:0:
320,192,40504,128,0,40631:0:0:0:0:
64,192,40631,128,0,40694:0:0:0:0:
192,192,40631,128,0,40694:0:0:0:0:
320,192,40694,128,0,40758:0:0:0:0:
64,192,40758,128,0,40821:0:0:0:0:
448,192,40758,128,0,40821:0:0:0:0:
192,192,40821,128,0,40884:0:0:0:0:
448,192,40884,128,0,41074:0:0:0:0:
64,192,40884,128,0,41074:0:0:0:0:
320,192,40884,128,0,41201:0:0:0:0:
192,192,41011,128,0,41074:0:0:0:0:
448,192,41137,128,0,41327:0:0:0:0:
64,192,41137,128,0,41327:0:0:0:0:
320,192,41264,128,0,41327:0:0:0:0:
320,192,41390,128,0,41517:0:0:0:0:
448,192,41390,128,0,41517:0:0:0:0:
64,192,41517,128,0,41580:0:0:0:0:
192,192,41517,128,0,41580:0:0:0:0:
320,192,41580,128,0,41644:0:0:0:0:
64,192,41644,128,0,41834:0:0:0:0:
448,192,41644,128,0,41834:0:0:0:0:
192,192,41644,128,0,41960:0:0:0:0:
320,192,41770,128,0,41834:0:0:0:0:
64,192,41897,128,0,41960:0:0:0:0:
448,192,41897,128,0,41960:0:0:0:0:
64,192,42023,128,0,42087:0:0:0:0:
192,192,42023,128,0,42087:0:0:0:0:
320,192,42150,128,0,42213:0:0:0:0:
448,192,42150,128,0,42213:0:0:0:0:
320,192,42277,128,0,42340:0:0:0:0:
64,192,42277,128,0,42340:0:0:0:0:
64,192,42403,128,0,42593:0:0:0:0:
448,192,42403,128,0,42593:0:0:0:0:
192,192,42403,128,0,42466:0:0:0:0:
320,192,42466,128,0,42530:0:0:0:0:
192,192,42530,128,0,42593:0:0:0:0:
320,192,42593,128,0,42656:0:0:0:0:
64,192,42656,128,0,42846:0:0:0:0:
448,192,42656,128,0,42846:0:0:0:0:
320,192,42720,128,0,42783:0:0:0:0:
192,192,42783,128,0,42846:0:0:0:0:
320,192,42846,128,0,42909:0:0:0:0:
64,192,42909,128,0,42973:0:0:0:0:
448,192,42909,128,0,43099:0:0:0:0:
64,192,43036,128,0,43099:0:0:0:0:
192,192,43036,128,0,43099:0:0:0:0:
192,192,43163,128,0,43353:0:0:0:0:
320,192,43163,128,0,43226:0:0:0:0:
448,192,43163,128,0,43353:0:0:0:0:
320,192,43289,128,0,43353:0:0:0:0:
64,192,43416,128,0,43479:0:0:0:0:
192,192,43416,128,0,43606:0:0:0:0:
64,192,43542,128,0,43606:0:0:0:0:
448,192,43542,128,0,43606:0:0:0:0:
192,192,43669,128,0,43732:0:0:0:0:
320,192,43669,128,0,43732:0:0:0:0:
320,192,43796,128,0,43859:0:0:0:0:
448,192,43796,128,0,43859:0:0:0:0:
64,192,43922,128,0,44112:0:0:0:0:
192,192,43922,128,0,44112:0:0:0:0:
448,192,43922,128,0,44365:0:0:0:0:
64,192,44175,128,0,44365:0:0:0:0:
192,192,44175,128,0,44365:0:0:0:0:
64,192,44428,128,0,44555:0:0:0:0:
448,192,44428,128,0,44492:0:0:0:0:
320,192,44555,128,0,44618:0:0:0:0:
192,192,44618,128,0,44682:0:0:0:0:
320,192,44682,128,0,44745:0:0:0:0:
448,192,44682,128,0,44745:0:0:0:0:
64,192,44682,128,0,44872:0:0:0:0:
192,192,44745,128,0,44808:0:0:0:0:
320,192,44808,128,0,44872:0:0:0:0:
448,192,44872,128,0,44935:0:0:0:0:
64,192,44935,128,0,45061:0:0:0:0:
320,192,44935,128,0,44998:0:0:0:0:
192,192,44998,128,0,45061:0:0:0:0:
320,192,45061,128,0,45125:0:0:0:0:
448,192,45125,128,0,45188:0:0:0:0:
64,192,45188,128,0,45251:0:0:0:0:
192,192,45188,128,0,45251:0:0:0:0:
320,192,45315,128,0,45378:0:0:0:0:
448,192,45315,128,0,45378:0:0:0:0:
320,192,45441,128,0,45504:0:0:0:0:
192,192,45441,128,0,45694:0:0:0:0:
64,192,45441,128,0,45694:0:0:0:0:
448,192,45504,128,0,45568:0:0:0:0:
320,192,45568,128,0,45631:0:0:0:0:
448,192,45631,128,0,45694:0:0:0:0:
320,192,45694,128,0,45758:0:0:0:0:
448,192,45758,128,0,45821:0:0:0:0:
320,192,45821,128,0,45884:0:0:0:0:
64,192,45884,128,0,45947:0:0:0:0:
448,192,45947,128,0,46011:0:0:0:0:
192,192,45947,128,0,46137:0:0:0:0:
64,192,46074,128,0,46137:0:0:0:0:
448,192,46074,128,0,46137:0:0:0:0:
64,192,46201,128,0,46390:0:0:0:0:
192,192,46201,128,0,46390:0:0:0:0:
448,192,46201,128,0,46390:0:0:0:0:
320,192,46327,128,0,46390:0:0:0:0:
64,192,46454,128,0,46517:0:0:0:0:
448,192,46454,128,0,46517:0:0:0:0:
64,192,46580,128,0,46644:0:0:0:0:
320,192,46580,128,0,46644:0:0:0:0:
192,192,46707,128,0,46770:0:0:0:0:
448,192,46707,128,0,46770:0:0:0:0:
448,192,46834,128,0,46897:0:0:0:0:
320,192,46834,128,0,46897:0:0:0:0:
64,192,46960,128,0,47150:0:0:0:0:
448,192,46960,128,0,47150:0:0:0:0:
192,192,46960,128,0,47277:0:0:0:0:
320,192,47087,128,0,47150:0:0:0:0:
448,192,47213,128,0,47403:0:0:0:0:
64,192,47213,128,0,47403:0:0:0:0:
192,192,47340,128,0,47403:0:0:0:0:
64,192,47466,128,0,47530:0:0:0:0:
320,192,47466,128,0,47530:0:0:0:0:
320,192,47593,128,0,47656:0:0:0:0:
448,192,47593,128,0,47656:0:0:0:0:
192,192,47656,128,0,47720:0:0:0:0:
320,192,47720,128,0,47783:0:0:0:0:
448,192,47720,128,0,47783:0:0:0:0:
64,192,47720,128,0,47909:0:0:0:0:
192,192,47783,128,0,47846:0:0:0:0:
320,192,47846,128,0,47909:0:0:0:0:
448,192,47909,128,0,47973:0:0:0:0:
64,192,47973,128,0,48099:0:0:0:0:
320,192,47973,128,0,48036:0:0:0:0:
192,192,48036,128,0,48099:0:0:0:0:
320,192,48099,128,0,48163:0:0:0:0:
448,192,48099,128,0,48163:0:0:0:0:
64,192,48163,128,0,48226:0:0:0:0:
192,192,48226,128,0,48289:0:0:0:0:
448,192,48226,128,0,48289:0:0:0:0:
64,192,48353,128,0,48416:0:0:0:0:
320,192,48353,128,0,48416:0:0:0:0:
192,192,48479,128,0,48732:0:0:0:0:
448,192,48479,128,0,48732:0:0:0:0:
64,192,48479,128,0,48542:0:0:0:0:
320,192,48542,128,0,48606:0:0:0:0:
64,192,48606,128,0,48669:0:0:0:0:
320,192,48669,128,0,48732:0:0:0:0:
64,192,48732,128,0,48796:0:0:0:0:
320,192,48796,128,0,48859:0:0:0:0:
64,192,48859,128,0,48922:0:0:0:0:
320,192,48922,128,0,48985:0:0:0:0:
64,192,48985,128,0,49175:0:0:0:0:
448,192,48985,128,0,49175:0:0:0:0:
192,192,49112,128,0,49175:0:0:0:0:
320,192,49112,128,0,49175:0:0:0:0:
64,192,49239,128,0,49302:0:0:0:0:
320,192,49239,128,0,49428:0:0:0:0:
64,192,49365,128,0,49428:0:0:0:0:
192,192,49365,128,0,49428:0:0:0:0:
320,192,49492,128,0,49555:0:0:0:0:
448,192,49492,128,0,49682:0:0:0:0:
192,192,49618,128,0,49682:0:0:0:0:
320,192,49618,128,0,49682:0:0:0:0:
192,192,49745,128,0,49935:0:0:0:0:
64,192,49745,128,0,49808:0:0:0:0:
64,192,49872,128,0,49935:0:0:0:0:
448,192,49872,128,0,49935:0:0:0:0:
64,192,49998,128,0,50061:0:0:0:0:
192,192,49998,128,0,50061:0:0:0:0:
320,192,49998,128,0,50125:0:0:0:0:
448,192,49998,128,0,50125:0:0:0:0:
64,192,50125,1,0,0:0:0:0:
192,192,50125,1,0,0:0:0:0:
320,192,50251,128,0,50315:0:0:0:0:
448,192,50251,128,0,50315:0:0:0:0:
320,192,50378,128,0,50441:0:0:0:0:
448,192,50378,128,0,50441:0:0:0:0:
64,192,50378,128,0,50504:0:0:0:0:
192,192,50378,128,0,50504:0:0:0:0:
320,192,50504,1,0,0:0:0:0:
448,192,50504,1,0,0:0:0:0:
64,192,50631,1,0,0:0:0:0:
192,192,50631,1,0,0:0:0:0:
320,192,50758,1,0,0:0:0:0:
64,192,50758,128,0,50884:0:0:0:0:
192,192,50758,128,0,50884:0:0:0:0:
448,192,50758,128,0,50884:0:0:0:0:
320,192,50884,128,0,51011:0:0:0:0:
192,192,51011,1,0,0:0:0:0:
64,192,51137,128,0,51201:0:0:0:0:
192,192,51137,128,0,51201:0:0:0:0:
320,192,51137,128,0,51201:0:0:0:0:
192,192,51264,128,0,51327:0:0:0:0:
320,192,51264,128,0,51327:0:0:0:0:
448,192,51264,128,0,51327:0:0:0:0:
192,192,51390,128,0,51454:0:0:0:0:
64,192,51390,128,0,51454:0:0:0:0:
320,192,51454,1,0,0:0:0:0:
448,192,51454,1,0,0:0:0:0:
64,192,51517,128,0,51580:0:0:0:0:
192,192,51517,128,0,51580:0:0:0:0:
320,192,51517,128,0,51644:0:0:0:0:
448,192,51517,128,0,51644:0:0:0:0:
64,192,51644,128,0,51707:0:0:0:0:
192,192,51644,128,0,51707:0:0:0:0:
192,192,51770,128,0,51834:0:0:0:0:
320,192,51770,128,0,51834:0:0:0:0:
320,192,51897,128,0,51960:0:0:0:0:
192,192,51960,128,0,52023:0:0:0:0:
320,192,52023,128,0,52087:0:0:0:0:
192,192,52087,128,0,52150:0:0:0:0:
320,192,52150,128,0,52277:0:0:0:0:
448,192,52150,128,0,52277:0:0:0:0:
64,192,52277,128,0,52340:0:0:0:0:
192,192,52277,128,0,52340:0:0:0:0:
64,192,52403,128,0,52466:0:0:0:0:
448,192,52403,128,0,52466:0:0:0:0:
192,192,52530,128,0,52656:0:0:0:0:
320,192,52530,128,0,52656:0:0:0:0:
64,192,52656,128,0,52720:0:0:0:0:
448,192,52720,128,0,52783:0:0:0:0:
64,192,52783,128,0,52846:0:0:0:0:
448,192,52846,128,0,52909:0:0:0:0:
64,192,52909,128,0,53036:0:0:0:0:
192,192,52909,128,0,53036:0:0:0:0:
320,192,53036,128,0,53099:0:0:0:0:
448,192,53036,128,0,53226:0:0:0:0:
192,192,53163,128,0,53226:0:0:0:0:
320,192,53163,128,0,53226:0:0:0:0:
64,192,53289,128,0,53416:0:0:0:0:
192,192,53289,128,0,53416:0:0:0:0:
448,192,53416,128,0,53479:0:0:0:0:
192,192,53479,128,0,53542:0:0:0:0:
448,192,53542,128,0,53606:0:0:0:0:
192,192,53606,128,0,53669:0:0:0:0:
320,192,53669,128,0,53732:0:0:0:0:
448,192,53669,128,0,53732:0:0:0:0:
64,192,53796,128,0,53985:0:0:0:0:
448,192,53796,128,0,53859:0:0:0:0:
320,192,53922,128,0,53985:0:0:0:0:
448,192,53922,128,0,53985:0:0:0:0:
320,192,54049,128,0,54112:0:0:0:0:
64,192,54049,128,0,54112:0:0:0:0:
64,192,54175,128,0,54239:0:0:0:0:
320,192,54239,128,0,54302:0:0:0:0:
64,192,54302,128,0,54365:0:0:0:0:
320,192,54365,128,0,54428:0:0:0:0:
64,192,54428,128,0,54555:0:0:0:0:
192,192,54428,128,0,54555:0:0:0:0:
320,192,54555,128,0,54618:0:0:0:0:
448,192,54555,128,0,54745:0:0:0:0:
320,192,54682,128,0,54745:0:0:0:0:
64,192,54682,128,0,54745:0:0:0:0:
64,192,54808,128,0,54935:0:0:0:0:
192,192,54808,128,0,54935:0:0:0:0:
448,192,54935,128,0,54998:0:0:0:0:
320,192,54998,128,0,55061:0:0:0:0:
448,192,55061,128,0,55125:0:0:0:0:
320,192,55125,128,0,55188:0:0:0:0:
192,192,55188,128,0,55251:0:0:0:0:
448,192,55188,128,0,55251:0:0:0:0:
64,192,55315,128,0,55378:0:0:0:0:
192,192,55315,128,0,55504:0:0:0:0:
64,192,55441,128,0,55504:0:0:0:0:
320,192,55441,128,0,55504:0:0:0:0:
320,192,55568,128,0,55694:0:0:0:0:
448,192,55568,128,0,55694:0:0:0:0:
64,192,55694,128,0,55758:0:0:0:0:
192,192,55758,128,0,55821:0:0:0:0:
64,192,55821,128,0,55884:0:0:0:0:
192,192,55884,128,0,55947:0:0:0:0:
64,192,55947,128,0,56011:0:0:0:0:
320,192,55947,128,0,56011:0:0:0:0:
192,192,56074,128,0,56137:0:0:0:0:
320,192,56074,128,0,56137:0:0:0:0:
448,192,56074,128,0,56137:0:0:0:0:
64,192,56201,128,0,56327:0:0:0:0:
192,192,56201,128,0,56327:0:0:0:0:
320,192,56201,128,0,56327:0:0:0:0:
448,192,56201,128,0,56327:0:0:0:0:
64,192,56454,128,0,56580:0:0:0:0:
192,192,56454,128,0,56580:0:0:0:0:
320,192,56454,128,0,56580:0:0:0:0:
192,192,56707,128,0,56834:0:0:0:0:
320,192,56707,128,0,56834:0:0:0:0:
448,192,56707,128,0,56834:0:0:0:0:
64,192,56960,128,0,57087:0:0:0:0:
192,192,56960,128,0,57087:0:0:0:0:
448,192,56960,128,0,57087:0:0:0:0:
64,192,57213,128,0,57340:0:0:0:0:
320,192,57213,128,0,57340:0:0:0:0:
448,192,57213,128,0,57340:0:0:0:0:
64,192,57466,128,0,57530:0:0:0:0:
192,192,57466,128,0,57530:0:0:0:0:
320,192,57466,128,0,57530:0:0:0:0:
448,192,57466,128,0,57530:0:0:0:0:
64,192,57593,128,0,57656:0:0:0:0:
192,192,57593,128,0,57656:0:0:0:0:
448,192,57593,128,0,57656:0:0:0:0:
320,192,57656,128,0,57720:0:0:0:0:
192,192,57720,128,0,57783:0:0:0:0:
64,192,57720,128,0,57783:0:0:0:0:
448,192,57783,128,0,57846:0:0:0:0:
320,192,57846,128,0,57909:0:0:0:0:
192,192,57846,128,0,57909:0:0:0:0:
64,192,57909,128,0,57973:0:0:0:0:
192,192,57973,128,0,58036:0:0:0:0:
448,192,57973,128,0,58036:0:0:0:0:
320,192,58036,128,0,58099:0:0:0:0:
64,192,58099,128,0,58163:0:0:0:0:
192,192,58099,128,0,58163:0:0:0:0:
448,192,58163,128,0,58226:0:0:0:0:
320,192,58226,128,0,58289:0:0:0:0:
192,192,58226,128,0,58289:0:0:0:0:
64,192,58289,128,0,58353:0:0:0:0:
192,192,58353,128,0,58416:0:0:0:0:
320,192,58353,128,0,58416:0:0:0:0:
448,192,58353,128,0,58416:0:0:0:0:
64,192,58416,128,0,58479:0:0:0:0:
448,192,58479,128,0,58542:0:0:0:0:
320,192,58542,128,0,58606:0:0:0:0:
192,192,58606,128,0,58669:0:0:0:0:
448,192,58606,128,0,58669:0:0:0:0:
64,192,58606,128,0,58669:0:0:0:0:
320,192,58669,128,0,58732:0:0:0:0:
64,192,58732,128,0,58796:0:0:0:0:
192,192,58796,128,0,58859:0:0:0:0:
64,192,58859,128,0,58922:0:0:0:0:
320,192,58859,128,0,58922:0:0:0:0:
448,192,58859,128,0,58922:0:0:0:0:
192,192,58922,128,0,58985:0:0:0:0:
448,192,58985,128,0,59049:0:0:0:0:
320,192,59049,128,0,59112:0:0:0:0:
448,192,59112,128,0,59175:0:0:0:0:
192,192,59112,128,0,59175:0:0:0:0:
64,192,59112,128,0,59175:0:0:0:0:
320,192,59175,128,0,59239:0:0:0:0:
64,192,59239,128,0,59302:0:0:0:0:
192,192,59239,128,0,59302:0:0:0:0:
320,192,59302,128,0,59365:0:0:0:0:
192,192,59365,128,0,59428:0:0:0:0:
448,192,59365,128,0,59428:0:0:0:0:
320,192,59428,128,0,59492:0:0:0:0:
64,192,59492,128,0,59555:0:0:0:0:
192,192,59555,128,0,59618:0:0:0:0:
320,192,59618,128,0,59682:0:0:0:0:
448,192,59618,128,0,59682:0:0:0:0:
192,192,59682,128,0,59745:0:0:0:0:
64,192,59745,128,0,59808:0:0:0:0:
448,192,59745,128,0,59808:0:0:0:0:
320,192,59808,128,0,59872:0:0:0:0:
64,192,59872,128,0,59935:0:0:0:0:
192,192,59872,128,0,59935:0:0:0:0:
448,192,59935,128,0,59998:0:0:0:0:
320,192,59998,128,0,60061:0:0:0:0:
192,192,59998,128,0,60061:0:0:0:0:
64,192,60061,128,0,60125:0:0:0:0:
192,192,60125,128,0,60188:0:0:0:0:
448,192,60125,128,0,60188:0:0:0:0:
320,192,60188,128,0,60251:0:0:0:0:
192,192,60251,128,0,60315:0:0:0:0:
64,192,60251,128,0,60315:0:0:0:0:
448,192,60315,128,0,60378:0:0:0:0:
320,192,60378,128,0,60441:0:0:0:0:
192,192,60378,128,0,60441:0:0:0:0:
64,192,60441,128,0,60504:0:0:0:0:
192,192,60504,128,0,60568:0:0:0:0:
448,192,60504,128,0,60568:0:0:0:0:
320,192,60568,128,0,60631:0:0:0:0:
64,192,60631,128,0,60694:0:0:0:0:
448,192,60631,128,0,60694:0:0:0:0:
192,192,60631,128,0,60694:0:0:0:0:
320,192,60694,128,0,60758:0:0:0:0:
192,192,60758,128,0,60821:0:0:0:0:
64,192,60821,128,0,60884:0:0:0:0:
192,192,60884,128,0,60947:0:0:0:0:
320,192,60884,128,0,60947:0:0:0:0:
448,192,60884,128,0,60947:0:0:0:0:
64,192,60947,128,0,61011:0:0:0:0:
448,192,61011,128,0,61074:0:0:0:0:
320,192,61074,128,0,61137:0:0:0:0:
192,192,61137,128,0,61201:0:0:0:0:
448,192,61137,128,0,61201:0:0:0:0:
64,192,61137,128,0,61201:0:0:0:0:
320,192,61201,128,0,61264:0:0:0:0:
64,192,61264,128,0,61327:0:0:0:0:
192,192,61327,128,0,61390:0:0:0:0:
64,192,61390,128,0,61454:0:0:0:0:
320,192,61390,128,0,61454:0:0:0:0:
448,192,61390,128,0,61454:0:0:0:0:
192,192,61454,128,0,61517:0:0:0:0:
448,192,61517,128,0,61580:0:0:0:0:
320,192,61580,128,0,61644:0:0:0:0:
64,192,61644,128,0,61707:0:0:0:0:
192,192,61644,128,0,61707:0:0:0:0:
448,192,61644,128,0,61707:0:0:0:0:
320,192,61707,128,0,61770:0:0:0:0:
64,192,61770,128,0,61834:0:0:0:0:
192,192,61770,128,0,61834:0:0:0:0:
448,192,61834,128,0,61897:0:0:0:0:
64,192,61897,128,0,61960:0:0:0:0:
192,192,61897,128,0,61960:0:0:0:0:
320,192,61897,128,0,61960:0:0:0:0:
448,192,61960,128,0,62023:0:0:0:0:
320,192,62023,128,0,62087:0:0:0:0:
192,192,62087,128,0,62150:0:0:0:0:
64,192,62150,128,0,62213:0:0:0:0:
320,192,62150,128,0,62213:0:0:0:0:
448,192,62150,128,0,62340:0:0:0:0:
320,192,62277,128,0,62340:0:0:0:0:
64,192,62277,128,0,62340:0:0:0:0:
192,192,62403,128,0,62593:0:0:0:0:
64,192,62403,128,0,62466:0:0:0:0:
448,192,62403,128,0,62466:0:0:0:0:
64,192,62530,128,0,62593:0:0:0:0:
448,192,62530,128,0,62593:0:0:0:0:
64,192,62656,128,0,62846:0:0:0:0:
192,192,62656,128,0,62720:0:0:0:0:
320,192,62656,128,0,62720:0:0:0:0:
192,192,62783,128,0,62846:0:0:0:0:
448,192,62783,128,0,62846:0:0:0:0:
192,192,62909,128,0,62973:0:0:0:0:
320,192,62909,128,0,62973:0:0:0:0:
448,192,62909,128,0,62973:0:0:0:0:
192,192,63036,128,0,63099:0:0:0:0:
320,192,63036,128,0,63099:0:0:0:0:
448,192,63036,128,0,63099:0:0:0:0:
64,192,63163,128,0,63226:0:0:0:0:
192,192,63163,128,0,63226:0:0:0:0:
320,192,63163,128,0,63226:0:0:0:0:
64,192,63289,128,0,63353:0:0:0:0:
192,192,63289,128,0,63353:0:0:0:0:
320,192,63289,128,0,63353:0:0:0:0:
64,192,63416,128,0,63479:0:0:0:0:
192,192,63416,128,0,63479:0:0:0:0:
448,192,63416,128,0,63479:0:0:0:0:
320,192,63416,128,0,63479:0:0:0:0:
64,192,63542,128,0,63606:0:0:0:0:
192,192,63542,128,0,63606:0:0:0:0:
320,192,63542,128,0,63606:0:0:0:0:
448,192,63542,128,0,63606:0:0:0:0:
64,192,63669,128,0,63922:0:0:0:0:
448,192,63669,128,0,64049:0:0:0:0:
192,192,63796,128,0,63922:0:0:0:0:
320,192,63922,128,0,64049:0:0:0:0:
64,192,64049,128,0,64302:0:0:0:0:
192,192,64049,128,0,64175:0:0:0:0:
320,192,64175,128,0,64302:0:0:0:0:
192,192,64302,128,0,64428:0:0:0:0:
448,192,64302,128,0,64555:0:0:0:0:
64,192,64428,128,0,64555:0:0:0:0:
320,192,64428,128,0,64682:0:0:0:0:
192,192,64555,128,0,64808:0:0:0:0:
448,192,64682,128,0,64808:0:0:0:0:
64,192,64682,128,0,64935:0:0:0:0:
320,192,64808,128,0,65061:0:0:0:0:
192,192,64935,128,0,65061:0:0:0:0:
448,192,64935,128,0,65061:0:0:0:0:
64,192,65061,128,0,65188:0:0:0:0:
320,192,65188,128,0,65315:0:0:0:0:
448,192,65188,128,0,65568:0:0:0:0:
192,192,65315,128,0,65441:0:0:0:0:
320,192,65441,128,0,65568:0:0:0:0:
64,192,65568,128,0,65821:0:0:0:0:
192,192,65568,128,0,65694:0:0:0:0:
448,192,65694,128,0,65821:0:0:0:0:
192,192,65821,128,0,65947:0:0:0:0:
320,192,65821,128,0,66074:0:0:0:0:
64,192,65947,128,0,66074:0:0:0:0:
448,192,65947,128,0,66201:0:0:0:0:
192,192,66074,128,0,66201:0:0:0:0:
64,192,66201,128,0,66327:0:0:0:0:
320,192,66201,128,0,66454:0:0:0:0:
448,192,66327,128,0,66454:0:0:0:0:
64,192,66454,128,0,66580:0:0:0:0:
192,192,66454,128,0,66580:0:0:0:0:
320,192,66580,128,0,66675:0:0:0:0:
192,192,66675,128,0,66834:0:0:0:0:
64,192,66707,128,0,66834:0:0:0:0:
448,192,66707,128,0,67087:0:0:0:0:
320,192,66834,128,0,66960:0:0:0:0:
192,192,66960,128,0,67087:0:0:0:0:
64,192,67087,128,0,67213:0:0:0:0:
320,192,67087,128,0,67340:0:0:0:0:
448,192,67213,128,0,67340:0:0:0:0:
64,192,67340,128,0,67466:0:0:0:0:
192,192,67340,128,0,67593:0:0:0:0:
320,192,67466,128,0,67593:0:0:0:0:
448,192,67466,128,0,67720:0:0:0:0:
64,192,67593,128,0,67846:0:0:0:0:
192,192,67720,128,0,67846:0:0:0:0:
320,192,67720,128,0,67846:0:0:0:0:
448,192,67846,128,0,68099:0:0:0:0:
192,192,67973,128,0,68099:0:0:0:0:
320,192,67973,128,0,68099:0:0:0:0:
64,192,68099,128,0,68226:0:0:0:0:
192,192,68226,128,0,68289:0:0:0:0:
448,192,68289,128,0,68353:0:0:0:0:
192,192,68353,128,0,68416:0:0:0:0:
448,192,68416,128,0,68479:0:0:0:0:
192,192,68479,128,0,68542:0:0:0:0:
448,192,68542,128,0,68606:0:0:0:0:
192,192,68606,128,0,68669:0:0:0:0:
448,192,68669,128,0,68732:0:0:0:0:
192,192,68732,128,0,68922:0:0:0:0:
448,192,68796,128,0,68922:0:0:0:0:
64,192,68859,128,0,68922:0:0:0:0:
320,192,68922,1,0,0:0:0:0:
64,192,68985,128,0,69049:0:0:0:0:
192,192,68985,128,0,69049:0:0:0:0:
448,192,68985,128,0,69049:0:0:0:0:
64,192,69112,128,0,69175:0:0:0:0:
192,192,69112,128,0,69175:0:0:0:0:
448,192,69112,128,0,69175:0:0:0:0:
64,192,69239,128,0,69302:0:0:0:0:
192,192,69239,128,0,69302:0:0:0:0:
448,192,69239,128,0,69302:0:0:0:0:
64,192,69365,128,0,69428:0:0:0:0:
192,192,69365,128,0,69428:0:0:0:0:
448,192,69365,128,0,69428:0:0:0:0:
64,192,69492,128,0,69555:0:0:0:0:
192,192,69492,128,0,69555:0:0:0:0:
448,192,69492,128,0,69555:0:0:0:0:
64,192,69618,128,0,69682:0:0:0:0:
192,192,69618,128,0,69682:0:0:0:0:
448,192,69618,128,0,69682:0:0:0:0:
64,192,69745,128,0,70125:0:0:0:0:
192,192,69745,128,0,69998:0:0:0:0:
320,192,69745,128,0,69872:0:0:0:0:
448,192,69745,1,0,0:0:0:0:
448,192,69872,128,0,70378:0:0:0:0:
320,192,69998,128,0,70378:0:0:0:0:
192,192,70125,128,0,70251:0:0:0:0:
64,192,70251,128,0,70378:0:0:0:0:
192,192,70378,1,0,0:0:0:0:
64,192,70504,1,0,0:0:0:0:
192,192,70504,128,0,70631:0:0:0:0:
320,192,70504,128,0,70758:0:0:0:0:
448,192,70504,128,0,70884:0:0:0:0:
64,192,70631,128,0,71137:0:0:0:0:
192,192,70758,128,0,71137:0:0:0:0:
320,192,70884,128,0,71011:0:0:0:0:
448,192,71011,128,0,71137:0:0:0:0:
320,192,71137,1,0,0:0:0:0:
64,192,71264,128,0,71327:0:0:0:0:
192,192,71264,128,0,71327:0:0:0:0:
320,192,71264,128,0,71327:0:0:0:0:
448,192,71264,128,0,71327:0:0:0:0:
192,192,71390,128,0,71644:0:0:0:0:
448,192,71517,128,0,71644:0:0:0:0:
64,192,71644,128,0,71897:0:0:0:0:
320,192,71770,128,0,71897:0:0:0:0:
192,192,71897,1,0,0:0:0:0:
64,192,72023,128,0,72087:0:0:0:0:
192,192,72023,128,0,72087:0:0:0:0:
320,192,72023,128,0,72087:0:0:0:0:
448,192,72023,128,0,72087:0:0:0:0:
64,192,72150,128,0,72340:0:0:0:0:
320,192,72150,128,0,72340:0:0:0:0:
448,192,72277,128,0,72340:0:0:0:0:
64,192,72403,128,0,72593:0:0:0:0:
320,192,72403,128,0,72593:0:0:0:0:
192,192,72530,128,0,72593:0:0:0:0:
64,192,72656,128,0,72720:0:0:0:0:
320,192,72656,128,0,72720:0:0:0:0:
64,192,72783,128,0,73036:0:0:0:0:
192,192,72783,128,0,73036:0:0:0:0:
448,192,72783,128,0,72846:0:0:0:0:
320,192,72846,128,0,72909:0:0:0:0:
448,192,72909,128,0,72973:0:0:0:0:
320,192,72973,128,0,73036:0:0:0:0:
448,192,73036,128,0,73099:0:0:0:0:
320,192,73099,128,0,73163:0:0:0:0:
192,192,73163,128,0,73226:0:0:0:0:
64,192,73226,128,0,73289:0:0:0:0:
192,192,73289,128,0,73353:0:0:0:0:
64,192,73353,128,0,73416:0:0:0:0:
192,192,73416,128,0,73479:0:0:0:0:
64,192,73542,128,0,73606:0:0:0:0:
192,192,73542,128,0,73606:0:0:0:0:
320,192,73542,128,0,73606:0:0:0:0:
448,192,73542,128,0,73606:0:0:0:0:
64,192,73669,128,0,73796:0:0:0:0:
320,192,73796,128,0,73922:0:0:0:0:
448,192,73922,1,0,0:0:0:0:
64,192,73922,128,0,74049:0:0:0:0:
192,192,73922,128,0,74175:0:0:0:0:
448,192,74049,128,0,74175:0:0:0:0:
64,192,74175,1,0,0:0:0:0:
64,192,74302,128,0,74365:0:0:0:0:
192,192,74302,128,0,74365:0:0:0:0:
320,192,74302,128,0,74365:0:0:0:0:
448,192,74302,128,0,74365:0:0:0:0:
448,192,74428,128,0,74555:0:0:0:0:
192,192,74555,128,0,74682:0:0:0:0:
320,192,74682,128,0,74745:0:0:0:0:
448,192,74682,128,0,74808:0:0:0:0:
320,192,74808,128,0,74935:0:0:0:0:
192,192,74808,128,0,74872:0:0:0:0:
64,192,74935,128,0,74998:0:0:0:0:
192,192,74935,128,0,74998:0:0:0:0:
64,192,75061,128,0,75125:0:0:0:0:
192,192,75061,128,0,75125:0:0:0:0:
320,192,75061,128,0,75125:0:0:0:0:
448,192,75061,128,0,75125:0:0:0:0:
320,192,75188,128,0,75315:0:0:0:0:
448,192,75188,128,0,75315:0:0:0:0:
64,192,75315,128,0,75441:0:0:0:0:
192,192,75315,128,0,75378:0:0:0:0:
192,192,75441,128,0,75568:0:0:0:0:
320,192,75441,128,0,75504:0:0:0:0:
320,192,75568,128,0,75631:0:0:0:0:
448,192,75568,128,0,75694:0:0:0:0:
192,192,75694,128,0,75821:0:0:0:0:
320,192,75694,128,0,75758:0:0:0:0:
64,192,75821,128,0,75884:0:0:0:0:
320,192,75821,128,0,75884:0:0:0:0:
448,192,75821,128,0,75884:0:0:0:0:
192,192,75884,128,0,75947:0:0:0:0:
320,192,75947,128,0,76011:0:0:0:0:
192,192,76011,128,0,76074:0:0:0:0:
64,192,76074,128,0,76137:0:0:0:0:
192,192,76137,128,0,76201:0:0:0:0:
320,192,76201,128,0,76264:0:0:0:0:
448,192,76264,128,0,76327:0:0:0:0:
320,192,76327,128,0,76390:0:0:0:0:
192,192,76390,128,0,76454:0:0:0:0:
320,192,76454,128,0,76517:0:0:0:0:
64,192,76580,128,0,76644:0:0:0:0:
192,192,76580,128,0,76644:0:0:0:0:
320,192,76580,128,0,76644:0:0:0:0:
448,192,76580,128,0,76644:0:0:0:0:
64,192,76707,128,0,76960:0:0:0:0:
448,192,76834,128,0,76960:0:0:0:0:
320,192,76960,128,0,77087:0:0:0:0:
192,192,77087,128,0,77213:0:0:0:0:
320,192,77213,1,0,0:0:0:0:
64,192,77340,128,0,77403:0:0:0:0:
192,192,77340,128,0,77403:0:0:0:0:
320,192,77340,128,0,77403:0:0:0:0:
448,192,77340,128,0,77403:0:0:0:0:
448,192,77466,128,0,77720:0:0:0:0:
192,192,77593,128,0,77720:0:0:0:0:
320,192,77720,128,0,77846:0:0:0:0:
64,192,77846,128,0,77973:0:0:0:0:
192,192,77973,1,0,0:0:0:0:
64,192,78099,128,0,78163:0:0:0:0:
192,192,78099,128,0,78163:0:0:0:0:
320,192,78099,128,0,78163:0:0:0:0:
448,192,78099,128,0,78163:0:0:0:0:
448,192,78226,128,0,78416:0:0:0:0:
64,192,78353,128,0,78479:0:0:0:0:
192,192,78353,128,0,78479:0:0:0:0:
448,192,78479,128,0,78669:0:0:0:0:
64,192,78606,128,0,78732:0:0:0:0:
192,192,78606,128,0,78732:0:0:0:0:
448,192,78732,128,0,78796:0:0:0:0:
192,192,78859,128,0,78922:0:0:0:0:
64,192,78859,128,0,78922:0:0:0:0:
448,192,78859,128,0,78922:0:0:0:0:
320,192,78922,128,0,78985:0:0:0:0:
192,192,78985,128,0,79049:0:0:0:0:
320,192,79049,128,0,79112:0:0:0:0:
192,192,79112,128,0,79175:0:0:0:0:
320,192,79175,128,0,79239:0:0:0:0:
64,192,79239,128,0,79302:0:0:0:0:
448,192,79302,128,0,79365:0:0:0:0:
64,192,79365,128,0,79428:0:0:0:0:
448,192,79428,128,0,79492:0:0:0:0:
64,192,79492,128,0,79555:0:0:0:0:
64,192,79618,128,0,79682:0:0:0:0:
192,192,79618,128,0,79682:0:0:0:0:
320,192,79618,128,0,79682:0:0:0:0:
448,192,79618,128,0,79682:0:0:0:0:
192,192,79745,128,0,79998:0:0:0:0:
320,192,79872,128,0,79998:0:0:0:0:
448,192,79998,128,0,80061:0:0:0:0:
320,192,80125,128,0,80251:0:0:0:0:
64,192,80251,1,0,0:0:0:0:
64,192,80378,128,0,80441:0:0:0:0:
192,192,80378,128,0,80441:0:0:0:0:
320,192,80378,128,0,80441:0:0:0:0:
448,192,80378,128,0,80441:0:0:0:0:
320,192,80504,128,0,80568:0:0:0:0:
448,192,80504,128,0,80568:0:0:0:0:
192,192,80631,128,0,80694:0:0:0:0:
320,192,80631,128,0,80694:0:0:0:0:
64,192,80758,128,0,80821:0:0:0:0:
192,192,80758,128,0,80821:0:0:0:0:
320,192,80884,128,0,80947:0:0:0:0:
192,192,80884,128,0,80947:0:0:0:0:
320,192,81011,128,0,81074:0:0:0:0:
448,192,81011,128,0,81074:0:0:0:0:
64,192,81137,128,0,81264:0:0:0:0:
192,192,81137,128,0,81201:0:0:0:0:
192,192,81264,128,0,81390:0:0:0:0:
320,192,81264,128,0,81327:0:0:0:0:
320,192,81390,128,0,81454:0:0:0:0:
448,192,81390,128,0,81517:0:0:0:0:
320,192,81517,128,0,81644:0:0:0:0:
192,192,81517,128,0,81580:0:0:0:0:
64,192,81644,128,0,84872:0:0:0:0:
192,192,81644,128,0,84872:0:0:0:0:
320,192,81770,128,0,84872:0:0:0:0:
448,192,81770,128,0,84872:0:0:0:0:
192,192,84935,128,0,84998:0:0:0:0:
64,192,84935,128,0,85125:0:0:0:0:
448,192,84935,128,0,85125:0:0:0:0:
320,192,84935,128,0,85125:0:0:0:0:
192,192,85061,128,0,85188:0:0:0:0:
320,192,85188,128,0,85315:0:0:0:0:
448,192,85315,128,0,85568:0:0:0:0:
64,192,85568,128,0,85694:0:0:0:0:
192,192,85694,128,0,85821:0:0:0:0:
320,192,85821,128,0,86074:0:0:0:0:
448,192,86074,128,0,86327:0:0:0:0:
192,192,86327,128,0,86454:0:0:0:0:
320,192,86454,128,0,86580:0:0:0:0:
192,192,86580,128,0,86707:0:0:0:0:
320,192,86707,128,0,86834:0:0:0:0:
448,192,86834,128,0,87087:0:0:0:0:
64,192,87087,128,0,87213:0:0:0:0:
192,192,87213,128,0,87340:0:0:0:0:
320,192,87340,128,0,87593:0:0:0:0:
448,192,87593,128,0,87846:0:0:0:0:
192,192,87846,128,0,87973:0:0:0:0:
320,192,87973,128,0,88099:0:0:0:0:
64,192,88036,1,0,0:0:0:0:
192,192,88099,128,0,88226:0:0:0:0:
448,192,88163,1,0,0:0:0:0:
320,192,88226,128,0,88353:0:0:0:0:
192,192,88289,1,0,0:0:0:0:
448,192,88353,128,0,88606:0:0:0:0:
64,192,88416,1,0,0:0:0:0:
320,192,88542,1,0,0:0:0:0:
192,192,88606,128,0,88732:0:0:0:0:
64,192,88732,128,0,88859:0:0:0:0:
192,192,88859,128,0,89112:0:0:0:0:
448,192,89112,128,0,89365:0:0:0:0:
192,192,89365,128,0,89492:0:0:0:0:
320,192,89492,128,0,89555:0:0:0:0:
320,192,89618,128,0,89808:0:0:0:0:
448,192,89618,128,0,89808:0:0:0:0:
64,192,89745,1,0,0:0:0:0:
192,192,89872,128,0,90061:0:0:0:0:
320,192,89872,128,0,90061:0:0:0:0:
448,192,89998,1,0,0:0:0:0:
64,192,90125,128,0,90315:0:0:0:0:
192,192,90125,128,0,90315:0:0:0:0:
448,192,90251,1,0,0:0:0:0:
64,192,90378,128,0,90568:0:0:0:0:
192,192,90378,128,0,90568:0:0:0:0:
320,192,90378,128,0,90568:0:0:0:0:
448,192,90504,1,0,0:0:0:0:
192,192,90631,128,0,90821:0:0:0:0:
320,192,90631,128,0,90821:0:0:0:0:
448,192,90631,128,0,90821:0:0:0:0:
64,192,90758,1,0,0:0:0:0:
64,192,90884,128,0,90947:0:0:0:0:
320,192,90884,128,0,90947:0:0:0:0:
192,192,90884,128,0,90947:0:0:0:0:
448,192,91011,1,0,0:0:0:0:
64,192,91011,128,0,91264:0:0:0:0:
192,192,91011,128,0,91137:0:0:0:0:
320,192,91011,128,0,91137:0:0:0:0:
448,192,91137,128,0,91264:0:0:0:0:
192,192,91264,128,0,91390:0:0:0:0:
64,192,91390,128,0,91644:0:0:0:0:
320,192,91390,128,0,91517:0:0:0:0:
448,192,91390,128,0,91644:0:0:0:0:
192,192,91517,128,0,91644:0:0:0:0:
320,192,91644,128,0,91770:0:0:0:0:
64,192,91770,128,0,91897:0:0:0:0:
192,192,91770,128,0,91897:0:0:0:0:
448,192,91770,128,0,91897:0:0:0:0:
320,192,91897,128,0,92023:0:0:0:0:
64,192,92023,128,0,92150:0:0:0:0:
448,192,92023,128,0,92277:0:0:0:0:
192,192,92150,128,0,92277:0:0:0:0:
64,192,92277,128,0,92403:0:0:0:0:
320,192,92277,128,0,92403:0:0:0:0:
448,192,92403,128,0,92530:0:0:0:0:
64,192,92530,128,0,92656:0:0:0:0:
192,192,92530,128,0,92783:0:0:0:0:
320,192,92530,128,0,92783:0:0:0:0:
448,192,92656,128,0,92783:0:0:0:0:
64,192,92783,128,0,92909:0:0:0:0:
192,192,92909,128,0,93163:0:0:0:0:
320,192,92909,128,0,93036:0:0:0:0:
448,192,92909,128,0,93163:0:0:0:0:
64,192,93036,128,0,93163:0:0:0:0:
320,192,93163,128,0,93289:0:0:0:0:
64,192,93289,128,0,93416:0:0:0:0:
192,192,93289,128,0,93542:0:0:0:0:
448,192,93289,128,0,93416:0:0:0:0:
320,192,93416,128,0,93542:0:0:0:0:
64,192,93542,128,0,93796:0:0:0:0:
448,192,93542,128,0,93669:0:0:0:0:
192,192,93669,128,0,93796:0:0:0:0:
320,192,93796,128,0,93922:0:0:0:0:
448,192,93796,128,0,93922:0:0:0:0:
64,192,93922,128,0,94049:0:0:0:0:
192,192,94049,128,0,94112:0:0:0:0:
320,192,94049,128,0,94175:0:0:0:0:
448,192,94049,128,0,94239:0:0:0:0:
64,192,94112,128,0,94175:0:0:0:0:
192,192,94175,128,0,94239:0:0:0:0:
320,192,94239,128,0,94302:0:0:0:0:
448,192,94302,128,0,94365:0:0:0:0:
320,192,94365,128,0,94428:0:0:0:0:
64,192,94428,128,0,94555:0:0:0:0:
192,192,94428,128,0,94492:0:0:0:0:
448,192,94428,128,0,94492:0:0:0:0:
320,192,94492,128,0,94555:0:0:0:0:
192,192,94555,128,0,94618:0:0:0:0:
64,192,94618,128,0,94682:0:0:0:0:
192,192,94682,128,0,94745:0:0:0:0:
320,192,94745,128,0,94808:0:0:0:0:
64,192,94808,128,0,94935:0:0:0:0:
192,192,94808,128,0,94935:0:0:0:0:
448,192,94808,128,0,95061:0:0:0:0:
320,192,94935,128,0,95188:0:0:0:0:
64,192,95061,128,0,95315:0:0:0:0:
192,192,95061,128,0,95188:0:0:0:0:
448,192,95188,128,0,95441:0:0:0:0:
192,192,95315,128,0,95441:0:0:0:0:
320,192,95315,128,0,95441:0:0:0:0:
64,192,95441,128,0,95568:0:0:0:0:
320,192,95568,128,0,95821:0:0:0:0:
448,192,95568,128,0,95821:0:0:0:0:
192,192,95694,1,0,0:0:0:0:
64,192,95821,128,0,95947:0:0:0:0:
192,192,95821,128,0,95947:0:0:0:0:
320,192,95947,128,0,96074:0:0:0:0:
448,192,95947,128,0,96074:0:0:0:0:
64,192,96074,128,0,96201:0:0:0:0:
192,192,96074,128,0,96201:0:0:0:0:
320,192,96201,128,0,96327:0:0:0:0:
448,192,96201,128,0,96327:0:0:0:0:
64,192,96327,128,0,96390:0:0:0:0:
192,192,96327,128,0,96390:0:0:0:0:
192,192,96454,128,0,96517:0:0:0:0:
320,192,96454,128,0,96517:0:0:0:0:
320,192,96580,128,0,96644:0:0:0:0:
448,192,96580,128,0,96644:0:0:0:0:
64,192,96707,128,0,96770:0:0:0:0:
448,192,96707,128,0,96897:0:0:0:0:
64,192,96834,128,0,97023:0:0:0:0:
192,192,96834,128,0,97023:0:0:0:0:
320,192,96960,128,0,97023:0:0:0:0:
448,192,96960,128,0,97023:0:0:0:0:
64,192,97087,128,0,97277:0:0:0:0:
192,192,97087,128,0,97277:0:0:0:0:
320,192,97150,128,0,97213:0:0:0:0:
448,192,97213,128,0,97277:0:0:0:0:
320,192,97277,128,0,97340:0:0:0:0:
64,192,97340,128,0,97530:0:0:0:0:
192,192,97340,128,0,97530:0:0:0:0:
320,192,97403,128,0,97466:0:0:0:0:
448,192,97466,128,0,97530:0:0:0:0:
320,192,97530,128,0,97593:0:0:0:0:
64,192,97593,128,0,97783:0:0:0:0:
192,192,97593,128,0,97720:0:0:0:0:
320,192,97656,128,0,97720:0:0:0:0:
448,192,97720,128,0,97783:0:0:0:0:
192,192,97783,128,0,97846:0:0:0:0:
64,192,97846,128,0,97909:0:0:0:0:
320,192,97846,128,0,97909:0:0:0:0:
448,192,97846,128,0,97909:0:0:0:0:
64,192,97973,128,0,98163:0:0:0:0:
192,192,97973,128,0,98163:0:0:0:0:
448,192,97973,128,0,98163:0:0:0:0:
320,192,98099,128,0,98163:0:0:0:0:
64,192,98226,128,0,98289:0:0:0:0:
192,192,98226,128,0,98416:0:0:0:0:
448,192,98226,128,0,98416:0:0:0:0:
64,192,98353,128,0,98416:0:0:0:0:
192,192,98479,128,0,98542:0:0:0:0:
320,192,98479,128,0,98542:0:0:0:0:
448,192,98479,128,0,98542:0:0:0:0:
320,192,98606,128,0,98796:0:0:0:0:
448,192,98606,128,0,98796:0:0:0:0:
192,192,98669,128,0,98732:0:0:0:0:
64,192,98732,128,0,98796:0:0:0:0:
192,192,98796,128,0,98859:0:0:0:0:
320,192,98859,128,0,99049:0:0:0:0:
448,192,98859,128,0,99049:0:0:0:0:
192,192,98922,128,0,98985:0:0:0:0:
64,192,98985,128,0,99049:0:0:0:0:
192,192,99049,128,0,99112:0:0:0:0:
320,192,99112,128,0,99302:0:0:0:0:
448,192,99112,128,0,99302:0:0:0:0:
192,192,99175,128,0,99239:0:0:0:0:
64,192,99239,128,0,99302:0:0:0:0:
192,192,99302,128,0,99365:0:0:0:0:
64,192,99365,128,0,99428:0:0:0:0:
320,192,99365,128,0,99428:0:0:0:0:
448,192,99365,128,0,99428:0:0:0:0:
64,192,99492,128,0,99682:0:0:0:0:
192,192,99492,128,0,99682:0:0:0:0:
448,192,99492,128,0,99682:0:0:0:0:
320,192,99618,128,0,99682:0:0:0:0:
192,192,99745,128,0,99935:0:0:0:0:
320,192,99745,128,0,99935:0:0:0:0:
448,192,99745,128,0,99935:0:0:0:0:
64,192,99872,128,0,99935:0:0:0:0:
64,192,99998,128,0,100061:0:0:0:0:
192,192,99998,128,0,100061:0:0:0:0:
320,192,99998,128,0,100061:0:0:0:0:
64,192,100125,128,0,100315:0:0:0:0:
192,192,100125,128,0,100251:0:0:0:0:
448,192,100188,128,0,100251:0:0:0:0:
320,192,100251,128,0,100315:0:0:0:0:
192,192,100315,128,0,100378:0:0:0:0:
448,192,100378,128,0,100568:0:0:0:0:
320,192,100378,128,0,100504:0:0:0:0:
64,192,100441,128,0,100504:0:0:0:0:
192,192,100504,128,0,100568:0:0:0:0:
320,192,100568,128,0,100631:0:0:0:0:
192,192,100631,128,0,100758:0:0:0:0:
64,192,100631,128,0,100821:0:0:0:0:
448,192,100694,128,0,100758:0:0:0:0:
320,192,100758,128,0,100821:0:0:0:0:
192,192,100821,128,0,100884:0:0:0:0:
64,192,100884,128,0,100947:0:0:0:0:
320,192,100884,128,0,100947:0:0:0:0:
448,192,100884,128,0,100947:0:0:0:0:
64,192,101011,128,0,101201:0:0:0:0:
192,192,101011,128,0,101201:0:0:0:0:
448,192,101011,128,0,101201:0:0:0:0:
320,192,101137,128,0,101201:0:0:0:0:
64,192,101264,128,0,101327:0:0:0:0:
192,192,101264,128,0,101454:0:0:0:0:
448,192,101264,128,0,101454:0:0:0:0:
64,192,101390,128,0,101454:0:0:0:0:
192,192,101517,128,0,101580:0:0:0:0:
320,192,101517,128,0,101580:0:0:0:0:
448,192,101517,128,0,101580:0:0:0:0:
64,192,101644,128,0,101707:0:0:0:0:
192,192,101644,128,0,101707:0:0:0:0:
320,192,101644,128,0,101707:0:0:0:0:
64,192,101770,128,0,101897:0:0:0:0:
320,192,101770,128,0,101897:0:0:0:0:
448,192,101770,128,0,101897:0:0:0:0:
64,192,102023,128,0,102150:0:0:0:0:
192,192,102023,128,0,102150:0:0:0:0:
448,192,102023,128,0,102150:0:0:0:0:
64,192,102277,128,0,102340:0:0:0:0:
192,192,102277,128,0,102340:0:0:0:0:
320,192,102277,128,0,102340:0:0:0:0:
448,192,102277,128,0,102340:0:0:0:0:
64,192,102530,128,0,102656:0:0:0:0:
192,192,102530,128,0,102656:0:0:0:0:
320,192,102530,128,0,102656:0:0:0:0:
448,192,102530,128,0,102656:0:0:0:0:
64,192,102783,128,0,102973:0:0:0:0:
192,192,102783,128,0,102973:0:0:0:0:
320,192,102783,128,0,102973:0:0:0:0:
448,192,102783,128,0,102973:0:0:0:0:
64,192,103036,128,0,103099:0:0:0:0:
192,192,103036,128,0,103099:0:0:0:0:
320,192,103036,128,0,103099:0:0:0:0:
448,192,103036,128,0,103099:0:0:0:0:
64,192,103163,128,0,103226:0:0:0:0:
192,192,103163,128,0,103226:0:0:0:0:
320,192,103163,128,0,103353:0:0:0:0:
64,192,103289,128,0,103353:0:0:0:0:
192,192,103289,128,0,103353:0:0:0:0:
64,192,103416,128,0,103606:0:0:0:0:
320,192,103416,128,0,103479:0:0:0:0:
448,192,103416,128,0,103479:0:0:0:0:
320,192,103542,128,0,103606:0:0:0:0:
448,192,103542,128,0,103606:0:0:0:0:
64,192,103669,128,0,103732:0:0:0:0:
192,192,103669,128,0,103732:0:0:0:0:
448,192,103669,128,0,103859:0:0:0:0:
64,192,103796,128,0,103859:0:0:0:0:
192,192,103796,128,0,103859:0:0:0:0:
64,192,103922,128,0,104175:0:0:0:0:
192,192,103922,128,0,103985:0:0:0:0:
320,192,103922,128,0,103985:0:0:0:0:
448,192,104049,128,0,104112:0:0:0:0:
192,192,104049,128,0,104112:0:0:0:0:
192,192,104175,128,0,104428:0:0:0:0:
320,192,104175,128,0,104239:0:0:0:0:
448,192,104175,128,0,104239:0:0:0:0:
64,192,104302,128,0,104365:0:0:0:0:
320,192,104302,128,0,104365:0:0:0:0:
64,192,104428,128,0,104492:0:0:0:0:
448,192,104428,128,0,104492:0:0:0:0:
320,192,104428,128,0,104618:0:0:0:0:
192,192,104555,128,0,104618:0:0:0:0:
448,192,104555,128,0,104618:0:0:0:0:
64,192,104682,128,0,104745:0:0:0:0:
192,192,104682,128,0,104745:0:0:0:0:
320,192,104682,128,0,104872:0:0:0:0:
448,192,104682,128,0,104872:0:0:0:0:
64,192,104808,128,0,104872:0:0:0:0:
192,192,104808,128,0,104872:0:0:0:0:
192,192,104935,128,0,105125:0:0:0:0:
320,192,104935,128,0,104998:0:0:0:0:
448,192,104935,128,0,104998:0:0:0:0:
320,192,105061,128,0,105125:0:0:0:0:
448,192,105061,128,0,105125:0:0:0:0:
64,192,105188,128,0,105251:0:0:0:0:
192,192,105188,128,0,105378:0:0:0:0:
448,192,105188,128,0,105251:0:0:0:0:
64,192,105315,128,0,105378:0:0:0:0:
320,192,105315,128,0,105378:0:0:0:0:
320,192,105441,128,0,105631:0:0:0:0:
192,192,105441,128,0,105504:0:0:0:0:
448,192,105441,128,0,105504:0:0:0:0:
64,192,105568,128,0,105631:0:0:0:0:
448,192,105568,128,0,105631:0:0:0:0:
320,192,105694,128,0,105947:0:0:0:0:
64,192,105694,128,0,105758:0:0:0:0:
192,192,105694,128,0,105758:0:0:0:0:
64,192,105821,128,0,105884:0:0:0:0:
192,192,105821,128,0,105884:0:0:0:0:
192,192,105947,128,0,106201:0:0:0:0:
64,192,105947,128,0,106011:0:0:0:0:
448,192,105947,128,0,106011:0:0:0:0:
320,192,106074,128,0,106137:0:0:0:0:
448,192,106074,128,0,106137:0:0:0:0:
64,192,106201,128,0,106454:0:0:0:0:
320,192,106201,128,0,106264:0:0:0:0:
448,192,106201,128,0,106264:0:0:0:0:
192,192,106327,128,0,106390:0:0:0:0:
320,192,106327,128,0,106390:0:0:0:0:
192,192,106454,128,0,106707:0:0:0:0:
320,192,106454,128,0,106517:0:0:0:0:
448,192,106454,128,0,106517:0:0:0:0:
64,192,106580,128,0,106644:0:0:0:0:
448,192,106580,128,0,106644:0:0:0:0:
320,192,106707,128,0,106960:0:0:0:0:
448,192,106707,128,0,106770:0:0:0:0:
64,192,106707,128,0,106770:0:0:0:0:
192,192,106834,128,0,106897:0:0:0:0:
64,192,106834,128,0,106897:0:0:0:0:
448,192,106960,128,0,107213:0:0:0:0:
64,192,106960,128,0,107023:0:0:0:0:
192,192,106960,128,0,107023:0:0:0:0:
192,192,107087,128,0,107150:0:0:0:0:
320,192,107087,128,0,107150:0:0:0:0:
320,192,107213,128,0,107340:0:0:0:0:
64,192,107213,128,0,107277:0:0:0:0:
192,192,107340,128,0,107466:0:0:0:0:
64,192,107340,128,0,107403:0:0:0:0:
448,192,107466,128,0,107530:0:0:0:0:
320,192,107466,128,0,107593:0:0:0:0:
192,192,107593,128,0,107656:0:0:0:0:
64,192,107593,128,0,107656:0:0:0:0:
192,192,107720,128,0,107909:0:0:0:0:
64,192,107720,128,0,107783:0:0:0:0:
448,192,107720,128,0,107783:0:0:0:0:
64,192,107846,128,0,107909:0:0:0:0:
320,192,107846,128,0,107909:0:0:0:0:
320,192,107973,128,0,108163:0:0:0:0:
192,192,107973,128,0,108036:0:0:0:0:
448,192,107973,128,0,108036:0:0:0:0:
192,192,108099,128,0,108163:0:0:0:0:
448,192,108099,128,0,108163:0:0:0:0:
320,192,108226,128,0,108416:0:0:0:0:
448,192,108226,128,0,108416:0:0:0:0:
64,192,108226,128,0,108289:0:0:0:0:
64,192,108353,128,0,108416:0:0:0:0:
192,192,108353,128,0,108416:0:0:0:0:
64,192,108479,128,0,108542:0:0:0:0:
192,192,108479,128,0,108542:0:0:0:0:
320,192,108479,128,0,108542:0:0:0:0:
64,192,108606,128,0,108669:0:0:0:0:
192,192,108606,128,0,108669:0:0:0:0:
448,192,108606,128,0,108669:0:0:0:0:
64,192,108732,128,0,108796:0:0:0:0:
192,192,108732,128,0,108796:0:0:0:0:
320,192,108732,128,0,108796:0:0:0:0:
448,192,108859,128,0,108922:0:0:0:0:
64,192,108859,128,0,108922:0:0:0:0:
192,192,108859,128,0,108922:0:0:0:0:
192,192,108985,128,0,109049:0:0:0:0:
320,192,108985,128,0,109049:0:0:0:0:
448,192,108985,128,0,109049:0:0:0:0:
64,192,109112,128,0,109175:0:0:0:0:
192,192,109112,128,0,109175:0:0:0:0:
320,192,109112,128,0,109175:0:0:0:0:
320,192,109239,128,0,109302:0:0:0:0:
448,192,109239,128,0,109492:0:0:0:0:
64,192,109239,128,0,109302:0:0:0:0:
192,192,109302,128,0,109365:0:0:0:0:
320,192,109365,128,0,109428:0:0:0:0:
64,192,109428,128,0,109492:0:0:0:0:
192,192,109492,128,0,109555:0:0:0:0:
320,192,109555,128,0,109618:0:0:0:0:
448,192,109618,128,0,109872:0:0:0:0:
64,192,109618,128,0,109682:0:0:0:0:
192,192,109682,128,0,109745:0:0:0:0:
320,192,109745,128,0,109808:0:0:0:0:
64,192,109808,128,0,109872:0:0:0:0:
192,192,109872,128,0,109935:0:0:0:0:
320,192,109935,128,0,109998:0:0:0:0:
448,192,109998,128,0,110061:0:0:0:0:
192,192,109998,128,0,110061:0:0:0:0:
64,192,109998,128,0,110061:0:0:0:0:
320,192,110061,128,0,110125:0:0:0:0:
192,192,110125,128,0,110188:0:0:0:0:
64,192,110125,128,0,110315:0:0:0:0:
448,192,110188,128,0,110251:0:0:0:0:
320,192,110251,128,0,110315:0:0:0:0:
192,192,110315,128,0,110378:0:0:0:0:
448,192,110378,128,0,110441:0:0:0:0:
64,192,110378,128,0,110631:0:0:0:0:
320,192,110441,128,0,110504:0:0:0:0:
192,192,110504,128,0,110568:0:0:0:0:
448,192,110568,128,0,110631:0:0:0:0:
320,192,110631,128,0,110694:0:0:0:0:
192,192,110694,128,0,110758:0:0:0:0:
64,192,110694,128,0,110758:0:0:0:0:
320,192,110758,128,0,110821:0:0:0:0:
448,192,110758,128,0,111074:0:0:0:0:
192,192,110821,128,0,110884:0:0:0:0:
320,192,110884,128,0,110947:0:0:0:0:
64,192,110947,128,0,111011:0:0:0:0:
320,192,111011,128,0,111074:0:0:0:0:
192,192,111074,128,0,111137:0:0:0:0:
448,192,111137,128,0,111454:0:0:0:0:
64,192,111137,128,0,111264:0:0:0:0:
192,192,111201,128,0,111264:0:0:0:0:
320,192,111264,128,0,111327:0:0:0:0:
64,192,111327,128,0,111390:0:0:0:0:
320,192,111390,128,0,111454:0:0:0:0:
192,192,111454,128,0,111517:0:0:0:0:
64,192,111517,128,0,111580:0:0:0:0:
320,192,111517,128,0,111580:0:0:0:0:
448,192,111517,128,0,111580:0:0:0:0:
192,192,111580,128,0,111644:0:0:0:0:
320,192,111644,128,0,111707:0:0:0:0:
448,192,111644,128,0,111834:0:0:0:0:
64,192,111707,128,0,111770:0:0:0:0:
192,192,111770,128,0,111834:0:0:0:0:
320,192,111834,128,0,111897:0:0:0:0:
448,192,111897,128,0,111960:0:0:0:0:
64,192,111897,128,0,112213:0:0:0:0:
320,192,111960,128,0,112023:0:0:0:0:
192,192,112023,128,0,112087:0:0:0:0:
448,192,112087,128,0,112150:0:0:0:0:
192,192,112150,128,0,112213:0:0:0:0:
320,192,112213,128,0,112277:0:0:0:0:
64,192,112277,128,0,112340:0:0:0:0:
192,192,112277,128,0,112403:0:0:0:0:
320,192,112340,128,0,112403:0:0:0:0:
448,192,112403,128,0,112466:0:0:0:0:
64,192,112403,128,0,112530:0:0:0:0:
192,192,112466,128,0,112530:0:0:0:0:
320,192,112530,128,0,112593:0:0:0:0:
448,192,112530,128,0,112656:0:0:0:0:
64,192,112593,128,0,112656:0:0:0:0:
192,192,112656,128,0,112720:0:0:0:0:
320,192,112656,128,0,112783:0:0:0:0:
448,192,112720,128,0,112783:0:0:0:0:
64,192,112783,128,0,112909:0:0:0:0:
192,192,112783,128,0,112846:0:0:0:0:
320,192,112846,128,0,112909:0:0:0:0:
192,192,112909,128,0,113036:0:0:0:0:
448,192,112909,128,0,112973:0:0:0:0:
64,192,112973,128,0,113036:0:0:0:0:
320,192,113036,128,0,113099:0:0:0:0:
448,192,113036,128,0,113099:0:0:0:0:
64,192,113099,128,0,113163:0:0:0:0:
192,192,113099,128,0,113163:0:0:0:0:
320,192,113163,128,0,113226:0:0:0:0:
448,192,113163,128,0,113226:0:0:0:0:
64,192,113226,128,0,113289:0:0:0:0:
192,192,113226,128,0,113289:0:0:0:0:
320,192,113289,128,0,113353:0:0:0:0:
448,192,113289,128,0,113353:0:0:0:0:
64,192,113353,128,0,113416:0:0:0:0:
192,192,113353,128,0,113416:0:0:0:0:
320,192,113416,128,0,113447:0:0:0:0:
448,192,113416,128,0,113447:0:0:0:0:
320,192,113479,128,0,113511:0:0:0:0:
448,192,113479,128,0,113511:0:0:0:0:
64,192,113542,128,0,113574:0:0:0:0:
192,192,113542,128,0,113574:0:0:0:0:
64,192,113606,128,0,113637:0:0:0:0:
192,192,113606,128,0,113637:0:0:0:0:
320,192,113669,128,0,113701:0:0:0:0:
448,192,113669,128,0,113701:0:0:0:0:
192,192,113732,128,0,113764:0:0:0:0:
64,192,113732,128,0,113764:0:0:0:0:
64,192,113796,128,0,113901:0:0:0:0:
192,192,113796,128,0,113880:0:0:0:0:
320,192,113796,128,0,113859:0:0:0:0:
448,192,113796,128,0,113838:0:0:0:0:
448,192,113922,128,0,114133:0:0:0:0:
320,192,113922,128,0,114112:0:0:0:0:
192,192,113922,128,0,114091:0:0:0:0:
64,192,113922,128,0,114070:0:0:0:0:
64,192,114175,128,0,114386:0:0:0:0:
192,192,114175,128,0,114365:0:0:0:0:
320,192,114175,128,0,114344:0:0:0:0:
448,192,114175,128,0,114323:0:0:0:0:
64,192,114428,128,0,114513:0:0:0:0:
192,192,114428,128,0,114513:0:0:0:0:
320,192,114428,128,0,114513:0:0:0:0:
448,192,114428,128,0,114513:0:0:0:0:
64,192,114555,128,0,116074:0:0:0:0:
192,192,114555,128,0,116074:0:0:0:0:
320,192,114555,128,0,116074:0:0:0:0:
448,192,114555,128,0,116074:0:0:0:0:
