osu file format v14

[General]
AudioFilename: audio.mp3
AudioLeadIn: 0
PreviewTime: 167230
Countdown: 0
SampleSet: Soft
StackLeniency: 0.7
Mode: 0
LetterboxInBreaks: 0
WidescreenStoryboard: 1

[Editor]
DistanceSpacing: 1.3
BeatDivisor: 3
GridSize: 8
TimelineZoom: 1

[Metadata]
Title:Oui! Ai Kotoba
TitleUnicode:Oui!愛言葉
Artist:Hirasawa Ui (CV: Yonezawa Madoka)
ArtistUnicode:平沢憂(CV: 米澤円)
Creator:- Ex -
Version:Shiawase
Source:けいおん!
Tags:Pray for Kyoani Kyoto Animation 京都アニメーション Yes! Words of Love Character Image Songs Japanese Anime K-on! Kon Kuroame
BeatmapID:2117450
BeatmapSetID:1011671

[Difficulty]
HPDrainRate:5
CircleSize:4
OverallDifficulty:6
ApproachRate:7.5
SliderMultiplier:1.8
SliderTickRate:1

[Events]
//Background and Video events
0,0,"BG.jpg",0,0
//Break Periods
//Storyboard Layer 0 (Background)
//Storyboard Layer 1 (Fail)
//Storyboard Layer 2 (Pass)
//Storyboard Layer 3 (Foreground)
//Storyboard Layer 4 (Overlay)
//Storyboard Sound Samples

[TimingPoints]
391,526.315789473684,4,2,1,40,1,0
391,-100,4,2,1,40,0,0
4601,-100,4,2,1,50,0,0
29864,-100,4,2,1,50,0,0
50916,526.315789473684,4,2,1,70,1,1
50916,-100,4,2,1,70,0,0
59338,-100,4,2,1,60,0,0
76179,-100,4,2,1,80,0,1
97231,526.315789473684,4,2,1,70,1,0
97231,-100,4,2,1,70,0,0
105652,-100,4,2,1,50,0,0
122494,-100,4,2,1,85,0,1
143546,526.315789473684,4,2,1,70,1,0
143546,-100,4,2,1,70,0,0
156177,-100,4,2,1,80,0,0
160388,-100,4,2,1,90,0,0
164598,-100,4,2,1,100,0,0
167756,-100,4,2,1,80,0,0
168282,-100,4,2,1,70,0,0
168809,-100,4,2,1,50,0,0
177230,-100,4,2,1,60,0,0
181440,-100,4,2,1,80,0,0
183548,507.61421319797,4,2,1,70,1,0
183548,-100,4,2,1,70,0,0
184055,526.315789473684,4,2,1,50,1,0
184055,-100,4,2,1,50,0,0
184581,500,4,2,1,40,1,0
185081,573.613766730402,4,2,1,70,1,0
185654,526.315789473684,4,2,1,90,1,1
185654,-100,4,2,1,90,0,1
206706,-100,4,2,1,80,0,0
223548,-100,4,2,1,40,0,0
225654,705.882352941176,4,2,1,40,1,0
226359,-100,4,2,1,5,0,0
226595,600,4,2,1,40,1,0
226795,689.655172413793,4,2,1,40,1,0
227484,967.741935483871,4,2,1,40,1,0
228451,967.741935483871,4,2,1,40,1,0
228759,-100,4,2,1,25,0,0
230372,-100,4,2,1,15,0,0
232307,-100,4,2,1,5,0,0

[Colours]
Combo1 : 255,255,62
Combo2 : 64,255,159
Combo3 : 255,146,36
Combo4 : 60,191,255

[HitObjects]
41,125,391,6,0,P|102:104|177:126,1,120,2|0,1:2|0:0,0:0:0:0:
200,177,917,2,0,P|261:198|336:176,1,120,10|0,0:2|0:0,0:0:0:0:
373,137,1443,2,0,L|356:288,1,120,2|0,0:2|0:0,0:0:0:0:
349,333,1969,1,8,0:1:0:0:
200,285,2320,1,2,1:2:0:0:
140,336,2496,6,0,P|122:280|166:211,1,120,2|0,1:2|0:0,0:0:0:0:
141,146,3022,2,0,P|194:159|236:231,1,120,10|0,0:2|1:2,0:0:0:0:
294,161,3548,2,0,P|253:112|183:81,1,120,2|8,0:2|0:2,0:0:0:0:
129,59,4075,1,10,0:1:0:0:
94,291,4601,6,0,B|133:268|194:284|169:298|219:313|269:288,2,180,6|8|2,1:2|0:2|1:2,0:0:0:0:
25,150,6005,1,2,0:2:0:0:
102,142,6180,2,0,B|164:131|164:131|247:156,1,120,10|0,0:1|1:2,0:0:0:0:
273,92,6706,6,0,L|134:49,1,120,2|2,1:2|0:2,0:0:0:0:
80,60,7233,1,8,0:2:0:0:
70,216,7583,2,0,P|151:245|255:197,1,180,2|0,1:2|1:2,0:0:0:0:
299,168,8285,2,0,L|279:312,1,120,8|0,0:1|0:0,0:0:0:0:
358,306,8812,6,0,L|387:93,2,180,2|10|2,1:2|0:2|0:2,0:0:0:0:
484,209,10215,1,2,0:2:0:0:
474,131,10390,2,0,B|462:95|450:77|450:77|421:51|380:44,1,120,10|2,0:1|1:2,0:0:0:0:
326,14,10917,5,0,1:2:0:0:
299,168,11268,1,2,1:2:0:0:
299,168,11443,1,8,0:2:0:0:
202,45,11794,2,0,B|154:56|110:23|110:23|78:50|15:42,1,180,2|0,1:2|1:2,0:0:0:0:
25,121,12496,2,0,P|88:117|152:151,1,120,8|0,1:0|0:0,0:0:0:0:
215,125,13022,6,0,P|159:205|179:301,1,180,6|8,1:2|0:2,0:0:0:0:
304,359,13899,1,2,0:2:0:0:
304,359,14075,2,0,L|289:225,1,120,2|2,1:2|0:2,0:0:0:0:
338,177,14601,2,0,L|461:240,1,120,10|2,0:1|0:2,0:0:0:0:
492,169,15127,5,0,1:2:0:0:
351,101,15478,1,0,0:0:0:0:
351,101,15654,1,8,0:2:0:0:
231,201,16005,2,0,B|135:216|135:216|62:166,1,180,0|2,1:2|0:2,0:0:0:0:
8,221,16706,2,0,L|110:293,1,120,8|2,0:1|0:2,0:0:0:0:
166,340,17233,6,0,P|230:308|307:326,1,120,2|2,1:2|0:2,0:0:0:0:
346,347,17759,2,0,L|466:324,1,120,10|2,0:2|0:2,0:0:0:0:
492,251,18285,1,2,1:2:0:0:
339,220,18636,1,2,0:2:0:0:
271,180,18812,2,0,P|315:147|395:162,1,120,8|2,0:1|0:2,0:0:0:0:
450,122,19338,6,0,P|403:82|325:74,1,120,0|0,1:2|0:0,0:0:0:0:
270,79,19864,1,8,0:2:0:0:
113,79,20215,2,0,L|80:291,1,180,0|0,1:2|1:2,0:0:0:0:
72,333,20917,1,8,0:1:0:0:
292,255,21443,6,0,B|397:249|352:331|473:320,1,180,2|10,1:2|0:2,0:0:0:0:
484,168,22320,1,2,0:2:0:0:
484,168,22496,2,0,B|426:144|426:144|353:158,1,120,2|2,1:2|0:2,0:0:0:0:
308,203,23022,2,0,P|299:131|339:84,1,120,10|2,0:1|0:2,0:0:0:0:
383,43,23548,6,0,L|226:46,1,120,2|2,1:2|0:2,0:0:0:0:
184,45,24075,1,8,0:2:0:0:
76,158,24426,2,0,L|55:341,1,180,2|0,1:2|1:2,0:0:0:0:
132,346,25127,2,0,L|148:204,1,120,10|2,0:1|0:2,0:0:0:0:
148,148,25654,6,0,P|206:133|287:173,1,120,2|0,1:2|0:0,0:0:0:0:
317,205,26180,1,10,0:2:0:0:
473,205,26531,1,0,1:2:0:0:
473,205,26706,2,0,L|456:83,1,120,2|2,1:2|0:2,0:0:0:0:
377,86,27233,2,0,L|394:208,1,120,10|2,0:1|0:2,0:0:0:0:
406,282,27759,6,0,P|346:274|278:313,1,120,0|0,1:2|0:0,0:0:0:0:
237,353,28285,1,8,0:2:0:0:
145,226,28636,1,2,1:2:0:0:
145,147,28812,1,2,1:2:0:0:
294,104,29162,1,0,0:0:0:0:
294,25,29338,2,0,P|238:44|157:19,1,120,10|0,0:1|0:0,0:0:0:0:
101,32,29864,6,0,L|24:167,1,120,6|2,1:2|0:2,0:0:0:0:
41,214,30390,2,0,L|118:349,1,120,10|2,0:2|0:2,0:0:0:0:
156,373,30917,1,2,1:2:0:0:
279,278,31268,1,2,0:2:0:0:
318,211,31443,2,0,P|255:208|205:250,1,120,10|2,0:1|0:2,0:0:0:0:
210,318,31969,6,0,P|258:351|317:347,1,120,0|0,1:2|0:0,0:0:0:0:
372,291,32496,1,8,0:2:0:0:
465,165,32847,1,2,1:2:0:0:
400,122,33022,2,0,B|360:114|344:98|344:98|328:114|281:120,1,120,0|2,1:2|1:2,0:0:0:0:
215,142,33548,1,10,0:1:0:0:
107,22,33899,1,2,0:2:0:0:
39,61,34075,6,0,P|15:113|37:201,1,120,2|2,1:2|0:2,0:0:0:0:
93,203,34601,2,0,P|117:255|95:343,1,120,8|2,0:2|1:2,0:0:0:0:
44,358,35127,2,0,L|179:368,1,120,2|2,1:2|0:2,0:0:0:0:
242,366,35654,1,8,0:1:0:0:
416,210,36180,6,0,L|281:191,1,120,2|0,1:2|0:0,0:0:0:0:
219,188,36706,1,10,0:2:0:0:
219,31,37057,1,2,1:2:0:0:
219,264,37583,1,2,1:2:0:0:
219,188,37759,2,0,P|177:146|108:143,1,120,8|0,0:1|0:0,0:0:0:0:
63,195,38285,6,0,P|21:237|18:306,1,120,6|2,1:2|0:2,0:0:0:0:
70,350,38812,2,0,L|193:342,1,120,10|2,0:2|0:2,0:0:0:0:
267,342,39338,2,0,P|288:280|272:210,1,120,2|2,1:2|0:2,0:0:0:0:
240,159,39864,2,0,P|300:157|349:190,1,120,10|2,0:1|0:2,0:0:0:0:
409,237,40390,5,0,1:2:0:0:
403,85,40741,1,0,0:0:0:0:
403,85,40917,1,8,0:2:0:0:
257,29,41268,1,2,1:2:0:0:
257,106,41443,1,2,0:2:0:0:
100,106,41794,1,2,1:2:0:0:
100,106,41969,2,0,L|77:241,1,120,10|2,0:1|0:2,0:0:0:0:
32,286,42496,6,0,P|112:255|223:298,1,180,2|10,1:2|0:2,0:0:0:0:
346,224,43373,2,0,B|340:170|315:137|315:137|270:128|216:141,1,180,2|2,1:2|1:2,0:0:0:0:
152,154,44075,1,8,0:1:0:0:
269,50,44426,1,2,0:2:0:0:
269,50,44601,6,0,B|319:54|363:69|363:69|390:100|421:163,1,180,0|8,1:2|0:2,0:0:0:0:
433,295,45478,1,2,0:2:0:0:
433,295,45654,2,0,L|298:267,1,120,2|2,1:2|0:2,0:0:0:0:
237,273,46180,2,0,P|222:305|215:349,2,60,10|2|2,0:1|0:2|0:2,0:0:0:0:
271,202,46706,6,0,P|227:156|151:147,1,120,4|0,1:2|0:0,0:0:0:0:
95,147,47233,1,8,0:2:0:0:
95,302,47583,1,0,1:2:0:0:
42,243,47759,2,0,L|26:168,2,60,0|0|0,0:0|3:0|1:2,0:0:0:0:
95,302,48285,2,0,L|82:360,2,60,8|0|0,0:1|3:0|3:0,0:0:0:0:
134,234,48812,6,0,B|201:232|201:232|242:261|242:261|330:255,2,180,4|2|2,1:2|0:0|1:2,0:0:0:0:
26,26,50390,1,2,3:2:0:0:
260,26,50917,6,0,P|314:49|391:35,1,120,6|0,1:2|0:0,0:0:0:0:
452,44,51443,2,0,L|470:173,1,120,0|0,3:2|0:0,0:0:0:0:
481,240,51969,1,2,1:2:0:0:
324,240,52320,1,2,0:2:0:0:
385,192,52494,2,0,P|333:168|269:184,1,120,10|0,3:1|0:0,0:0:0:0:
217,235,53022,5,2,1:2:0:0:
217,78,53373,1,2,0:2:0:0:
139,78,53548,1,0,3:0:0:0:
28,188,53899,2,0,P|35:278|122:306,1,180,2|0,1:2|1:2,0:0:0:0:
99,230,54601,1,8,3:1:0:0:
255,230,54952,1,0,0:0:0:0:
255,307,55127,6,0,P|317:291|394:313,1,120,2|0,1:2|0:0,0:0:0:0:
416,365,55652,2,0,L|427:235,1,120,2|0,3:2|0:0,0:0:0:0:
433,167,56180,1,0,1:0:0:0:
322,56,56531,1,2,0:2:0:0:
387,97,56706,2,0,P|335:129|256:97,1,120,10|2,3:1|1:2,0:0:0:0:
45,134,57583,5,6,1:2:0:0:
210,299,58108,1,6,1:2:0:0:
133,313,58285,2,0,L|68:328,2,60,0|0|0,0:0|3:0|3:2,0:0:0:0:
210,299,58810,1,2,3:2:0:0:
210,143,59162,1,0,0:0:0:0:
210,143,59338,6,0,B|279:143|279:143|319:170|319:170|420:171,1,180,6|0,1:2|3:2,0:0:0:0:
492,60,60215,1,2,0:2:0:0:
427,17,60390,2,0,P|370:1|301:15,1,120,2|2,1:2|0:2,0:0:0:0:
236,38,60917,2,0,P|177:48|119:32,1,120,8|2,3:1|0:2,0:0:0:0:
53,74,61443,5,0,1:2:0:0:
108,219,61794,1,0,0:0:0:0:
108,219,61969,1,0,3:2:0:0:
231,119,62320,2,0,B|261:168|261:168|259:314,1,180,0|2,1:2|1:2,0:0:0:0:
191,327,63022,2,0,P|244:365|316:347,1,120,8|2,3:1|0:2,0:0:0:0:
351,304,63548,6,0,L|364:169,1,120,2|2,1:2|0:2,0:0:0:0:
441,184,64073,2,0,L|454:319,1,120,2|2,3:2|0:2,0:0:0:0:
450,380,64601,1,2,1:2:0:0:
295,359,64952,1,2,0:2:0:0:
260,290,65127,2,0,L|258:156,1,120,8|2,3:1|0:2,0:0:0:0:
180,169,65652,6,0,L|181:288,1,120,0|0,1:2|0:0,0:0:0:0:
183,367,66179,1,0,3:2:0:0:
27,351,66530,1,0,1:2:0:0:
180,169,67056,1,0,1:2:0:0:
108,138,67231,2,0,P|148:100|223:107,1,120,8|0,3:1|0:0,0:0:0:0:
258,170,67758,6,0,P|245:230|186:258,1,120,2|0,1:2|0:0,0:0:0:0:
118,243,68284,1,2,3:2:0:0:
49,101,68635,1,2,0:2:0:0:
96,39,68810,2,0,L|227:22,1,120,2|2,1:2|0:2,0:0:0:0:
273,79,69337,2,0,P|326:94|408:65,1,120,8|2,3:1|0:2,0:0:0:0:
446,26,69863,5,2,1:2:0:0:
446,182,70214,1,2,0:2:0:0:
446,182,70389,1,8,3:1:0:0:
290,171,70740,2,0,B|241:183|199:156|199:156|156:184|106:167,1,180,2|0,1:2|1:2,0:0:0:0:
139,94,71442,1,8,3:1:0:0:
139,250,71793,1,2,0:0:0:0:
188,309,71968,6,0,P|244:287|322:307,1,120,2|0,1:2|0:0,0:0:0:0:
379,305,72494,1,2,3:2:0:0:
455,169,72845,1,0,0:0:0:0:
395,117,73021,2,0,L|264:96,1,120,2|2,1:2|0:2,0:0:0:0:
284,20,73547,2,0,L|415:41,1,120,8|2,3:1|0:2,0:0:0:0:
477,56,74073,6,0,P|482:104|450:174,1,120,0|0,1:2|0:0,0:0:0:0:
386,208,74600,1,0,3:2:0:0:
229,211,74951,1,2,1:2:0:0:
254,284,75126,2,0,L|335:291,2,60,6|0|0,1:2|3:2|1:2,0:0:0:0:
181,307,75652,2,0,P|122:329|49:305,1,120,0|0,3:2|0:0,0:0:0:0:
33,246,76179,6,0,B|20:187|20:187|41:122,1,120,6|2,1:2|0:2,0:0:0:0:
94,73,76705,2,0,P|154:95|230:80,1,120,2|2,3:2|0:2,0:0:0:0:
264,33,77231,2,0,P|324:11|400:26,1,120,2|2,1:2|0:2,0:0:0:0:
422,82,77758,1,8,3:1:0:0:
422,237,78108,1,2,0:2:0:0:
422,158,78284,6,0,L|285:158,1,120,0|0,1:2|0:0,0:0:0:0:
297,236,78810,1,0,3:2:0:0:
140,236,79161,1,2,1:2:0:0:
140,236,79337,1,2,0:2:0:0:
140,80,79687,1,2,1:2:0:0:
66,106,79863,2,0,L|48:228,1,120,8|2,3:1|0:2,0:0:0:0:
47,302,80389,6,0,P|103:325|166:304,1,120,2|2,1:2|0:2,0:0:0:0:
212,251,80916,2,0,P|268:233|322:256,1,120,0|2,3:2|1:2,0:0:0:0:
373,315,81442,1,2,1:2:0:0:
483,204,81793,1,2,0:2:0:0:
405,204,81968,2,0,L|417:77,1,120,8|0,3:1|0:0,0:0:0:0:
482,43,82494,6,0,P|429:12|365:24,1,120,2|0,1:2|0:0,0:0:0:0:
303,55,83021,1,2,3:2:0:0:
146,55,83372,1,2,1:2:0:0:
146,288,83898,1,2,1:2:0:0:
223,288,84073,2,0,P|276:265|348:278,1,120,2|0,3:2|0:0,0:0:0:0:
411,297,84600,6,0,L|436:172,1,120,6|2,1:2|0:2,0:0:0:0:
493,127,85126,2,0,P|435:137|368:102,1,120,0|2,3:2|0:2,0:0:0:0:
324,58,85652,2,0,P|266:48|199:83,1,120,2|2,1:2|0:2,0:0:0:0:
181,144,86179,2,0,L|35:113,1,120,8|2,3:1|0:2,0:0:0:0:
40,193,86705,5,0,1:2:0:0:
131,319,87056,5,0,0:0:0:0:
163,248,87231,1,0,3:2:0:0:
262,368,87582,5,2,1:2:0:0:
293,296,87758,1,2,0:2:0:0:
421,383,88108,5,2,1:2:0:0:
439,306,88284,2,0,L|458:183,1,120,8|2,3:1|0:2,0:0:0:0:
473,110,88810,22,0,B|400:127|400:127|338:96,1,120,2|0,1:2|0:0,0:0:0:0:
295,61,89337,1,0,3:2:0:0:
155,130,89687,2,0,B|142:105|135:83|135:83|130:151|106:231,1,180,2|2,1:2|1:2,0:0:0:0:
89,283,90389,2,0,P|148:280|190:240,1,120,8|2,3:1|0:2,0:0:0:0:
238,178,90916,6,0,L|396:211,1,120,4|0,1:2|0:0,0:0:0:0:
381,128,91442,1,0,3:2:0:0:
274,13,91793,1,2,0:2:0:0:
204,48,91968,2,0,L|219:111,2,60,2|0|2,3:2|0:0|0:2,0:0:0:0:
126,57,92494,2,0,L|140:-1,2,60,8|0|2,3:1|0:0|0:2,0:0:0:0:
69,112,93021,6,0,L|56:238,1,120,4|0,1:2|0:0,0:0:0:0:
26,303,93547,2,0,P|77:269|157:281,1,120,0|0,3:2|1:2,0:0:0:0:
212,267,94073,2,0,P|210:296|202:328,2,60,0|0|0,1:0|3:0|1:2,0:0:0:0:
176,197,94600,1,8,3:1:0:0:
340,85,95126,6,0,B|397:85|445:76|445:76|493:95|476:161,2,180,4|2|2,1:2|0:0|1:2,0:0:0:0:
110,36,96705,1,8,3:1:0:0:
24,253,97231,6,0,P|73:228|142:240,1,120,6|0,1:2|0:0,0:0:0:0:
190,291,97757,2,0,P|239:316|308:304,1,120,0|0,3:2|0:0,0:0:0:0:
356,252,98283,1,2,1:2:0:0:
245,141,98634,1,2,0:2:0:0:
245,141,98809,2,0,L|119:132,1,120,10|0,3:1|0:0,0:0:0:0:
68,78,99336,5,2,1:2:0:0:
216,29,99687,1,2,0:2:0:0:
281,71,99862,1,0,3:0:0:0:
431,27,100213,2,0,B|461:94|461:94|445:135|445:135|464:219,1,180,2|0,1:2|1:2,0:0:0:0:
441,272,100915,1,8,3:1:0:0:
318,369,101266,1,0,0:0:0:0:
260,317,101441,6,0,L|289:195,1,120,2|0,1:2|0:0,0:0:0:0:
363,179,101967,2,0,B|344:149|324:128|324:128|267:120|188:124,1,180,2|2,3:2|1:2,0:0:0:0:
97,233,102845,1,2,0:2:0:0:
107,155,103020,2,0,L|128:37,1,120,10|2,3:1|1:2,0:0:0:0:
209,44,103546,5,0,1:0:0:0:
209,200,103897,1,2,1:2:0:0:
287,200,104073,1,0,1:0:0:0:
287,355,104423,1,6,1:2:0:0:
344,302,104599,2,0,L|413:314,2,60,0|0|0,0:0|3:0|3:2,0:0:0:0:
268,281,105125,1,8,3:1:0:0:
131,356,105476,1,0,0:0:0:0:
131,356,105652,6,0,P|137:262|70:199,1,180,6|8,1:2|0:2,0:0:0:0:
26,57,106529,1,2,0:2:0:0:
100,34,106704,2,0,L|236:51,1,120,2|2,1:2|0:2,0:0:0:0:
297,40,107231,2,0,P|255:76|252:154,1,120,10|2,0:1|0:2,0:0:0:0:
287,204,107757,6,0,P|336:174|405:184,1,120,0|0,1:2|0:0,0:0:0:0:
467,212,108283,1,8,0:2:0:0:
349,314,108634,2,0,B|227:322|227:322|175:287,1,180,0|2,1:2|0:2,0:0:0:0:
143,220,109336,1,8,0:1:0:0:
32,330,109687,1,2,0:2:0:0:
7,256,109862,6,0,L|21:131,1,120,2|2,1:2|0:2,0:0:0:0:
76,82,110388,2,0,L|177:156,1,120,10|2,0:2|0:2,0:0:0:0:
237,197,110915,2,0,P|277:144|349:131,1,120,2|2,1:2|0:2,0:0:0:0:
402,145,111441,1,8,0:1:0:0:
512,34,111792,1,2,0:2:0:0:
436,16,111967,6,0,P|390:44|317:42,1,120,0|0,1:2|0:0,0:0:0:0:
251,17,112494,1,8,0:2:0:0:
140,127,112845,2,0,B|175:227|102:213|152:327,1,180,0|0,1:2|1:2,0:0:0:0:
170,378,113546,2,0,P|217:338|235:277,1,120,8|0,0:1|0:0,0:0:0:0:
313,288,114073,6,0,P|353:335|414:353,1,120,2|0,1:2|0:0,0:0:0:0:
481,328,114599,1,10,0:2:0:0:
378,210,114950,1,2,0:2:0:0:
449,178,115125,2,0,P|401:139|336:142,1,120,2|2,1:2|0:2,0:0:0:0:
281,184,115652,2,0,L|305:51,1,120,10|2,0:1|0:2,0:0:0:0:
246,10,116178,5,2,1:2:0:0:
89,10,116529,1,2,0:2:0:0:
32,236,117055,2,0,B|30:188|-9:164|-9:164|-11:115|30:80,1,180,2|0,1:2|1:2,0:0:0:0:
105,88,117757,1,10,0:1:0:0:
177,226,118108,1,2,0:0:0:0:
253,246,118283,6,0,B|350:229|328:313|435:282,1,180,2|10,1:2|0:2,0:0:0:0:
488,144,119160,1,0,1:2:0:0:
409,141,119336,2,0,L|281:128,1,120,2|2,1:2|0:2,0:0:0:0:
244,64,119862,2,0,B|253:111|253:111|224:186,1,120,10|2,0:1|0:2,0:0:0:0:
152,198,120388,6,0,L|173:323,1,120,0|0,1:2|0:0,0:0:0:0:
232,366,120915,1,8,0:2:0:0:
75,361,121266,1,2,1:2:0:0:
19,305,121441,2,0,P|40:238|28:180,1,120,2|0,1:2|3:0,0:0:0:0:
32,111,121967,2,0,L|167:129,1,120,2|0,3:2|0:0,0:0:0:0:
206,71,122494,6,0,L|341:53,1,120,6|2,1:2|0:2,0:0:0:0:
401,37,123020,2,0,P|359:88|367:164,1,120,2|2,3:2|0:2,0:0:0:0:
412,195,123546,2,0,L|431:341,1,120,2|2,1:2|0:2,0:0:0:0:
371,369,124073,1,10,3:1:0:0:
215,369,124423,1,2,0:2:0:0:
160,313,124599,6,0,L|189:197,1,120,0|0,1:2|0:0,0:0:0:0:
216,123,125125,1,0,3:2:0:0:
59,123,125476,1,2,1:2:0:0:
59,123,125652,1,2,0:2:0:0:
94,270,126002,1,2,1:2:0:0:
159,312,126178,2,0,P|110:345|53:335,1,120,10|2,3:1|0:2,0:0:0:0:
15,265,126704,6,0,L|0:207,2,60,2|2|2,1:2|0:2|0:2,0:0:0:0:
94,270,127231,2,0,L|124:153,1,120,2|2,3:2|1:2,0:0:0:0:
179,98,127757,2,0,P|229:142|303:142,1,120,2|2,1:2|0:2,0:0:0:0:
352,119,128283,1,8,3:1:0:0:
449,331,128809,6,0,P|403:290|341:284,1,120,2|0,1:2|0:0,0:0:0:0:
272,308,129336,1,2,3:2:0:0:
119,343,129687,1,2,1:2:0:0:
37,123,130213,1,2,1:2:0:0:
110,148,130388,2,0,L|241:119,1,120,8|0,3:1|3:0,0:0:0:0:
286,67,130915,6,0,P|270:123|289:187,1,120,6|2,1:2|0:2,0:0:0:0:
280,261,131441,2,0,P|336:246|382:198,1,120,0|2,3:2|0:2,0:0:0:0:
451,169,131967,2,0,P|410:127|345:111,1,120,2|2,1:2|0:2,0:0:0:0:
286,67,132494,2,0,P|270:123|289:187,1,120,10|2,3:1|0:2,0:0:0:0:
326,249,133020,5,0,1:2:0:0:
186,319,133371,5,0,0:0:0:0:
108,320,133546,1,0,3:2:0:0:
185,184,133897,5,2,1:2:0:0:
107,185,134072,1,2,0:2:0:0:
188,52,134423,37,2,1:2:0:0:
110,53,134599,2,0,P|53:81|26:132,1,120,10|2,3:1|0:2,0:0:0:0:
35,206,135125,2,0,B|43:253|43:253|13:342,1,120,6|0,1:2|0:0,0:0:0:0:
84,365,135652,1,0,3:2:0:0:
227,313,136002,2,0,B|322:283|309:347|405:319,1,180,2|2,1:2|1:2,0:0:0:0:
361,253,136704,2,0,P|350:192|372:134,1,120,8|2,3:1|0:2,0:0:0:0:
440,106,137231,6,0,L|315:72,1,120,4|0,1:2|0:0,0:0:0:0:
249,52,137757,1,4,3:2:0:0:
196,196,138108,1,2,0:2:0:0:
121,172,138283,2,0,L|89:292,1,120,2|2,1:2|0:2,0:0:0:0:
128,356,138809,2,0,P|96:364|63:364,2,60,10|2|2,3:1|0:2|0:2,0:0:0:0:
198,321,139336,6,0,P|256:304|324:325,1,120,4|0,1:2|0:0,0:0:0:0:
372,368,139862,2,0,B|353:328|353:328|367:247,1,120,0|0,3:2|1:2,0:0:0:0:
421,196,140388,2,0,P|437:219|453:251,2,60,8|0|0,3:0|3:0|1:2,0:0:0:0:
409,118,140915,2,0,P|414:91|414:56,2,60,8|0|0,3:1|3:0|3:0,0:0:0:0:
344,162,141441,6,0,B|274:155|274:155|241:180|241:180|164:175,2,180,4|2|2,1:2|0:0|1:2,0:0:0:0:
131,64,143020,2,0,L|150:6,2,60,2|0|2,3:2|3:1|0:2,0:0:0:0:
100,136,143546,6,0,L|59:264,1,120,6|0,1:2|0:0,0:0:0:0:
141,250,144072,2,0,L|182:378,1,120,2|0,3:2|0:0,0:0:0:0:
255,364,144598,2,0,P|330:324|430:351,1,180,2|8,1:2|3:1,0:0:0:0:
488,119,145651,5,2,1:2:0:0:
331,119,146002,1,2,0:2:0:0:
408,119,146177,1,0,3:2:0:0:
280,28,146528,2,0,P|228:84|247:188,1,180,2|0,1:2|1:2,0:0:0:0:
297,235,147230,1,8,3:1:0:0:
140,235,147581,1,0,0:0:0:0:
84,179,147756,6,0,L|105:58,1,120,2|0,1:2|0:0,0:0:0:0:
177,31,148282,2,0,L|271:109,1,120,2|0,3:2|0:0,0:0:0:0:
318,168,148809,2,0,P|253:217|248:320,1,180,2|8,1:2|3:1,0:0:0:0:
474,348,149861,6,0,L|494:221,1,120,2|2,1:2|0:2,0:0:0:0:
418,203,150388,2,0,L|398:76,1,120,2|2,3:2|1:2,0:0:0:0:
442,18,150914,2,0,P|379:11|321:54,1,120,4|2,0:0|1:2,0:0:0:0:
256,60,151440,2,0,L|203:30,2,60,10|2|2,3:1|3:2|3:2,0:0:0:0:
279,135,151967,6,0,L|255:275,1,120,6|0,1:2|0:0,0:0:0:0:
275,329,152493,2,0,P|219:290|140:294,1,120,0|0,3:2|0:0,0:0:0:0:
96,315,153019,2,0,P|17:325|51:253,1,180,2|8,1:2|3:1,0:0:0:0:
132,41,154072,5,2,1:2:0:0:
242,151,154423,1,2,0:2:0:0:
186,95,154598,1,0,3:2:0:0:
342,95,154949,2,0,P|434:113|455:197,1,180,2|0,1:2|1:2,0:0:0:0:
447,264,155651,1,8,3:1:0:0:
336,374,156002,1,0,0:0:0:0:
271,330,156177,6,0,L|293:195,1,120,6|2,1:2|0:2,0:0:0:0:
242,151,156703,1,2,3:2:0:0:
131,261,157054,2,0,L|100:73,1,180,2|2,0:2|0:2,0:0:0:0:
157,28,157756,1,10,3:1:0:0:
313,28,158107,1,2,0:2:0:0:
378,70,158282,6,0,B|405:115|405:115|397:197,1,120,2|2,1:2|0:2,0:0:0:0:
371,256,158809,1,0,3:2:0:0:
240,341,159160,2,0,B|176:320|176:320|125:342|125:342|43:316,1,180,6|0,1:2|3:0,0:0:0:0:
24,261,159861,2,0,L|12:186,2,60,10|8|4,3:1|3:0|3:0,0:0:0:0:
102,257,160388,6,0,L|121:134,1,120,6|0,1:2|0:0,0:0:0:0:
136,61,160914,1,0,3:2:0:0:
287,96,161265,1,2,1:2:0:0:
318,167,161440,2,0,P|364:119|361:57,1,120,2|2,0:2|1:2,0:0:0:0:
420,12,161967,1,10,3:1:0:0:
463,161,162317,1,2,0:2:0:0:
401,208,162493,6,0,L|416:335,1,120,0|0,1:2|0:0,0:0:0:0:
482,367,163019,1,0,3:2:0:0:
325,367,163370,1,2,1:2:0:0:
269,311,163546,1,0,0:0:0:0:
124,369,163896,1,2,1:2:0:0:
80,303,164072,2,0,P|114:271|105:180,1,120,14|0,3:1|0:0,0:0:0:0:
45,230,164598,6,0,P|5:186|6:127,1,120,4|0,1:2|0:0,0:0:0:0:
45,60,165124,2,0,L|192:76,1,120,0|2,3:2|0:2,0:0:0:0:
219,128,165651,1,2,1:2:0:0:
329,17,166002,1,2,0:2:0:0:
384,72,166177,1,8,3:1:0:0:
314,211,166528,6,0,P|348:279|463:269,1,180,6|2,1:2|3:2,0:0:0:0:
511,245,167230,1,2,3:2:0:0:
384,72,167756,2,0,L|251:88,1,120,6|0,1:2|0:0,0:0:0:0:
264,164,168282,2,0,L|131:148,1,120,8|0,3:1|0:0,0:0:0:0:
89,205,168809,5,6,1:2:0:0:
254,370,169335,1,8,0:2:0:0:
364,259,169686,1,2,0:2:0:0:
364,259,169861,2,0,B|379:176|374:126|374:126|357:140|334:181,1,180,2|8,0:2|0:1,0:0:0:0:
160,17,170914,6,0,P|211:37|297:25,1,120,6|2,0:2|0:2,0:0:0:0:
350,11,171440,1,10,0:2:0:0:
468,112,171791,2,0,L|441:298,1,180,2|8,0:2|0:3,0:0:0:0:
386,345,172493,1,8,0:1:0:0:
229,345,172844,1,4,0:3:0:0:
173,289,173019,6,0,B|113:284|65:257|65:257|39:281|-14:285,1,180,2|8,1:2|0:2,0:0:0:0:
17,127,173896,1,2,0:2:0:0:
17,127,174072,2,0,B|110:153|110:153|154:146|170:100,1,180,2|8,0:2|0:1,0:0:0:0:
390,25,175124,6,0,P|371:89|405:164,1,120,6|2,0:2|0:2,0:0:0:0:
459,166,175651,2,0,P|415:208|322:191,1,120,10|2,0:2|0:2,0:0:0:0:
287,180,176177,1,2,0:0:0:0:
287,336,176528,1,0,3:0:0:0:
231,280,176703,1,8,0:1:0:0:
104,370,177054,1,0,0:0:0:0:
62,303,177230,6,0,P|45:246|79:177,1,120,6|2,1:2|0:2,0:0:0:0:
52,113,177756,2,0,P|109:126|152:190,1,120,10|2,3:2|1:2,0:0:0:0:
160,248,178282,1,2,0:2:0:0:
314,71,178809,6,0,P|371:58|436:88,1,120,10|2,3:1|0:2,0:0:0:0:
426,157,179335,2,0,P|369:170|304:140,1,120,2|2,1:2|0:2,0:0:0:0:
246,108,179861,1,2,3:2:0:0:
408,277,180388,6,0,L|274:242,1,120,2|2,0:2|1:2,0:0:0:0:
271,322,180914,2,0,L|405:357,1,120,2|2,3:1|0:2,0:0:0:0:
464,362,181440,5,2,3:2:0:0:
369,147,181967,1,8,3:2:0:0:
146,171,182844,1,8,3:2:0:0:
146,171,183019,1,8,3:1:0:0:
318,12,183546,1,8,3:2:0:0:
318,238,184055,5,2,0:2:0:0:
249,296,184581,1,2,0:2:0:0:
172,258,185081,1,2,0:2:0:0:
17,69,185654,6,0,P|75:90|141:73,1,120,6|2,1:2|0:2,0:0:0:0:
191,29,186180,2,0,L|167:166,1,120,2|2,3:2|0:2,0:0:0:0:
237,186,186706,2,0,L|261:323,1,120,2|2,1:2|0:2,0:0:0:0:
280,379,187232,1,8,3:1:0:0:
436,379,187583,1,2,0:2:0:0:
380,323,187759,6,0,L|407:198,1,120,0|0,1:2|0:0,0:0:0:0:
476,173,188285,1,0,3:2:0:0:
365,62,188636,1,2,1:2:0:0:
309,117,188811,1,2,0:2:0:0:
198,6,189162,1,2,1:2:0:0:
133,50,189338,2,0,L|1:68,1,120,8|2,3:1|0:2,0:0:0:0:
3,143,189864,6,0,P|39:202|23:276,1,120,2|2,1:2|0:2,0:0:0:0:
9,323,190390,2,0,P|60:351|120:346,1,120,0|2,3:2|1:2,0:0:0:0:
172,287,190917,1,2,1:2:0:0:
172,130,191268,1,2,0:2:0:0:
239,90,191443,1,8,3:1:0:0:
429,225,191969,6,0,P|448:287|426:341,1,120,6|0,1:2|0:0,0:0:0:0:
352,353,192496,1,2,3:2:0:0:
196,353,192846,1,6,1:2:0:0:
58,162,193373,1,2,1:2:0:0:
113,107,193548,2,0,L|94:40,2,60,2|0|0,3:2|3:0|3:0,0:0:0:0:
149,176,194075,6,0,P|144:240|181:301,1,120,6|2,1:2|0:2,0:0:0:0:
203,358,194601,2,0,P|150:321|78:323,1,120,0|2,3:2|0:2,0:0:0:0:
18,313,195127,2,0,P|75:285|110:222,1,120,2|2,1:2|0:2,0:0:0:0:
149,176,195654,2,0,P|144:240|181:301,1,120,8|2,3:1|0:2,0:0:0:0:
245,298,196180,5,0,1:2:0:0:
401,298,196531,5,0,0:0:0:0:
456,243,196706,1,0,3:2:0:0:
311,184,197057,5,2,1:2:0:0:
366,129,197232,1,2,0:2:0:0:
258,15,197583,5,2,1:2:0:0:
203,70,197759,2,0,L|79:56,1,120,8|2,3:1|0:2,0:0:0:0:
68,133,198285,6,0,L|187:146,1,120,2|0,1:2|0:0,0:0:0:0:
238,205,198811,1,0,3:2:0:0:
232,360,199162,2,0,B|294:335|294:335|425:354,1,180,2|2,1:2|1:2,0:0:0:0:
481,373,199864,2,0,P|444:310|456:244,1,120,8|2,3:1|0:2,0:0:0:0:
461,188,200390,6,0,L|328:196,1,120,4|0,1:2|0:0,0:0:0:0:
285,251,200917,1,0,3:2:0:0:
351,109,201268,1,2,0:2:0:0:
303,47,201443,2,0,P|248:26|177:39,1,120,2|2,1:2|0:2,0:0:0:0:
125,79,201969,2,0,P|104:53|93:27,2,60,8|2|2,3:1|0:2|0:2,0:0:0:0:
183,131,202496,6,0,L|165:253,1,120,4|0,1:2|0:0,0:0:0:0:
138,323,203022,2,0,P|189:296|268:310,1,120,0|0,3:2|1:2,0:0:0:0:
327,311,203548,2,0,L|318:377,2,60,0|0|0,1:0|3:0|1:2,0:0:0:0:
405,311,204075,2,0,L|414:377,2,60,8|0|0,3:1|3:0|3:0,0:0:0:0:
437,240,204601,6,0,B|439:192|478:168|478:168|480:119|439:84,2,180,4|2|2,1:2|0:0|1:2,0:0:0:0:
218,156,206180,1,8,3:1:0:0:
84,347,206706,6,0,P|146:310|206:322,1,120,6|0,1:2|0:0,0:0:0:0:
243,373,207232,2,0,L|255:241,1,120,2|0,3:2|0:0,0:0:0:0:
264,175,207759,1,0,1:2:0:0:
369,290,208110,1,0,0:0:0:0:
369,290,208285,2,0,P|427:265|509:284,1,120,10|0,3:1|0:0,0:0:0:0:
499,194,208811,6,0,L|465:74,1,120,6|2,1:2|0:2,0:0:0:0:
410,22,209338,1,0,3:2:0:0:
267,84,209689,2,0,B|198:77|198:77|166:106|166:106|89:95,1,180,6|0,1:2|1:2,0:0:0:0:
28,128,210390,1,8,3:1:0:0:
28,284,210741,1,0,0:0:0:0:
83,339,210917,6,0,B|137:314|137:314|274:331,1,180,6|0,1:2|3:2,0:0:0:0:
382,236,211794,1,2,0:2:0:0:
451,274,211969,2,0,P|453:202|406:160,1,120,2|0,1:2|0:0,0:0:0:0:
361,120,212496,1,8,3:1:0:0:
205,120,212846,1,0,1:2:0:0:
249,55,213022,6,0,B|309:50|367:37|367:37|403:49|437:84,1,180,2|0,1:2|3:2,0:0:0:0:
508,195,213899,1,2,1:2:0:0:
457,254,214075,2,0,L|485:338,2,60,2|0|0,0:2|3:0|3:2,0:0:0:0:
383,237,214601,2,0,L|355:321,2,60,8|8|4,3:1|3:0|3:0,0:0:0:0:
327,181,215127,6,0,L|186:224,1,120,6|0,1:2|0:0,0:0:0:0:
159,274,215654,2,0,P|165:198|130:157,1,120,2|0,3:2|0:0,0:0:0:0:
96,229,216180,1,2,1:2:0:0:
96,72,216531,1,2,0:0:0:0:
169,46,216706,2,0,P|244:67|294:56,1,120,10|0,3:1|0:0,0:0:0:0:
362,59,217232,6,0,L|341:187,1,120,6|2,1:2|0:2,0:0:0:0:
396,234,217759,1,0,3:2:0:0:
301,356,218110,2,0,P|209:344|107:339,1,180,6|2,1:2|1:2,0:0:0:0:
63,287,218811,2,0,P|50:315|42:352,2,60,10|0|4,3:1|3:0|3:0,0:0:0:0:
118,231,219338,6,0,L|106:106,1,120,6|0,1:2|0:0,0:0:0:0:
52,55,219864,2,0,P|127:80|234:34,1,180,2|2,3:2|0:2,0:0:0:0:
353,128,220741,1,2,1:2:0:0:
282,161,220917,2,0,L|219:149,2,60,10|0|2,3:1|3:0|1:2,0:0:0:0:
353,128,221443,5,0,3:0:0:0:
463,238,221794,2,0,P|432:320|324:324,1,180,6|6,1:2|1:2,0:0:0:0:
303,272,222496,2,0,P|254:235|185:242,1,120,8|0,0:3|3:0,0:0:0:0:
232,306,223022,1,8,3:1:0:0:
46,239,223548,6,0,B|64:176|64:176|44:131|44:131|60:41,1,180,6|0,1:2|0:0,0:0:0:0:
208,38,224425,1,2,0:2:0:0:
208,38,224601,2,0,B|256:27|294:54|294:54|333:35|392:52,1,180,2|2,0:2|0:2,0:0:0:0:
469,200,225654,6,0,B|420:184|404:201|375:209|375:209|353:195|326:189|326:189|306:200|279:217|223:192,1,240,2|2,0:2|0:2,0:0:0:0:
179,134,226795,2,0,P|158:224|232:290,1,180,2|2,0:2|0:2,0:0:0:0:
208,38,228451,5,2,0:2:0:0:
256,192,228774,12,0,232322,0:0:0:0:
