osu file format v14

[General]
AudioFilename: audio.mp3
AudioLeadIn: 0
PreviewTime: 557
Countdown: 0
SampleSet: Soft
StackLeniency: 0.7
Mode: 2
LetterboxInBreaks: 0
WidescreenStoryboard: 1

[Editor]
Bookmarks: 33357,34157,36557,37357
DistanceSpacing: 1
BeatDivisor: 4
GridSize: 4
TimelineZoom: 2.899999

[Metadata]
Title:Motteke! Sailor Fuku (TV Size)
TitleUnicode:もってけ!セーラーふく (TV Size)
Artist:Hirano Aya, Katou Emiri, Fukuhara Kaori, Endou Aya
ArtistUnicode:平野綾、加藤英美里、福原香織、遠藤綾
Creator:Kukkai
Version:Rain
Source:らき☆すた
Tags:050 bigh bighzonda 泉こなた 柊かがみ 柊つかさ 高良みゆき Izumi Konata Hiiragi Kagami Hiiragi Tsukasa Takara Miyuki Lucky Star OP opening anime japanese jpop j-pop
BeatmapID:3743534
BeatmapSetID:1822454

[Difficulty]
HPDrainRate:5
CircleSize:3.5
OverallDifficulty:9
ApproachRate:9
SliderMultiplier:2
SliderTickRate:2

[Events]
//Background and Video events
0,0,"bgggggggggggggggggggggggggggg.jpg",0,0
Video,-275,"vdo.mp4"
//Break Periods
//Storyboard Layer 0 (Background)
//Storyboard Layer 1 (Fail)
//Storyboard Layer 2 (Pass)
//Storyboard Layer 3 (Foreground)
//Storyboard Layer 4 (Overlay)
//Storyboard Sound Samples

[TimingPoints]
557,400,4,2,1,60,1,0
557,-90.9090909090909,4,2,1,60,0,0
10557,-90.9090909090909,4,2,1,60,0,0
10957,-90.9090909090909,4,2,1,60,0,0
11357,-90.9090909090909,4,2,1,60,0,0
11757,-90.9090909090909,4,2,1,60,0,0
13357,-90.9090909090909,4,2,1,60,0,0
19757,-90.9090909090909,4,2,1,50,0,0
26157,-90.9090909090909,4,2,1,55,0,0
32557,-90.9090909090909,4,2,1,50,0,0
38957,-90.9090909090909,4,2,1,60,0,0
45557,-90.9090909090909,4,2,1,60,0,0
45957,-90.9090909090909,4,2,1,60,0,0
51757,-90.9090909090909,4,2,1,50,0,0
64157,-90.9090909090909,4,2,1,60,0,0
64357,-90.9090909090909,4,2,1,60,0,1
64557,-90.9090909090909,4,2,1,70,0,1
77357,-90.9090909090909,4,2,1,60,0,0
80757,-90.9090909090909,4,2,1,60,0,0
80957,-90.9090909090909,4,2,1,60,0,0
81557,-90.9090909090909,4,2,1,60,0,0
81757,-90.9090909090909,4,2,1,60,0,0
83757,-90.9090909090909,4,2,1,5,0,0

[Colours]
Combo1 : 114,214,136
Combo2 : 0,158,234
Combo3 : 138,138,255
Combo4 : 255,121,255

[HitObjects]
344,356,557,6,0,P|396:300|312:260,1,165.000005035401,6|0,0:2|0:2,0:0:0:0:
288,252,957,2,0,L|116:252,1,165.000005035401,2|0,0:2|0:0,0:0:0:0:
180,252,1357,1,2,0:2:0:0:
16,252,1557,2,0,L|16:120,1,110.000003356934,2|0,0:2|0:2,0:0:0:0:
180,148,1957,2,0,L|280:148,1,55.0000016784668,2|2,0:2|0:2,0:0:0:0:
72,108,2157,6,0,L|72:44,1,55.0000016784668,2|2,0:2|0:2,0:0:0:0:
240,272,2457,2,0,L|312:272,2,55.0000016784668,2|2|2,0:2|0:2|0:2,0:0:0:0:
156,272,2757,2,0,L|156:148,1,110.000003356934,2|0,0:2|0:2,0:0:0:0:
328,160,3157,2,0,L|328:32,1,110.000003356934,2|0,0:2|0:2,0:0:0:0:
156,272,3557,1,2,0:2:0:0:
420,288,3757,6,0,P|452:248|364:188,1,165.000005035401,4|0,0:2|0:2,0:0:0:0:
332,180,4157,2,0,L|508:180,1,165.000005035401,2|2,0:2|0:2,0:0:0:0:
440,180,4557,1,2,0:2:0:0:
272,344,4757,1,0,0:2:0:0:
272,289,4857,1,2,0:2:0:0:
440,240,5157,1,2,0:2:0:0:
168,168,5357,6,0,L|84:168,1,55.0000016784668,2|2,0:2|0:2,0:0:0:0:
280,168,5657,2,0,L|280:100,1,55.0000016784668,2|2,0:2|0:2,0:0:0:0:
224,116,5857,1,2,0:2:0:0:
308,116,5957,2,0,L|432:116,1,110.000003356934,2|0,0:2|0:2,0:0:0:0:
248,352,6357,2,0,L|248:224,1,110.000003356934,2|0,0:2|0:2,0:0:0:0:
416,244,6757,1,2,0:2:0:0:
144,208,6957,5,6,0:2:0:0:
312,216,7157,2,0,L|312:84,1,110.000003356934,2|0,0:2|0:2,0:0:0:0:
140,108,7557,1,2,0:2:0:0:
312,106,7757,1,2,0:2:0:0:
140,108,7957,2,0,L|276:108,1,110.000003356934,2|0,0:2|0:2,0:0:0:0:
84,56,8357,1,2,0:2:0:0:
352,332,8557,5,4,0:2:0:0:
184,336,8757,2,0,P|128:312|208:208,1,220.000006713867,2|2,0:2|0:2,0:0:0:0:
352,200,9357,1,2,0:2:0:0:
408,200,9457,2,0,L|276:200,1,110.000003356934,2|0,0:2|0:2,0:0:0:0:
244,200,9757,1,2,0:2:0:0:
412,128,9957,1,10,0:2:0:0:
144,360,10157,6,0,L|144:228,1,110.000003356934,4|0,0:2|0:0,0:0:0:0:
252,252,10557,1,2,0:2:0:0:
104,184,10757,1,10,0:2:0:0:
396,216,10957,6,0,L|396:84,1,110.000003356934,6|0,0:2|0:0,0:0:0:0:
288,108,11357,1,2,0:2:0:0:
436,40,11557,1,10,0:2:0:0:
140,364,11757,5,6,1:2:0:0:
140,304,11857,1,2,0:2:0:0:
204,304,11957,1,2,0:2:0:0:
204,248,12057,1,2,0:2:0:0:
40,176,12157,1,10,0:2:0:0:
40,112,12257,1,8,0:2:0:0:
96,112,12357,1,2,1:2:0:0:
152,116,12457,1,0,0:2:0:0:
344,192,12557,6,0,L|224:192,1,110.000003356934,2|2,1:3|1:2,0:0:0:0:
204,192,12807,1,0,1:2:0:0:
176,192,12857,1,0,1:2:0:0:
360,140,12957,1,10,0:2:0:0:
416,140,13057,1,0,1:2:0:0:
416,88,13157,1,0,1:2:0:0:
360,88,13257,1,0,1:2:0:0:
184,364,13357,6,0,L|52:364,1,110.000003356934,4|2,1:2|1:2,0:0:0:0:
244,312,13757,2,0,L|244:228,1,55.0000016784668,10|2,0:2|0:2,0:0:0:0:
132,256,14057,1,0,0:2:0:0:
300,200,14157,2,0,L|440:200,1,110.000003356934,2|2,1:2|1:2,0:0:0:0:
240,148,14557,2,0,L|164:148,1,55.0000016784668,10|2,0:2|0:2,0:0:0:0:
128,148,14757,1,0,0:2:0:0:
184,148,14857,1,0,0:2:0:0:
372,360,14957,6,0,L|504:360,1,110.000003356934,2|2,1:2|1:2,0:0:0:0:
312,308,15357,2,0,L|312:224,1,55.0000016784668,10|2,0:2|0:2,0:0:0:0:
424,252,15657,1,0,0:2:0:0:
256,196,15757,2,0,L|116:196,1,110.000003356934,2|2,1:2|1:2,0:0:0:0:
316,140,16157,2,0,L|316:64,1,55.0000016784668,10|0,0:2|0:2,0:0:0:0:
256,88,16357,1,2,0:2:0:0:
256,88,16457,1,0,0:2:0:0:
440,360,16557,6,0,L|376:360,1,55.0000016784668,2|2,1:2|0:2,0:0:0:0:
208,368,16857,2,0,L|208:288,1,55.0000016784668,2|10,0:2|0:2,0:0:0:0:
380,280,17157,2,0,L|380:192,1,55.0000016784668,2|2,0:2|0:2,0:0:0:0:
192,228,17357,6,0,L|80:228,1,110.000003356934,2|2,1:2|1:2,0:0:0:0:
244,176,17757,2,0,L|316:176,1,55.0000016784668,10|2,0:2|0:2,0:0:0:0:
244,176,17957,2,0,L|160:176,1,55.0000016784668,0|0,0:2|0:2,0:0:0:0:
384,344,18157,6,0,L|516:344,1,110.000003356934,2|2,1:2|1:2,0:0:0:0:
324,280,18557,2,0,L|324:204,1,55.0000016784668,10|2,0:2|0:2,0:0:0:0:
380,228,18757,1,2,0:2:0:0:
88,188,18957,6,0,P|72:124|108:72,1,110.000003356934,10|0,0:2|1:2,0:0:0:0:
116,88,19207,1,0,1:2:0:0:
144,88,19257,1,0,1:2:0:0:
332,84,19357,2,0,L|396:84,2,55.0000016784668,10|2|0,0:2|0:2|0:2,0:0:0:0:
20,264,19757,6,0,L|168:264,1,110.000003356934,6|2,1:2|0:2,0:0:0:0:
184,264,20057,1,2,1:2:0:0:
130,264,20157,1,10,0:2:0:0:
296,200,20357,1,2,0:2:0:0:
132,200,20557,6,0,L|72:200,2,55.0000016784668,2|2|2,1:2|1:2|1:2,0:0:0:0:
296,128,20957,2,0,L|144:128,1,110.000003356934,10|2,0:2|0:2,0:0:0:0:
240,128,21257,1,2,0:2:0:0:
428,368,21357,6,0,P|448:308|404:272,1,110.000003356934,2|2,1:2|0:2,0:0:0:0:
364,276,21657,1,2,0:2:0:0:
420,276,21757,1,10,0:2:0:0:
256,208,21957,6,0,L|256:132,1,55.0000016784668,2|2,0:2|0:2,0:0:0:0:
356,148,22157,1,2,1:2:0:0:
412,148,22257,2,0,L|272:148,1,110.000003356934,2|2,1:2|0:2,0:0:0:0:
248,148,22557,1,10,0:2:0:0:
416,84,22757,1,2,0:2:0:0:
136,276,22957,6,0,L|68:276,2,55.0000016784668,2|2|2,1:2|0:2|0:2,0:0:0:0:
296,232,23357,1,10,0:2:0:0:
136,276,23557,1,2,0:2:0:0:
296,232,23757,6,0,L|296:160,1,55.0000016784668,2|2,1:2|1:2,0:0:0:0:
240,180,23957,1,2,1:2:0:0:
408,176,24157,2,0,L|408:56,1,110.000003356934,10|2,0:2|0:2,0:0:0:0:
120,360,24557,5,2,1:2:0:0:
288,292,24757,1,2,0:2:0:0:
120,360,24957,2,0,L|120:284,1,55.0000016784668,10|2,0:2|0:2,0:0:0:0:
228,308,25257,1,2,0:2:0:0:
120,305,25357,6,0,L|52:305,1,55.0000016784668,2|2,1:2|1:2,0:0:0:0:
232,148,25557,2,0,L|324:148,1,55.0000016784668,2|0,1:2|0:2,0:0:0:0:
232,148,25757,2,0,L|152:148,1,55.0000016784668,8|0,0:2|0:2,0:0:0:0:
176,92,25957,1,2,0:2:0:0:
460,320,26157,5,4,1:2:0:0:
300,316,26357,1,2,0:2:0:0:
460,248,26557,2,0,L|460:88,1,110.000003356934,10|2,0:2|0:2,0:0:0:0:
404,140,26857,1,2,0:2:0:0:
304,136,26957,6,0,L|304:48,1,55.0000016784668,2|2,1:2|1:2,0:0:0:0:
360,80,27157,2,0,L|432:80,1,55.0000016784668,2|2,1:2|0:2,0:0:0:0:
312,296,27357,1,10,0:2:0:0:
256,296,27457,2,0,L|396:296,1,110.000003356934,2|2,0:2|0:2,0:0:0:0:
180,216,27757,6,0,L|104:220,2,55.0000016784668,2|2|2,1:2|0:2|0:2,0:0:0:0:
352,136,28157,2,0,L|296:136,1,55.0000016784668,8|2,0:2|0:2,0:0:0:0:
240,136,28357,2,0,L|240:56,1,55.0000016784668,0|2,0:2|0:2,0:0:0:0:
428,360,28557,6,0,L|428:224,1,110.000003356934,2|2,1:2|1:2,0:0:0:0:
264,208,28957,1,10,0:2:0:0:
432,252,29157,1,2,0:2:0:0:
124,172,29357,6,0,L|56:172,2,55.0000016784668,2|2|2,1:2|0:2|0:2,0:0:0:0:
296,108,29757,2,0,L|136:108,1,110.000003356934,10|2,0:2|1:2,0:0:0:0:
240,108,30057,1,2,0:2:0:0:
184,108,30157,5,0,1:2:0:0:
128,108,30257,1,2,1:2:0:0:
184,108,30357,1,2,1:2:0:0:
20,364,30557,2,0,L|20:240,1,110.000003356934,10|2,0:2|0:2,0:0:0:0:
76,256,30857,1,2,0:2:0:0:
252,252,30957,6,0,L|252:176,1,55.0000016784668,2|2,1:2|0:2,0:0:0:0:
184,204,31157,2,0,L|184:120,1,55.0000016784668,2|2,1:2|0:2,0:0:0:0:
356,144,31357,1,10,0:2:0:0:
412,144,31457,1,2,0:2:0:0:
412,88,31557,1,0,0:2:0:0:
384,88,31607,1,0,0:0:0:0:
356,88,31657,1,0,0:2:0:0:
188,92,31757,6,0,L|112:92,1,55.0000016784668,10|2,1:2|1:2,0:0:0:0:
300,40,31957,2,0,L|372:40,1,55.0000016784668,2|2,1:2|1:2,0:0:0:0:
156,244,32157,2,0,L|28:244,1,110.000003356934,10|0,1:2|1:2,0:0:0:0:
100,244,32457,1,0,1:2:0:0:
300,184,32557,5,4,1:2:0:0:
356,184,32657,1,0,0:2:0:0:
356,128,32757,1,0,0:2:0:0:
188,128,32957,2,0,L|120:128,2,55.0000016784668,8|0|0,0:2|0:2|0:2,0:0:0:0:
356,128,33357,6,0,L|356:44,1,55.0000016784668,0|0,1:2|0:2,0:0:0:0:
300,76,33557,2,0,L|224:76,1,55.0000016784668,0|0,1:2|0:2,0:0:0:0:
360,296,33757,1,8,0:2:0:0:
416,296,33857,1,0,0:2:0:0:
416,296,33957,1,0,0:2:0:0:
360,296,34057,1,0,0:2:0:0:
192,240,34157,5,0,1:2:0:0:
136,240,34257,1,0,0:2:0:0:
136,240,34357,1,0,0:2:0:0:
192,240,34457,1,0,0:2:0:0:
304,204,34557,1,8,0:2:0:0:
360,204,34657,1,0,0:2:0:0:
360,148,34757,1,0,0:2:0:0:
304,148,34857,1,0,0:2:0:0:
80,360,34957,6,0,L|80:232,1,110.000003356934,0|0,1:2|1:2,0:0:0:0:
248,252,35357,2,0,L|128:252,1,110.000003356934,8|0,0:2|0:2,0:0:0:0:
432,304,35757,5,0,1:2:0:0:
432,240,35857,1,0,0:2:0:0:
376,240,35957,1,0,0:2:0:0:
212,248,36157,1,8,0:2:0:0:
156,248,36257,1,0,0:2:0:0:
156,192,36357,1,0,0:2:0:0:
320,128,36557,5,0,1:2:0:0:
376,128,36657,1,0,0:2:0:0:
376,72,36757,1,0,1:2:0:0:
320,72,36857,1,0,0:2:0:0:
208,72,36957,1,8,0:2:0:0:
152,72,37057,1,0,0:2:0:0:
96,72,37157,1,0,0:2:0:0:
152,72,37257,1,0,0:2:0:0:
352,112,37357,5,4,1:2:0:0:
408,112,37457,2,0,L|408:248,1,110.000003356934,0|0,0:2|0:2,0:0:0:0:
244,60,37757,1,8,0:2:0:0:
188,60,37857,2,0,L|332:60,1,110.000003356934,0|0,0:2|0:2,0:0:0:0:
116,268,38157,5,0,1:2:0:0:
60,268,38257,1,0,0:2:0:0:
60,212,38357,1,8,0:2:0:0:
116,212,38457,1,8,0:2:0:0:
292,208,38557,2,0,L|424:208,1,110.000003356934,8|0,1:2|1:2,0:0:0:0:
372,216,38807,1,0,1:2:0:0:
342,216,38857,1,0,1:2:0:0:
148,156,38957,6,0,L|292:156,1,110.000003356934,4|2,1:2|0:2,0:0:0:0:
88,264,39357,2,0,L|88:144,1,110.000003356934,10|0,0:2|1:2,0:0:0:0:
360,88,39757,6,0,L|148:88,2,165.000005035401,2|2|2,1:2|1:2|1:2,0:0:0:0:
248,88,40557,5,0,1:2:0:0:
412,88,40757,1,2,0:2:0:0:
140,336,40957,2,0,L|0:336,1,110.000003356934,10|0,0:2|1:2,0:0:0:0:
84,336,41257,1,0,0:2:0:0:
268,244,41357,2,0,L|452:244,2,165.000005035401,2|2|2,1:2|1:2|1:2,0:0:0:0:
380,244,42157,5,0,1:2:0:0:
216,172,42357,1,2,0:2:0:0:
488,360,42557,2,0,L|488:224,1,110.000003356934,10|0,0:2|1:2,0:0:0:0:
224,180,42957,2,0,L|32:180,2,165.000005035401,2|2|2,1:2|1:2|1:2,0:0:0:0:
336,180,43757,5,0,1:2:0:0:
172,128,43957,1,2,0:2:0:0:
452,248,44157,2,0,L|452:116,1,110.000003356934,10|0,0:2|1:2,0:0:0:0:
396,136,44457,1,0,0:2:0:0:
200,136,44557,2,0,L|384:136,2,165.000005035401,2|2|2,1:2|1:2|1:2,0:0:0:0:
312,136,45357,5,0,0:2:0:0:
40,360,45557,2,0,P|20:292|140:220,1,220.000006713867,6|0,1:2|1:2,0:0:0:0:
400,136,46157,6,0,L|216:136,2,165.000005035401,2|2|2,1:2|1:2|1:2,0:0:0:0:
288,136,46957,5,0,1:2:0:0:
448,88,47157,1,2,0:2:0:0:
176,352,47357,2,0,L|48:352,1,110.000003356934,10|0,0:2|1:2,0:0:0:0:
120,352,47657,1,0,0:2:0:0:
304,276,47757,2,0,L|508:276,2,165.000005035401,2|2|2,1:2|1:2|1:2,0:0:0:0:
24,288,48557,6,0,L|24:160,1,110.000003356934,6|2,1:2|0:2,0:0:0:0:
188,180,48957,1,10,0:2:0:0:
24,184,49157,2,0,L|92:184,2,55.0000016784668,2|2|2,1:2|1:2|1:2,0:0:0:0:
188,180,49557,1,2,1:2:0:0:
24,184,49757,2,0,L|24:36,1,110.000003356934,10|2,0:2|1:2,0:0:0:0:
296,336,50157,6,0,L|444:336,1,110.000003356934,6|10,1:2|0:2,0:0:0:0:
352,336,50457,1,2,0:2:0:0:
268,280,50557,2,0,L|268:196,1,55.0000016784668,8|2,1:2|0:2,0:0:0:0:
324,224,50757,2,0,L|324:128,1,55.0000016784668,0|2,0:2|0:2,0:0:0:0:
156,172,50957,5,2,1:2:0:0:
100,172,51057,1,2,1:2:0:0:
100,124,51157,1,0,1:2:0:0:
128,124,51207,1,0,1:2:0:0:
156,124,51257,1,2,1:2:0:0:
324,44,51357,2,0,L|416:44,2,55.0000016784668,0|0|0,1:2|1:2|1:2,0:0:0:0:
40,352,51757,5,4,1:2:0:0:
204,352,51957,2,0,L|204:188,1,110.000003356934,2|0,0:2|1:2,0:0:0:0:
40,244,52357,1,2,0:2:0:0:
204,244,52557,2,0,P|256:204|176:100,1,220.000006713867,2|2,1:2|1:2,0:0:0:0:
20,100,53157,6,0,L|20:236,1,110.000003356934,2|0,0:2|1:2,0:0:0:0:
184,204,53557,2,0,L|68:204,1,110.000003356934,2|2,0:2|1:2,0:0:0:0:
240,204,53957,1,2,0:2:0:0:
76,208,54157,2,0,L|308:208,1,220.000006713867,2|2,1:2|1:2,0:0:0:0:
132,208,54757,1,2,0:2:0:0:
464,348,54957,5,2,1:1:0:0:
300,348,55157,2,0,L|300:212,1,110.000003356934,2|2,0:2|1:2,0:0:0:0:
464,236,55557,1,2,0:2:0:0:
300,232,55757,2,0,L|156:232,1,110.000003356934,2|2,1:2|0:2,0:0:0:0:
356,232,56157,1,2,1:2:0:0:
192,236,56357,6,0,L|192:88,1,110.000003356934,2|0,0:2|1:2,0:0:0:0:
356,124,56757,2,0,L|472:124,2,110.000003356934,2|0|0,0:2|1:2|0:2,0:0:0:0:
236,120,57357,1,0,1:2:0:0:
400,120,57557,2,0,L|512:120,2,110.000003356934,2|0|2,0:2|1:2|0:2,0:0:0:0:
136,372,58157,6,0,P|64:304|152:240,1,220.000006713867,2|2,1:1|1:2,0:0:0:0:
320,228,58757,2,0,L|452:228,2,110.000003356934,2|0|0,0:2|1:2|0:2,0:0:0:0:
208,228,59357,1,2,1:2:0:0:
372,228,59557,1,2,0:2:0:0:
104,160,59757,5,2,1:1:0:0:
268,156,59957,2,0,L|268:304,1,110.000003356934,2|0,0:2|1:2,0:0:0:0:
104,264,60357,2,0,L|-8:264,2,110.000003356934,2|0|0,0:2|1:2|0:2,0:0:0:0:
268,260,60957,2,0,L|152:260,1,110.000003356934,2|0,1:2|0:2,0:0:0:0:
436,256,61357,6,0,P|492:220|408:120,1,220.000006713867,2|2,1:1|1:2,0:0:0:0:
260,116,61957,2,0,L|260:232,1,110.000003356934,2|0,0:2|1:2,0:0:0:0:
364,224,62357,1,0,0:2:0:0:
200,228,62557,2,0,L|76:228,1,110.000003356934,0|0,1:2|0:2,0:0:0:0:
356,320,62957,6,0,L|496:320,1,110.000003356934,0|0,1:2|0:2,0:0:0:0:
200,240,63357,1,2,1:2:0:0:
144,240,63457,1,2,1:2:0:0:
88,240,63557,1,2,1:2:0:0:
144,240,63657,1,2,1:2:0:0:
320,172,63757,5,2,1:2:0:0:
376,172,63857,1,2,1:2:0:0:
200,120,63957,1,2,1:2:0:0:
144,120,64057,1,2,1:2:0:0:
324,372,64157,2,0,P|344:312|300:268,1,110.000003356934,0|0,1:2|0:2,0:0:0:0:
292,276,64407,1,0,0:2:0:0:
264,276,64457,1,0,0:2:0:0:
84,280,64557,6,0,L|84:164,1,110.000003356934,4|2,1:2|0:2,0:0:0:0:
252,92,64957,1,10,0:2:0:0:
84,172,65157,1,2,0:2:0:0:
352,268,65357,2,0,L|352:172,1,55.0000016784668,2|0,1:2|0:2,0:0:0:0:
296,212,65557,1,0,1:2:0:0:
460,216,65757,1,10,0:2:0:0:
196,224,65957,6,0,L|344:224,1,110.000003356934,2|0,0:2|1:2,0:0:0:0:
472,228,66357,1,2,0:2:0:0:
196,224,66557,2,0,L|76:224,1,110.000003356934,10|2,0:2|0:2,0:0:0:0:
364,232,66957,1,2,1:2:0:0:
309,232,67057,1,0,0:2:0:0:
254,232,67157,1,0,1:2:0:0:
420,176,67357,1,10,0:2:0:0:
152,224,67557,6,0,L|152:96,1,110.000003356934,2|0,0:2|1:2,0:0:0:0:
316,116,67957,1,0,0:2:0:0:
48,344,68157,2,0,L|48:224,1,110.000003356934,10|2,0:2|0:2,0:0:0:0:
312,224,68557,2,0,L|396:224,2,55.0000016784668,2|0|0,1:2|0:2|1:2,0:0:0:0:
148,224,68957,1,10,0:2:0:0:
412,288,69157,6,0,L|412:164,1,110.000003356934,2|0,0:2|1:2,0:0:0:0:
144,128,69557,2,0,L|20:128,2,110.000003356934,2|8|0,0:2|0:2|0:2,0:0:0:0:
200,128,70057,1,0,0:2:0:0:
256,128,70157,1,0,1:2:0:0:
84,360,70357,1,2,1:2:0:0:
352,128,70557,2,0,L|492:128,1,110.000003356934,10|2,0:2|0:2,0:0:0:0:
176,264,70957,6,0,L|176:152,1,110.000003356934,4|0,1:2|0:2,0:0:0:0:
332,148,71357,1,10,0:2:0:0:
56,184,71557,2,0,L|176:184,1,110.000003356934,2|0,0:2|1:2,0:0:0:0:
280,188,71957,1,0,1:2:0:0:
116,184,72157,1,10,0:2:0:0:
380,360,72357,6,0,L|380:248,1,110.000003356934,2|0,0:2|1:2,0:0:0:0:
204,248,72757,2,0,L|92:248,1,110.000003356934,2|8,0:2|0:2,0:0:0:0:
360,184,73157,2,0,L|476:184,2,110.000003356934,2|0|0,0:2|1:2|1:2,0:0:0:0:
192,188,73757,2,0,L|192:64,1,110.000003356934,10|0,0:2|0:2,0:0:0:0:
468,268,74157,6,0,L|336:268,1,110.000003356934,6|0,1:2|0:2,0:0:0:0:
192,268,74557,1,10,0:2:0:0:
460,224,74757,1,2,0:2:0:0:
405,224,74857,1,0,0:2:0:0:
350,224,74957,1,0,1:2:0:0:
504,144,75157,1,0,1:2:0:0:
232,156,75357,2,0,L|112:156,1,110.000003356934,8|0,0:2|0:2,0:0:0:0:
452,60,75757,6,0,L|512:60,2,55.0000016784668,0|0|0,1:2|1:2|1:2,0:0:0:0:
272,348,76157,2,0,L|204:348,1,55.0000016784668,8|0,0:2|1:2,0:0:0:0:
380,280,76457,2,0,L|380:200,1,55.0000016784668,8|0,0:2|1:2,0:0:0:0:
320,180,76657,1,8,0:2:0:0:
375,180,76757,1,0,1:2:0:0:
430,180,76857,1,8,0:2:0:0:
240,92,76957,1,0,1:2:0:0:
184,92,77057,1,0,1:2:0:0:
128,92,77157,1,0,1:2:0:0:
156,92,77207,1,0,1:2:0:0:
184,92,77257,1,0,1:2:0:0:
372,368,77357,6,0,P|416:328|352:252,1,165.000005035401,6|0,0:2|0:2,0:0:0:0:
312,252,77757,2,0,L|132:252,1,165.000005035401,2|0,0:2|0:0,0:0:0:0:
204,252,78157,1,2,0:2:0:0:
44,208,78357,2,0,L|44:56,1,110.000003356934,2|0,0:2|0:2,0:0:0:0:
164,100,78757,2,0,L|232:100,1,55.0000016784668,2|2,0:2|0:2,0:0:0:0:
48,104,78957,6,0,L|48:24,1,55.0000016784668,2|2,0:2|0:2,0:0:0:0:
188,228,79223,2,0,L|284:228,1,73.3333355712891,2|2,0:2|0:2,0:0:0:0:
180,228,79507,1,2,0:2:0:0:
400,228,79607,2,0,L|400:120,1,82.5000025177003,2|0,0:2|0:2,0:0:0:0:
216,116,79957,2,0,L|216:248,1,110.000003356934,2|0,0:2|0:2,0:0:0:0:
384,224,80357,1,2,0:2:0:0:
100,160,80557,5,6,1:2:0:0:
268,88,80757,2,0,L|112:88,1,110.000003356934,2|2,0:2|0:2,0:0:0:0:
424,232,81157,5,2,1:2:0:0:
256,160,81357,2,0,L|412:160,1,110.000003356934,4|2,0:2|0:2,0:0:0:0:
100,340,81757,2,0,L|100:216,1,110.000003356934,2|2,0:2|1:2,0:0:0:0:
376,220,82157,6,0,L|376:72,1,110.000003356934,6|0,1:2|0:2,0:0:0:0:
208,228,82557,2,0,L|208:96,1,110.000003356934,2|0,0:2|0:2,0:0:0:0:
384,352,82957,2,0,P|448:324|348:60,1,440.000013427735,2|0,0:2|0:2,0:0:0:0:
