osu file format v14

[General]
AudioFilename: audio.mp3
AudioLeadIn: 0
PreviewTime: 557
Countdown: 0
SampleSet: Soft
StackLeniency: 0.7
Mode: 2
LetterboxInBreaks: 0
WidescreenStoryboard: 1

[Editor]
Bookmarks: 33357,34157,36557,37357
DistanceSpacing: 1.1
BeatDivisor: 4
GridSize: 4
TimelineZoom: 2.399999

[Metadata]
Title:Motteke! Sailor Fuku (TV Size)
TitleUnicode:もってけ!セーラーふく (TV Size)
Artist:Hirano Aya, Katou Emiri, Fukuhara Kaori, Endou Aya
ArtistUnicode:平野綾、加藤英美里、福原香織、遠藤綾
Creator:Kukkai
Version:Overdose
Source:らき☆すた
Tags:050 bigh bighzonda 泉こなた 柊かがみ 柊つかさ 高良みゆき Izumi Konata Hiiragi Kagami Hiiragi Tsukasa Takara Miyuki Lucky Star OP opening anime japanese jpop j-pop
BeatmapID:3783942
BeatmapSetID:1822454

[Difficulty]
HPDrainRate:5.5
CircleSize:3.8
OverallDifficulty:9.3
ApproachRate:9.3
SliderMultiplier:2
SliderTickRate:2

[Events]
//Background and Video events
0,0,"bgggggggggggggggggggggggggggg.jpg",0,0
Video,-275,"vdo.mp4"
//Break Periods
//Storyboard Layer 0 (Background)
//Storyboard Layer 1 (Fail)
//Storyboard Layer 2 (Pass)
//Storyboard Layer 3 (Foreground)
//Storyboard Layer 4 (Overlay)
//Storyboard Sound Samples

[TimingPoints]
557,400,4,2,1,60,1,0
557,-83.3333333333333,4,2,1,60,0,0
10157,-83.3333333333333,4,2,1,60,0,0
10557,-83.3333333333333,4,2,1,60,0,0
10957,-83.3333333333333,4,2,1,60,0,0
11357,-83.3333333333333,4,2,1,60,0,0
11757,-83.3333333333333,4,2,1,60,0,0
13357,-83.3333333333333,4,2,1,60,0,0
19757,-83.3333333333333,4,2,1,50,0,0
26157,-83.3333333333333,4,2,1,55,0,0
32557,-83.3333333333333,4,2,1,50,0,0
38957,-83.3333333333333,4,2,1,60,0,0
45557,-83.3333333333333,4,2,1,60,0,0
45957,-83.3333333333333,4,2,1,60,0,0
51757,-83.3333333333333,4,2,1,50,0,0
64157,-83.3333333333333,4,2,1,60,0,0
64357,-83.3333333333333,4,2,1,60,0,1
64557,-83.3333333333333,4,2,1,70,0,1
77357,-83.3333333333333,4,2,1,60,0,0
80757,-83.3333333333333,4,2,1,60,0,0
80957,-83.3333333333333,4,2,1,60,0,0
81557,-83.3333333333333,4,2,1,60,0,0
81757,-90.9090909090909,4,2,1,60,0,0
83757,-90.9090909090909,4,2,1,5,0,0

[Colours]
Combo1 : 114,214,136
Combo2 : 0,158,234
Combo3 : 138,138,255
Combo4 : 255,121,255

[HitObjects]
312,324,557,6,0,L|512:324,1,179.999994506836,6|0,0:2|0:2,0:0:0:0:
432,324,957,2,0,L|272:324,1,119.999996337891,2|0,0:2|0:2,0:0:0:0:
476,328,1357,1,2,0:2:0:0:
208,324,1557,2,0,L|208:176,1,119.999996337891,2|0,0:2|0:2,0:0:0:0:
388,204,1957,2,0,L|480:204,1,59.9999981689454,2|2,0:2|0:2,0:0:0:0:
260,156,2157,6,0,L|172:156,1,59.9999981689454,2|2,0:2|0:2,0:0:0:0:
380,112,2457,1,2,0:2:0:0:
322,112,2557,1,2,0:2:0:0:
264,112,2657,1,2,0:2:0:0:
432,356,2757,6,0,L|432:216,1,119.999996337891,2|0,0:2|0:2,0:0:0:0:
252,236,3157,2,0,L|252:96,1,119.999996337891,2|0,0:2|0:2,0:0:0:0:
432,128,3557,1,2,0:2:0:0:
172,364,3757,6,0,P|120:324|192:252,1,179.999994506836,4|0,0:2|0:2,0:0:0:0:
236,248,4157,2,0,L|56:248,1,179.999994506836,2|2,0:2|0:2,0:0:0:0:
144,248,4557,2,0,L|296:248,1,119.999996337891,2|0,0:2|0:2,0:0:0:0:
92,192,4857,2,0,L|92:92,1,59.9999981689454,2|0,0:2|0:2,0:0:0:0:
272,136,5157,1,2,0:2:0:0:
4,80,5357,6,0,L|104:80,1,59.9999981689454,2|2,0:2|0:2,0:0:0:0:
244,80,5657,2,0,L|244:180,1,59.9999981689454,2|2,0:2|0:2,0:0:0:0:
180,140,5857,1,2,0:2:0:0:
352,256,5957,2,0,L|496:256,1,119.999996337891,2|0,0:2|0:2,0:0:0:0:
292,256,6357,2,0,L|292:112,1,119.999996337891,2|0,0:2|0:2,0:0:0:0:
468,128,6757,2,0,L|508:128,2,29.9999990844727,2|0|0,0:2|0:2|0:2,0:0:0:0:
232,344,6957,5,6,0:2:0:0:
412,352,7157,2,0,L|412:204,1,119.999996337891,2|0,0:2|0:2,0:0:0:0:
288,224,7557,1,2,0:2:0:0:
468,228,7757,1,2,0:2:0:0:
288,224,7957,2,0,L|152:224,1,119.999996337891,2|0,0:2|0:2,0:0:0:0:
348,224,8357,1,2,0:2:0:0:
72,176,8557,5,4,0:2:0:0:
252,172,8757,2,0,L|-16:172,1,239.999992675781,2|2,0:2|0:2,0:0:0:0:
284,336,9357,1,2,0:2:0:0:
196,336,9457,2,0,L|196:200,1,119.999996337891,2|0,0:2|0:2,0:0:0:0:
284,212,9757,1,2,0:2:0:0:
20,232,9957,1,10,0:2:0:0:
284,228,10157,6,0,L|424:228,1,119.999996337891,4|0,0:2|0:0,0:0:0:0:
228,228,10557,1,2,0:2:0:0:
492,112,10757,1,10,0:2:0:0:
224,124,10957,6,0,L|96:124,1,119.999996337891,6|0,0:2|0:0,0:0:0:0:
280,124,11357,1,2,0:2:0:0:
16,228,11557,1,10,0:2:0:0:
284,256,11757,6,0,L|360:256,3,59.9999981689454,6|2|2|2,1:2|0:2|0:2|0:2,0:0:0:0:
172,204,12157,2,0,L|172:120,1,59.9999981689454,10|8,0:2|0:2,0:0:0:0:
244,136,12357,2,0,L|244:60,1,59.9999981689454,2|0,1:2|0:2,0:0:0:0:
52,48,12557,6,0,L|188:48,1,119.999996337891,2|2,1:3|1:2,0:0:0:0:
200,48,12807,1,0,1:2:0:0:
228,48,12857,1,0,1:2:0:0:
52,216,12957,2,0,L|136:216,1,59.9999981689454,10|0,0:2|1:2,0:0:0:0:
172,216,13157,2,0,L|88:216,1,59.9999981689454,0|0,1:2|1:2,0:0:0:0:
280,156,13357,6,0,L|136:156,1,119.999996337891,4|2,1:2|1:2,0:0:0:0:
340,156,13757,1,10,0:2:0:0:
160,156,13857,2,0,L|80:156,2,59.9999981689454,2|0|0,0:2|0:2|0:2,0:0:0:0:
344,280,14157,6,0,L|216:280,1,119.999996337891,2|2,1:2|1:2,0:0:0:0:
404,280,14557,1,10,0:2:0:0:
224,216,14657,2,0,L|224:132,1,59.9999981689454,2|0,0:2|0:2,0:0:0:0:
284,156,14857,1,0,0:2:0:0:
104,96,14957,6,0,L|240:96,1,119.999996337891,2|2,1:2|1:2,0:0:0:0:
44,96,15357,1,10,0:2:0:0:
224,96,15457,2,0,L|292:96,2,59.9999981689454,2|0|0,0:2|0:2|0:2,0:0:0:0:
48,192,15757,6,0,L|48:68,1,119.999996337891,2|2,1:2|1:2,0:0:0:0:
228,68,16157,2,0,L|228:152,1,59.9999981689454,10|0,0:2|0:2,0:0:0:0:
168,128,16357,2,0,L|80:128,1,59.9999981689454,2|0,0:2|0:2,0:0:0:0:
284,328,16557,6,0,L|372:328,1,59.9999981689454,2|2,1:2|0:2,0:0:0:0:
164,328,16857,2,0,L|88:328,1,59.9999981689454,2|10,0:2|0:2,0:0:0:0:
284,328,17157,2,0,L|180:328,1,59.9999981689454,2|2,0:2|0:2,0:0:0:0:
412,224,17357,6,0,L|260:224,1,119.999996337891,2|2,1:2|1:2,0:0:0:0:
472,224,17757,1,10,0:2:0:0:
292,224,17857,2,0,L|224:224,2,59.9999981689454,2|0|0,0:2|0:2|0:2,0:0:0:0:
472,168,18157,5,2,1:2:0:0:
196,168,18357,1,2,1:2:0:0:
472,168,18557,2,0,L|472:88,2,59.9999981689454,10|2|2,0:2|0:2|0:2,0:0:0:0:
196,96,18957,6,0,L|332:96,1,119.999996337891,10|0,0:2|1:2,0:0:0:0:
360,96,19207,1,0,1:2:0:0:
316,96,19257,1,0,1:2:0:0:
136,328,19357,2,0,L|64:328,2,59.9999981689454,10|2|0,0:2|0:2|0:2,0:0:0:0:
416,216,19757,6,0,L|288:216,1,119.999996337891,6|2,1:2|0:2,0:0:0:0:
356,216,20057,1,2,1:2:0:0:
180,216,20157,1,10,0:2:0:0:
344,208,20357,2,0,L|212:208,1,119.999996337891,2|2,0:2|1:2,0:0:0:0:
164,212,20657,1,2,1:2:0:0:
340,128,20757,1,2,1:2:0:0:
176,80,20957,2,0,L|320:80,1,119.999996337891,10|2,0:2|0:2,0:0:0:0:
236,80,21257,1,2,0:2:0:0:
416,80,21357,5,2,1:2:0:0:
256,216,21557,2,0,L|176:216,2,59.9999981689454,2|2|10,0:2|0:2|0:2,0:0:0:0:
436,220,21957,2,0,L|340:220,1,59.9999981689454,2|2,0:2|0:2,0:0:0:0:
200,104,22157,6,0,L|272:104,1,59.9999981689454,2|2,1:2|1:2,0:0:0:0:
320,104,22357,2,0,L|320:28,1,59.9999981689454,0|2,1:2|0:2,0:0:0:0:
144,212,22557,2,0,L|16:212,1,119.999996337891,10|2,0:2|0:2,0:0:0:0:
304,160,22957,6,0,L|228:160,2,59.9999981689454,2|2|2,1:2|0:2|0:2,0:0:0:0:
32,320,23357,1,10,0:2:0:0:
196,264,23557,1,2,0:2:0:0:
32,320,23757,6,0,L|124:320,1,59.9999981689454,2|2,1:2|1:2,0:0:0:0:
276,192,23957,1,2,1:2:0:0:
116,200,24157,2,0,L|116:72,1,119.999996337891,10|2,0:2|0:2,0:0:0:0:
380,296,24557,5,2,1:2:0:0:
220,300,24757,1,2,0:2:0:0:
480,232,24957,2,0,L|480:152,1,59.9999981689454,10|2,0:2|0:2,0:0:0:0:
364,176,25257,1,2,0:2:0:0:
172,176,25357,6,0,L|172:100,1,59.9999981689454,2|2,1:2|1:2,0:0:0:0:
368,112,25557,2,0,L|448:112,1,59.9999981689454,2|0,1:2|0:2,0:0:0:0:
244,88,25757,2,0,L|244:20,1,59.9999981689454,8|0,0:2|0:2,0:0:0:0:
304,28,25957,1,2,0:2:0:0:
36,360,26157,5,4,1:2:0:0:
208,360,26357,1,2,0:2:0:0:
40,292,26557,2,0,P|24:228|60:176,1,119.999996337891,10|2,0:2|0:2,0:0:0:0:
108,184,26857,1,2,0:2:0:0:
288,120,26957,6,0,L|208:120,1,59.9999981689454,2|2,1:2|1:2,0:0:0:0:
168,120,27157,2,0,L|168:40,1,59.9999981689454,2|2,1:2|0:2,0:0:0:0:
344,340,27357,2,0,L|264:340,1,59.9999981689454,10|2,0:2|0:2,0:0:0:0:
404,340,27657,1,2,0:2:0:0:
224,296,27757,6,0,L|224:216,1,59.9999981689454,2|2,1:2|0:2,0:0:0:0:
296,228,27957,2,0,L|296:144,1,59.9999981689454,2|0,0:2|0:2,0:0:0:0:
120,128,28157,2,0,L|184:128,1,59.9999981689454,8|2,0:2|0:2,0:0:0:0:
120,128,28357,2,0,L|48:128,1,59.9999981689454,0|2,0:2|0:2,0:0:0:0:
248,72,28557,5,2,1:2:0:0:
96,72,28757,1,2,1:2:0:0:
368,344,28957,2,0,L|368:212,1,119.999996337891,10|2,0:2|0:2,0:0:0:0:
104,228,29357,6,0,L|36:228,2,59.9999981689454,2|2|2,1:2|0:2|0:2,0:0:0:0:
384,164,29757,1,10,0:2:0:0:
224,164,29957,1,2,1:2:0:0:
384,164,30057,6,0,L|464:164,2,59.9999981689454,2|0|2,0:2|1:2|1:2,0:0:0:0:
224,100,30357,1,2,1:2:0:0:
380,100,30557,1,10,0:2:0:0:
224,100,30757,2,0,L|296:100,1,59.9999981689454,2|2,0:2|0:2,0:0:0:0:
104,100,30957,6,0,L|20:100,2,59.9999981689454,2|2|2,1:2|0:2|1:2,0:0:0:0:
288,264,31257,2,0,L|208:264,1,59.9999981689454,2|10,0:2|0:2,0:0:0:0:
408,204,31457,2,0,L|484:204,2,59.9999981689454,2|0|0,0:2|0:2|0:2,0:0:0:0:
232,144,31757,6,0,L|144:144,1,59.9999981689454,10|2,1:2|1:2,0:0:0:0:
352,68,31957,2,0,L|440:68,1,59.9999981689454,2|2,1:2|1:2,0:0:0:0:
232,144,32157,2,0,L|104:144,1,119.999996337891,10|0,1:2|1:2,0:0:0:0:
168,144,32457,1,0,1:2:0:0:
364,288,32557,5,4,1:2:0:0:
424,288,32657,1,0,0:2:0:0:
424,228,32757,1,0,0:2:0:0:
364,224,32857,1,0,0:2:0:0:
244,164,32957,1,8,0:2:0:0:
184,164,33057,1,0,0:2:0:0:
244,164,33157,1,0,0:2:0:0:
304,164,33257,1,0,0:2:0:0:
120,92,33357,6,0,L|36:92,3,59.9999981689454,0|0|0|0,1:2|0:2|1:2|0:2,0:0:0:0:
244,88,33757,2,0,L|336:88,1,59.9999981689454,8|0,0:2|0:2,0:0:0:0:
124,32,33957,2,0,L|208:32,1,59.9999981689454,0|0,0:2|0:2,0:0:0:0:
368,280,34157,6,0,L|368:188,1,59.9999981689454,0|0,1:2|0:2,0:0:0:0:
308,220,34357,2,0,L|212:220,1,59.9999981689454,0|0,0:2|0:2,0:0:0:0:
428,160,34557,1,8,0:2:0:0:
488,160,34657,1,0,0:2:0:0:
488,100,34757,1,0,0:2:0:0:
428,100,34857,1,0,0:2:0:0:
244,360,34957,5,0,1:2:0:0:
217,307,35057,1,0,0:2:0:0:
230,249,35157,1,0,1:2:0:0:
276,212,35257,1,0,0:2:0:0:
335,213,35357,1,8,0:2:0:0:
381,250,35457,1,0,0:2:0:0:
393,307,35557,1,0,0:2:0:0:
367,360,35657,1,0,0:2:0:0:
184,272,35757,5,0,1:2:0:0:
124,272,35857,1,0,0:2:0:0:
64,272,35957,1,0,0:2:0:0:
60,212,36057,1,0,0:2:0:0:
184,168,36157,1,8,0:2:0:0:
184,108,36257,1,0,0:2:0:0:
124,108,36357,1,0,0:2:0:0:
124,48,36457,1,0,0:2:0:0:
308,304,36557,5,0,1:2:0:0:
248,304,36657,1,0,0:2:0:0:
188,304,36757,1,0,1:2:0:0:
128,304,36857,1,0,0:2:0:0:
312,232,36957,2,0,L|408:232,1,59.9999981689454,8|0,0:2|0:2,0:0:0:0:
192,172,37157,2,0,L|112:172,1,59.9999981689454,0|0,0:2|0:2,0:0:0:0:
312,136,37357,6,0,L|408:136,1,59.9999981689454,4|0,1:2|0:2,0:0:0:0:
312,136,37557,2,0,L|216:136,1,59.9999981689454,0|0,0:2|0:2,0:0:0:0:
432,80,37757,1,8,0:2:0:0:
252,136,37857,2,0,P|228:76|280:32,1,119.999996337891,0|0,0:2|0:2,0:0:0:0:
432,32,38157,6,0,L|500:32,1,59.9999981689454,0|0,1:2|0:2,0:0:0:0:
492,32,38357,2,0,L|408:32,1,59.9999981689454,8|8,0:2|0:2,0:0:0:0:
252,356,38557,2,0,L|252:260,1,59.9999981689454,8|0,1:2|0:2,0:0:0:0:
312,296,38757,1,0,1:2:0:0:
342,296,38807,1,0,1:2:0:0:
372,296,38857,1,0,1:2:0:0:
188,224,38957,5,4,1:2:0:0:
344,152,39157,1,2,0:2:0:0:
68,224,39357,2,0,L|68:96,1,119.999996337891,10|0,0:2|1:2,0:0:0:0:
336,248,39757,2,0,L|212:248,1,119.999996337891,2|0,1:2|0:2,0:0:0:0:
156,248,40057,2,0,L|292:248,1,119.999996337891,2|0,1:2|0:2,0:0:0:0:
448,160,40357,6,0,L|312:160,1,119.999996337891,2|0,1:2|1:2,0:0:0:0:
492,164,40757,1,2,0:2:0:0:
200,332,40957,2,0,L|52:332,1,119.999996337891,10|0,0:2|1:2,0:0:0:0:
348,272,41357,2,0,P|368:212|328:168,1,119.999996337891,2|0,1:2|0:2,0:0:0:0:
276,172,41657,2,0,L|420:172,1,119.999996337891,2|0,1:2|0:2,0:0:0:0:
216,172,41957,6,0,P|192:112|248:64,1,119.999996337891,2|0,1:2|1:2,0:0:0:0:
392,72,42357,1,2,0:2:0:0:
128,308,42557,2,0,L|-24:308,1,119.999996337891,10|0,0:2|1:2,0:0:0:0:
284,312,42957,2,0,P|308:252|264:216,1,119.999996337891,2|0,1:2|0:2,0:0:0:0:
212,216,43257,2,0,P|188:152|232:112,1,119.999996337891,2|0,1:2|0:2,0:0:0:0:
408,48,43557,6,0,L|272:48,1,119.999996337891,2|0,1:2|1:2,0:0:0:0:
348,48,43857,1,0,0:2:0:0:
408,48,43957,1,2,0:2:0:0:
132,364,44157,2,0,L|132:232,1,119.999996337891,10|0,0:2|1:2,0:0:0:0:
192,240,44457,1,0,0:2:0:0:
376,168,44557,2,0,L|224:168,1,119.999996337891,2|0,1:2|0:2,0:0:0:0:
196,168,44857,2,0,L|328:168,1,119.999996337891,2|0,1:2|0:2,0:0:0:0:
140,112,45157,6,0,L|72:112,2,59.9999981689454,2|0|0,1:2|0:2|0:2,0:0:0:0:
404,344,45557,2,0,L|128:344,1,239.999992675781,6|0,1:2|1:2,0:0:0:0:
432,260,46157,2,0,P|448:196|408:148,1,119.999996337891,2|0,1:2|0:2,0:0:0:0:
360,152,46457,2,0,L|504:152,1,119.999996337891,2|0,1:2|0:2,0:0:0:0:
296,92,46757,6,0,L|168:92,1,119.999996337891,2|0,1:2|1:2,0:0:0:0:
328,40,47157,1,2,0:2:0:0:
64,360,47357,2,0,P|44:292|88:252,1,119.999996337891,10|0,0:2|1:2,0:0:0:0:
132,260,47657,1,0,0:2:0:0:
312,188,47757,2,0,P|336:128|288:88,1,119.999996337891,2|0,1:2|0:2,0:0:0:0:
232,92,48057,2,0,P|200:36|248:8,1,119.999996337891,2|0,1:2|0:2,0:0:0:0:
416,160,48357,2,0,L|496:160,1,59.9999981689454,2|0,1:2|0:2,0:0:0:0:
272,312,48557,5,6,1:2:0:0:
436,264,48757,1,2,0:2:0:0:
168,204,48957,2,0,L|312:204,1,119.999996337891,10|2,0:2|1:2,0:0:0:0:
228,204,49257,1,2,1:2:0:0:
428,208,49357,2,0,L|428:76,1,119.999996337891,2|2,1:2|1:2,0:0:0:0:
156,84,49757,1,10,0:2:0:0:
336,84,49957,1,2,1:2:0:0:
68,244,50157,6,0,L|216:244,1,119.999996337891,6|10,1:2|0:2,0:0:0:0:
128,244,50457,1,2,0:2:0:0:
308,240,50557,2,0,L|228:240,1,59.9999981689454,8|2,1:2|0:2,0:0:0:0:
188,244,50757,2,0,L|188:168,1,59.9999981689454,0|2,0:2|0:2,0:0:0:0:
368,176,50957,6,0,L|368:92,1,59.9999981689454,2|2,1:2|1:2,0:0:0:0:
308,120,51157,1,0,1:2:0:0:
278,120,51207,1,0,1:2:0:0:
248,120,51257,1,2,1:2:0:0:
424,72,51357,2,0,L|496:72,2,59.9999981689454,0|0|0,1:2|1:2|1:2,0:0:0:0:
36,352,51757,5,4,1:2:0:0:
192,352,51957,2,0,L|192:216,1,119.999996337891,2|0,0:2|1:2,0:0:0:0:
36,236,52357,1,2,0:2:0:0:
192,232,52557,2,0,L|336:232,1,119.999996337891,2|0,1:2|0:2,0:0:0:0:
156,232,52957,1,2,1:2:0:0:
312,236,53157,6,0,L|312:104,1,119.999996337891,2|0,0:2|1:2,0:0:0:0:
468,116,53557,1,2,0:2:0:0:
312,120,53757,2,0,L|436:120,1,119.999996337891,2|2,1:2|0:2,0:0:0:0:
276,120,54157,2,0,L|136:120,1,119.999996337891,2|0,1:2|0:2,0:0:0:0:
312,120,54557,1,2,1:2:0:0:
156,120,54757,1,2,0:2:0:0:
432,292,54957,5,2,1:1:0:0:
276,296,55157,2,0,L|276:168,1,119.999996337891,2|2,0:2|1:2,0:0:0:0:
120,176,55557,1,2,0:2:0:0:
276,172,55757,1,2,1:2:0:0:
432,172,55957,1,2,0:2:0:0:
276,172,56157,1,2,1:2:0:0:
432,172,56357,6,0,L|432:48,1,119.999996337891,2|0,0:2|1:2,0:0:0:0:
276,60,56757,2,0,L|152:60,1,119.999996337891,2|0,0:2|1:2,0:0:0:0:
276,60,57157,2,0,L|404:60,1,119.999996337891,0|0,0:2|1:2,0:0:0:0:
240,56,57557,2,0,L|240:204,1,119.999996337891,2|0,0:2|1:2,0:0:0:0:
396,176,57957,1,2,0:2:0:0:
96,352,58157,6,0,L|248:352,1,119.999996337891,2|0,1:1|0:2,0:0:0:0:
372,348,58557,1,2,1:2:0:0:
216,352,58757,2,0,L|64:352,2,119.999996337891,2|0|0,0:2|1:2|0:2,0:0:0:0:
372,352,59357,1,2,1:2:0:0:
216,352,59557,1,2,0:2:0:0:
492,232,59757,5,2,1:1:0:0:
336,236,59957,2,0,L|336:104,1,119.999996337891,2|0,0:2|1:2,0:0:0:0:
180,116,60357,2,0,L|40:116,2,119.999996337891,2|0|0,0:2|1:2|0:2,0:0:0:0:
336,120,60957,2,0,L|336:268,1,119.999996337891,2|0,1:2|0:2,0:0:0:0:
64,272,61357,6,0,L|196:272,1,119.999996337891,2|0,1:1|0:2,0:0:0:0:
340,272,61757,1,2,1:2:0:0:
184,276,61957,2,0,L|52:276,2,119.999996337891,2|0|0,0:2|1:2|0:2,0:0:0:0:
340,272,62557,2,0,L|340:136,1,119.999996337891,0|0,1:2|0:2,0:0:0:0:
72,160,62957,6,0,L|72:40,1,119.999996337891,0|0,1:2|0:2,0:0:0:0:
360,120,63357,2,0,L|468:120,1,59.9999981689454,2|2,1:2|1:2,0:0:0:0:
176,116,63557,2,0,L|100:116,1,59.9999981689454,2|2,1:2|1:2,0:0:0:0:
300,120,63757,2,0,L|380:120,1,59.9999981689454,2|2,1:2|1:2,0:0:0:0:
116,116,63957,2,0,L|52:116,1,59.9999981689454,2|2,1:2|1:2,0:0:0:0:
256,68,64157,2,0,L|404:68,1,119.999996337891,0|0,1:2|0:2,0:0:0:0:
404,68,64407,1,0,0:2:0:0:
376,68,64457,1,0,0:2:0:0:
192,260,64557,5,4,1:2:0:0:
360,260,64757,1,2,0:2:0:0:
94,209,64957,2,0,L|0:208,1,59.9999981689454,10|0,0:2|0:2,0:0:0:0:
32,152,65157,2,0,L|144:152,1,59.9999981689454,2|0,0:2|0:2,0:0:0:0:
272,96,65357,5,2,1:2:0:0:
332,96,65457,1,0,0:2:0:0:
272,96,65557,1,0,1:2:0:0:
212,96,65657,1,0,0:2:0:0:
396,256,65757,1,10,0:2:0:0:
132,304,65957,6,0,L|132:164,1,119.999996337891,2|0,0:2|1:2,0:0:0:0:
396,184,66357,1,2,0:2:0:0:
136,204,66557,1,10,0:2:0:0:
304,204,66757,1,2,0:2:0:0:
40,184,66957,2,0,L|40:116,1,59.9999981689454,2|0,1:2|0:2,0:0:0:0:
100,128,67157,2,0,L|176:128,1,59.9999981689454,0|0,1:2|0:2,0:0:0:0:
340,116,67357,1,10,0:2:0:0:
56,212,67557,6,0,L|192:212,1,119.999996337891,2|0,0:2|1:2,0:0:0:0:
440,216,67957,1,0,0:2:0:0:
176,212,68157,2,0,L|176:136,1,59.9999981689454,10|0,0:2|0:2,0:0:0:0:
240,96,68357,2,0,L|324:96,1,59.9999981689454,2|0,0:2|0:2,0:0:0:0:
120,96,68557,2,0,L|52:96,1,59.9999981689454,2|0,1:2|0:2,0:0:0:0:
56,40,68757,2,0,L|120:40,1,59.9999981689454,0|0,1:2|0:2,0:0:0:0:
300,276,68957,1,10,0:2:0:0:
32,280,69157,6,0,L|32:140,1,119.999996337891,2|0,0:2|1:2,0:0:0:0:
300,284,69557,2,0,L|152:284,1,119.999996337891,2|8,0:2|0:2,0:0:0:0:
360,200,69957,1,0,0:2:0:0:
96,236,70157,1,0,1:2:0:0:
96,180,70257,1,0,0:2:0:0:
156,180,70357,1,2,1:2:0:0:
96,180,70457,1,0,0:2:0:0:
292,116,70557,1,10,0:2:0:0:
124,112,70757,1,2,0:2:0:0:
392,352,70957,6,0,L|392:216,1,119.999996337891,4|0,1:2|0:2,0:0:0:0:
124,232,71357,1,10,0:2:0:0:
392,232,71557,2,0,L|392:148,1,59.9999981689454,2|0,0:2|0:2,0:0:0:0:
328,168,71757,1,0,1:2:0:0:
388,168,71857,1,0,0:2:0:0:
448,168,71957,1,0,1:2:0:0:
184,100,72157,1,10,0:2:0:0:
448,168,72357,6,0,L|448:40,1,119.999996337891,2|0,0:2|1:2,0:0:0:0:
184,100,72757,2,0,L|40:100,1,119.999996337891,2|8,0:2|0:2,0:0:0:0:
332,100,73157,2,0,L|476:100,1,119.999996337891,2|0,0:2|1:2,0:0:0:0:
392,100,73457,1,0,0:2:0:0:
332,100,73557,1,0,1:2:0:0:
60,352,73757,2,0,L|60:216,1,119.999996337891,10|0,0:2|0:2,0:0:0:0:
328,228,74157,6,0,L|188:228,1,119.999996337891,6|0,1:2|0:2,0:0:0:0:
472,168,74557,1,10,0:2:0:0:
212,232,74757,2,0,L|144:232,2,59.9999981689454,2|0|0,0:2|0:2|1:2,0:0:0:0:
272,232,75057,2,0,L|272:144,1,59.9999981689454,0|0,0:2|1:2,0:0:0:0:
8,168,75357,2,0,L|136:168,1,119.999996337891,8|0,0:2|0:2,0:0:0:0:
408,160,75757,6,0,L|480:160,2,59.9999981689454,0|0|0,1:2|1:2|1:2,0:0:0:0:
128,324,76157,2,0,L|128:224,1,59.9999981689454,8|0,0:2|1:2,0:0:0:0:
296,268,76457,1,8,0:2:0:0:
120,200,76557,6,0,L|16:200,1,59.9999981689454,0|8,1:2|0:2,0:0:0:0:
240,148,76757,2,0,L|320:148,1,59.9999981689454,0|8,1:2|0:2,0:0:0:0:
120,132,76957,2,0,L|56:132,1,59.9999981689454,0|0,1:2|1:2,0:0:0:0:
60,132,77157,1,0,1:2:0:0:
90,132,77207,1,0,1:2:0:0:
120,132,77257,1,0,1:2:0:0:
300,304,77357,6,0,L|108:304,1,179.999994506836,6|0,0:2|0:2,0:0:0:0:
180,304,77757,2,0,L|312:304,1,119.999996337891,2|0,0:2|0:2,0:0:0:0:
132,224,78157,1,2,0:2:0:0:
400,224,78357,2,0,L|400:84,1,119.999996337891,2|0,0:2|0:2,0:0:0:0:
232,104,78757,2,0,L|312:104,1,59.9999981689454,2|2,0:2|0:2,0:0:0:0:
112,320,78957,6,0,L|112:244,1,59.9999981689454,2|2,0:2|0:2,0:0:0:0:
256,260,79223,1,2,0:2:0:0:
56,228,79357,2,0,L|56:136,1,89.9999972534181,2|2,0:2|0:2,0:0:0:0:
268,140,79607,2,0,L|368:140,1,89.9999972534181,2|0,0:2|0:2,0:0:0:0:
76,356,79957,2,0,L|224:356,1,119.999996337891,2|0,0:2|0:2,0:0:0:0:
16,284,80357,1,2,0:2:0:0:
284,220,80557,5,6,1:2:0:0:
116,220,80757,1,2,0:2:0:0:
384,148,80957,1,2,0:2:0:0:
112,152,81157,1,2,1:2:0:0:
384,148,81357,5,4,0:2:0:0:
216,148,81557,1,2,0:2:0:0:
484,88,81757,1,2,0:2:0:0:
216,148,81957,1,2,1:2:0:0:
484,352,82157,6,0,L|484:224,1,110.000003356934,6|0,1:2|0:2,0:0:0:0:
324,240,82557,2,0,L|208:240,1,110.000003356934,2|0,0:2|0:2,0:0:0:0:
380,364,82957,2,0,P|480:328|364:104,1,440.000013427735,2|0,0:2|0:2,0:0:0:0:
