osu file format v14

[General]
AudioFilename: audio.mp3
AudioLeadIn: 0
PreviewTime: 557
Countdown: 0
SampleSet: Soft
StackLeniency: 0.7
Mode: 2
LetterboxInBreaks: 0
WidescreenStoryboard: 0

[Editor]
Bookmarks: 33357,34157,36557,37357
DistanceSpacing: 1.1
BeatDivisor: 4
GridSize: 4
TimelineZoom: 2.899999

[Metadata]
Title:Motteke! Sailor Fuku (TV Size)
TitleUnicode:もってけ!セーラーふく (TV Size)
Artist:Hirano Aya, Katou Emiri, Fukuhara Kaori, Endou Aya
ArtistUnicode:平野綾、加藤英美里、福原香織、遠藤綾
Creator:Kukkai
Version:Nostalgic
Source:らき☆すた
Tags:050 bigh bighzonda 泉こなた 柊かがみ 柊つかさ 高良みゆき Izumi Konata Hiiragi Kagami Hiiragi Tsukasa Takara Miyuki Lucky Star OP opening anime japanese jpop j-pop
BeatmapID:3739630
BeatmapSetID:1822454

[Difficulty]
HPDrainRate:6
CircleSize:4
OverallDifficulty:9.5
ApproachRate:9.5
SliderMultiplier:2
SliderTickRate:2

[Events]
//Background and Video events
0,0,"bgggggggggggggggggggggggggggg.jpg",0,0
Video,-275,"vdo.mp4"
//Break Periods
//Storyboard Layer 0 (Background)
//Storyboard Layer 1 (Fail)
//Storyboard Layer 2 (Pass)
//Storyboard Layer 3 (Foreground)
//Storyboard Layer 4 (Overlay)
//Storyboard Sound Samples

[TimingPoints]
557,400,4,2,1,60,1,0
557,-76.9230769230769,4,2,1,60,0,0
10557,-37.037037037037,4,2,1,60,0,0
10957,-76.9230769230769,4,2,1,60,0,0
11357,-37.037037037037,4,2,1,60,0,0
11757,-76.9230769230769,4,2,1,60,0,0
13357,-76.9230769230769,4,2,1,60,0,0
19757,-76.9230769230769,4,2,1,50,0,0
26157,-76.9230769230769,4,2,1,55,0,0
32557,-76.9230769230769,4,2,1,50,0,0
38957,-76.9230769230769,4,2,1,60,0,0
45557,-35.7142857142857,4,2,1,60,0,0
45957,-76.9230769230769,4,2,1,60,0,0
51757,-76.9230769230769,4,2,1,50,0,0
64157,-37.037037037037,4,2,1,60,0,0
64357,-76.9230769230769,4,2,1,60,0,0
64557,-76.9230769230769,4,2,1,70,0,1
77357,-76.9230769230769,4,2,1,60,0,0
80757,-35.0877192982456,4,2,1,60,0,0
80957,-76.9230769230769,4,2,1,60,0,0
81557,-35.0877192982456,4,2,1,60,0,0
81757,-76.9230769230769,4,2,1,60,0,0
83757,-76.9230769230769,4,2,1,5,0,0

[Colours]
Combo1 : 114,214,136
Combo2 : 0,158,234
Combo3 : 138,138,255
Combo4 : 255,121,255

[HitObjects]
232,320,557,6,0,L|24:320,1,194.999991073609,6|0,0:2|0:2,0:2:0:0:
104,320,957,2,0,L|248:320,1,129.999994049073,2|0,0:2|0:2,0:2:0:0:
37,320,1357,1,2,0:2:0:0:
319,320,1557,2,0,L|319:160,1,129.999994049073,2|0,0:2|0:2,0:2:0:0:
123,196,1957,1,2,0:2:0:0:
123,292,2057,1,2,0:2:0:0:
291,120,2157,5,2,0:2:0:0:
123,116,2257,2,0,L|291:116,1,129.999994049073,2|2,0:2|0:2,0:2:0:0:
176,116,2557,1,2,0:2:0:0:
253,116,2657,1,2,0:2:0:0:
92,312,2757,2,0,L|92:172,1,129.999994049073,2|0,0:2|0:2,0:2:0:0:
268,188,3157,2,0,L|400:188,1,129.999994049073,2|0,0:2|0:2,0:2:0:0:
44,172,3557,1,2,0:2:0:0:
324,248,3757,6,0,L|116:248,1,194.999991073609,4|0,0:2|0:2,0:2:0:0:
64,248,4157,2,0,L|272:252,1,194.999991073609,2|2,0:2|0:2,0:2:0:0:
172,252,4557,2,0,P|144:184|200:144,1,129.999994049073,2|0,0:2|0:2,0:2:0:0:
384,128,4857,1,2,0:2:0:0:
452,126,4957,1,0,0:2:0:0:
268,80,5157,1,2,0:2:0:0:
464,80,5357,5,2,0:2:0:0:
268,260,5457,2,2,P|240:192|284:144,1,129.999994049073,2|2,0:2|0:2,0:2:0:0:
348,152,5757,1,2,0:2:0:0:
269,150,5857,1,2,0:2:0:0:
460,276,5957,6,0,L|460:128,1,129.999994049073,2|0,0:2|0:2,0:2:0:0:
260,340,6357,2,0,L|404:340,1,129.999994049073,2|0,0:2|0:2,0:2:0:0:
192,260,6757,2,0,L|152:260,1,32.4999985122681,2|0,0:2|0:2,0:2:0:0:
159,260,6857,2,0,L|212:260,1,32.4999985122681,0|0,0:2|0:2,0:2:0:0:
356,204,6957,5,6,0:2:0:0:
188,204,7157,2,0,L|188:60,1,129.999994049073,2|0,0:2|0:2,0:2:0:0:
312,80,7557,1,2,0:2:0:0:
116,80,7757,1,2,0:2:0:0:
312,80,7957,2,0,L|312:220,1,129.999994049073,2|0,0:2|0:2,0:2:0:0:
116,80,8357,1,2,0:2:0:0:
428,300,8557,5,4,0:2:0:0:
228,224,8757,2,0,L|508:224,1,259.999988098145,2|2,0:2|0:2,0:2:0:0:
296,152,9357,1,2,0:2:0:0:
364,152,9457,2,2,L|188:152,1,129.999994049073,2|0,0:2|0:2,0:2:0:0:
296,152,9757,1,2,0:2:0:0:
12,104,9957,1,10,0:2:0:0:
316,352,10157,6,0,B|412:352|412:352|304:352,1,194.999991073609,4|0,0:2|0:2,0:2:0:0:
240,280,10557,2,0,L|520:280,1,270.000001029968,2|10,0:2|0:2,0:2:0:0:
196,352,10957,6,0,B|100:352|100:352|208:352,1,194.999991073609,6|0,0:2|0:2,0:2:0:0:
272,280,11357,2,0,L|-8:280,1,270.000001029968,2|10,0:2|0:2,0:2:0:0:
280,244,11757,5,6,1:2:0:0:
204,244,11857,1,2,0:2:0:0:
280,244,11957,1,2,0:2:0:0:
92,196,12057,1,2,0:2:0:0:
280,120,12157,1,10,0:2:0:0:
204,120,12257,1,8,0:2:0:0:
280,120,12357,1,2,1:2:0:0:
356,120,12457,1,0,0:2:0:0:
176,56,12557,6,0,L|344:56,1,129.999994049073,2|2,1:3|1:2,1:2:0:0:
344,56,12807,1,0,1:2:0:0:
384,56,12857,1,0,1:2:0:0:
344,56,12907,1,0,1:2:0:0:
204,352,12957,1,10,0:2:0:0:
204,287,13057,1,0,1:2:0:0:
280,288,13157,1,0,1:2:0:0:
204,287,13257,1,0,1:2:0:0:
396,196,13357,6,0,L|232:196,1,129.999994049073,4|2,1:2|1:2,1:2:0:0:
460,152,13757,1,10,0:2:0:0:
272,156,13857,2,0,L|272:76,1,64.9999970245363,2|0,0:2|0:2,0:2:0:0:
348,92,14057,1,0,0:2:0:0:
152,324,14157,6,2,L|288:324,1,129.999994049073,2|2,1:2|1:2,1:2:0:0:
88,252,14557,1,10,0:2:0:0:
284,244,14657,2,0,L|284:148,1,64.9999970245363,2|0,0:2|0:2,0:2:0:0:
208,180,14857,1,0,0:2:0:0:
396,104,14957,6,2,L|212:104,1,129.999994049073,2|2,1:2|1:2,1:2:0:0:
464,60,15357,1,10,0:2:0:0:
268,44,15457,2,0,L|176:44,2,64.9999970245363,2|0|0,0:2|0:2|0:2,0:2:0:0:
96,352,15757,6,2,L|260:352,1,129.999994049073,2|2,1:2|1:2,1:2:0:0:
20,288,16157,2,0,L|20:184,1,64.9999970245363,10|0,0:2|0:2,0:2:0:0:
96,224,16357,1,2,0:2:0:0:
20,223,16457,1,0,0:2:0:0:
252,192,16557,6,2,L|320:192,1,64.9999970245363,2|2,1:2|0:2,0:2:0:0:
120,124,16857,2,2,L|204:124,1,64.9999970245363,2|10,0:2|0:2,0:2:0:0:
380,128,17157,2,2,L|276:128,1,64.9999970245363,2|2,0:2|0:2,0:2:0:0:
488,316,17357,6,2,P|504:240|456:184,1,129.999994049073,2|2,1:2|1:2,1:2:0:0:
284,200,17757,1,10,0:2:0:0:
472,200,17857,2,0,L|472:128,1,64.9999970245363,2|0,0:2|0:2,0:2:0:0:
404,132,18057,1,0,0:2:0:0:
160,360,18157,6,0,L|124:360,1,32.4999985122681,2|0,1:2|0:2,0:2:0:0:
368,288,18357,2,0,L|404:288,1,32.4999985122681,2|0,1:2|0:2,0:2:0:0:
160,208,18557,1,10,0:2:0:0:
240,208,18657,1,2,0:2:0:0:
160,208,18757,1,2,0:2:0:0:
448,96,18957,6,0,L|376:96,1,64.9999970245363,10|0,0:2|0:2,0:2:0:0:
216,104,19157,2,0,L|176:104,1,32.4999985122681,0|0,1:2|1:2,1:2:0:0:
300,48,19257,2,0,L|340:48,1,32.4999985122681,0|0,1:2|1:2,1:2:0:0:
180,312,19357,1,10,0:2:0:0:
364,252,19457,2,0,L|364:168,1,64.9999970245363,2|0,0:2|0:2,0:2:0:0:
88,184,19757,6,2,L|252:184,1,129.999994049073,6|2,1:2|0:2,0:2:0:0:
152,188,20057,1,2,1:2:0:0:
340,296,20157,1,10,0:2:0:0:
176,232,20357,2,2,L|344:232,1,129.999994049073,2|2,0:2|1:2,0:2:0:0:
240,232,20657,1,2,1:2:0:0:
444,200,20757,2,2,L|288:200,2,129.999994049073,2|10|2,1:2|0:2|0:2,0:2:0:0:
372,200,21257,1,2,0:2:0:0:
168,132,21357,6,2,L|312:132,1,129.999994049073,2|2,1:2|0:2,0:2:0:0:
232,132,21657,1,2,0:2:0:0:
436,68,21757,2,2,L|284:68,1,129.999994049073,10|2,0:2|0:2,0:2:0:0:
372,68,22057,1,2,0:2:0:0:
164,352,22157,5,2,1:2:0:0:
236,352,22257,2,0,L|236:248,1,64.9999970245363,2|0,1:2|1:2,1:2:0:0:
164,288,22457,1,2,0:2:0:0:
352,224,22557,1,10,0:2:0:0:
184,224,22757,1,2,0:2:0:0:
476,164,22957,5,2,1:2:0:0:
404,164,23057,1,2,0:2:0:0:
476,164,23157,1,2,0:2:0:0:
308,164,23357,1,10,0:2:0:0:
476,164,23557,1,2,0:2:0:0:
184,112,23757,5,2,1:2:0:0:
256,112,23857,1,2,1:2:0:0:
184,112,23957,1,2,1:2:0:0:
352,112,24157,1,10,0:2:0:0:
184,112,24357,1,2,0:2:0:0:
476,48,24557,5,2,1:2:0:0:
184,112,24757,1,2,0:2:0:0:
456,48,24957,1,10,0:2:0:0:
360,48,25057,1,2,0:2:0:0:
492,48,25257,1,2,0:2:0:0:
248,352,25357,5,2,1:2:0:0:
320,352,25457,1,2,1:2:0:0:
148,276,25557,1,2,1:2:0:0:
76,276,25657,1,0,0:2:0:0:
252,216,25757,2,0,L|252:112,1,64.9999970245363,8|0,0:2|0:2,0:2:0:0:
180,152,25957,1,2,0:2:0:0:
448,80,26157,5,4,1:2:0:0:
304,84,26357,1,2,0:2:0:0:
376,84,26457,1,0,1:2:0:0:
168,332,26557,1,10,0:2:0:0:
312,332,26757,1,2,0:2:0:0:
312,260,26857,1,2,0:2:0:0:
140,196,26957,5,2,1:2:0:0:
212,196,27057,1,2,1:2:0:0:
140,196,27157,1,2,1:2:0:0:
68,196,27257,1,2,0:2:0:0:
256,124,27357,1,10,0:2:0:0:
184,124,27457,1,2,0:2:0:0:
328,124,27657,1,2,0:2:0:0:
152,348,27757,5,2,1:2:0:0:
224,348,27857,1,2,0:2:0:0:
152,348,27957,2,0,L|152:256,1,64.9999970245363,2|0,0:2|0:2,0:2:0:0:
344,188,28157,1,8,0:2:0:0:
272,188,28257,1,2,0:2:0:0:
344,188,28357,1,0,0:2:0:0:
348,104,28457,1,2,0:2:0:0:
144,56,28557,5,2,1:2:0:0:
312,52,28757,1,2,1:2:0:0:
16,216,28957,1,10,0:2:0:0:
312,52,29157,1,2,0:2:0:0:
16,216,29357,5,2,1:2:0:0:
88,216,29457,1,2,0:2:0:0:
16,216,29557,1,2,0:2:0:0:
304,160,29757,1,10,0:2:0:0:
136,160,29957,1,2,1:2:0:0:
208,160,30057,6,0,L|208:68,1,64.9999970245363,2|0,0:2|1:2,0:2:0:0:
136,96,30257,1,2,1:2:0:0:
340,312,30357,1,2,1:2:0:0:
196,312,30557,1,10,0:2:0:0:
340,312,30757,1,2,0:2:0:0:
268,316,30857,1,2,0:2:0:0:
432,240,30957,5,2,1:2:0:0:
436,156,31057,1,2,0:2:0:0:
248,112,31157,1,2,1:2:0:0:
320,112,31257,1,2,0:2:0:0:
148,284,31357,1,10,0:2:0:0:
320,224,31457,2,0,L|392:224,2,64.9999970245363,2|0|0,0:2|0:2|0:2,0:2:0:0:
84,236,31757,5,10,1:2:0:0:
264,244,31857,1,2,1:2:0:0:
85,193,31957,1,2,1:2:0:0:
261,189,32057,1,2,1:2:0:0:
85,193,32157,2,0,P|48:128|100:96,1,129.999994049073,10|0,1:2|1:2,0:2:0:0:
148,108,32457,1,0,1:2:0:0:
340,104,32557,5,4,1:2:0:0:
404,104,32657,1,0,0:2:0:0:
404,40,32757,1,0,0:2:0:0:
340,40,32857,1,0,0:2:0:0:
156,364,32957,1,8,0:2:0:0:
156,300,33057,1,0,0:2:0:0:
220,300,33157,1,0,0:2:0:0:
284,300,33257,1,0,0:2:0:0:
96,204,33357,5,0,1:2:0:0:
168,204,33457,1,0,0:2:0:0:
240,204,33557,1,0,1:2:0:0:
168,204,33657,1,0,0:2:0:0:
348,148,33757,1,8,0:2:0:0:
276,148,33857,1,0,0:2:0:0:
112,144,33957,1,0,0:2:0:0:
40,144,34057,1,0,0:2:0:0:
216,84,34157,5,0,1:2:0:0:
288,84,34257,1,0,0:2:0:0:
216,84,34357,1,0,0:2:0:0:
288,84,34457,1,0,0:2:0:0:
84,272,34557,1,8,0:2:0:0:
12,272,34657,1,0,0:2:0:0:
84,272,34757,1,0,0:2:0:0:
12,272,34857,1,0,0:2:0:0:
200,224,34957,5,0,1:2:0:0:
200,152,35057,1,0,0:2:0:0:
136,152,35157,1,0,1:2:0:0:
136,88,35257,1,0,0:2:0:0:
304,84,35357,1,8,0:2:0:0:
368,84,35457,1,0,0:2:0:0:
368,84,35557,1,0,0:2:0:0:
304,84,35657,1,0,0:2:0:0:
120,348,35757,5,0,1:2:0:0:
56,348,35857,1,0,0:2:0:0:
56,348,35957,1,0,0:2:0:0:
120,348,36057,1,0,0:2:0:0:
288,348,36157,1,8,0:2:0:0:
288,276,36257,1,0,0:2:0:0:
224,276,36357,1,0,0:2:0:0:
224,212,36457,1,0,0:2:0:0:
404,156,36557,5,0,1:2:0:0:
332,156,36657,1,0,0:2:0:0:
404,156,36757,1,0,1:2:0:0:
476,156,36857,1,0,0:2:0:0:
296,92,36957,1,8,0:2:0:0:
224,92,37057,1,0,0:2:0:0:
416,36,37157,1,0,0:2:0:0:
344,36,37257,1,0,0:2:0:0:
156,348,37357,5,4,1:2:0:0:
328,348,37457,1,0,0:2:0:0:
328,276,37557,1,0,0:2:0:0:
256,276,37657,1,0,0:2:0:0:
432,208,37757,1,8,0:2:0:0:
256,200,37857,1,0,0:2:0:0:
184,200,37957,1,0,0:2:0:0:
256,200,38057,1,0,0:2:0:0:
80,144,38157,5,0,1:2:0:0:
8,144,38257,1,0,0:2:0:0:
216,80,38357,1,8,0:2:0:0:
144,80,38457,1,8,0:2:0:0:
324,348,38557,1,8,1:2:0:0:
324,276,38657,1,0,0:2:0:0:
136,276,38757,1,0,1:2:0:0:
100,276,38807,1,0,1:2:0:0:
100,276,38857,1,0,1:2:0:0:
136,276,38907,1,0,1:2:0:0:
300,188,38957,5,4,1:2:0:0:
132,188,39157,1,2,0:2:0:0:
404,128,39357,2,0,L|404:268,1,129.999994049073,10|0,0:2|1:2,0:2:0:0:
96,304,39757,2,0,L|264:304,1,129.999994049073,2|0,1:2|0:2,0:2:0:0:
420,304,40057,2,0,L|272:304,1,129.999994049073,2|0,1:2|0:2,0:2:0:0:
96,304,40357,2,0,L|188:304,1,64.9999970245363,2|0,1:2|0:2,0:2:0:0:
336,212,40557,5,0,1:2:0:0:
152,212,40757,1,2,0:2:0:0:
424,188,40957,2,0,L|504:188,1,64.9999970245363,10|0,0:2|0:2,0:2:0:0:
489,188,41157,2,0,L|401:188,1,64.9999970245363,0|0,1:2|0:2,1:2:0:0:
224,280,41357,2,0,L|364:280,1,129.999994049073,2|0,1:2|0:2,0:2:0:0:
156,232,41657,2,0,P|120:168|180:128,1,129.999994049073,2|0,1:2|0:2,0:2:0:0:
348,132,41957,2,0,L|432:132,1,64.9999970245363,2|0,1:2|0:2,0:2:0:0:
236,104,42157,5,0,1:2:0:0:
420,48,42357,1,2,0:2:0:0:
116,316,42557,2,0,L|32:316,1,64.9999970245363,10|0,0:2|0:2,0:2:0:0:
116,316,42757,2,0,L|196:316,1,64.9999970245363,0|0,1:2|0:2,0:2:0:0:
413,228,42957,2,0,L|265:228,1,129.999994049073,2|0,1:2|0:2,0:2:0:0:
89,164,43257,2,0,L|233:164,1,129.999994049073,2|0,1:2|0:2,0:2:0:0:
413,228,43557,2,0,L|301:228,1,64.9999970245363,2|0,1:2|0:2,0:2:0:0:
152,112,43757,6,0,L|232:112,1,64.9999970245363,0|0,1:2|0:2,0:2:0:0:
408,144,43957,2,0,L|408:232,1,64.9999970245363,2|0,0:2|0:2,0:2:0:0:
168,268,44157,2,0,L|304:268,1,129.999994049073,10|0,0:2|1:2,0:2:0:0:
228,268,44457,1,0,0:2:0:0:
432,196,44557,6,0,L|276:196,1,129.999994049073,2|0,1:2|0:2,0:2:0:0:
136,144,44857,1,2,1:2:0:0:
208,144,44957,1,0,0:2:0:0:
280,144,45057,1,0,0:2:0:0:
108,88,45157,2,0,L|32:88,2,64.9999970245363,2|0|0,1:2|0:2|0:2,0:2:0:0:
480,80,45557,6,0,B|196:80|196:80|196:400,1,559.999982910157,6|0,1:2|1:2,0:2:0:0:
460,224,46157,2,0,L|292:224,1,129.999994049073,2|0,1:2|0:2,0:2:0:0:
132,224,46457,2,0,L|280:224,1,129.999994049073,2|0,1:2|0:2,0:2:0:0:
464,224,46757,2,0,L|380:224,1,64.9999970245363,2|0,1:2|0:2,0:2:0:0:
224,112,46957,5,0,1:2:0:0:
408,140,47157,1,2,0:2:0:0:
132,280,47357,2,0,L|296:280,1,129.999994049073,10|0,0:2|1:2,0:2:0:0:
262,280,47657,1,0,0:2:0:0:
60,132,47757,6,0,L|204:132,1,129.999994049073,2|0,1:2|0:2,0:2:0:0:
384,132,48057,2,0,L|236:132,1,129.999994049073,2|0,1:2|0:2,0:2:0:0:
60,132,48357,2,0,L|140:132,1,64.9999970245363,2|0,1:2|0:2,0:2:0:0:
312,304,48557,5,6,1:2:0:0:
140,252,48757,1,2,0:2:0:0:
404,248,48957,2,2,L|260:248,1,129.999994049073,10|2,0:2|1:2,0:2:0:0:
340,248,49257,1,2,1:2:0:0:
148,200,49357,6,0,L|148:128,1,64.9999970245363,2|0,1:2|0:2,0:2:0:0:
344,132,49557,2,0,L|420:132,1,64.9999970245363,2|0,1:2|0:2,0:2:0:0:
236,72,49757,1,10,0:2:0:0:
420,64,49957,1,2,1:2:0:0:
144,320,50157,6,0,L|312:320,1,129.999994049073,6|10,1:2|0:2,0:2:0:0:
208,320,50457,1,2,0:2:0:0:
380,240,50557,2,0,L|284:240,1,64.9999970245363,8|2,1:2|0:2,0:2:0:0:
244,240,50757,2,0,L|244:148,1,64.9999970245363,0|2,0:2|0:2,0:2:0:0:
424,132,50957,5,2,1:2:0:0:
340,132,51057,2,0,L|340:28,1,64.9999970245363,2|0,1:2|1:2,1:2:0:0:
376,68,51207,1,0,1:2:0:0:
412,68,51257,1,2,1:2:0:0:
376,68,51307,1,0,1:2:0:0:
180,352,51357,2,0,L|88:352,2,64.9999970245363,0|0|0,1:2|1:2|1:2,1:2:0:0:
468,352,51757,5,4,1:2:0:0:
286,354,51957,2,0,L|286:198,1,129.999994049073,2|0,0:2|1:2,0:2:0:0:
104,220,52357,1,2,0:2:0:0:
286,224,52557,2,0,L|466:224,1,129.999994049073,2|0,1:2|0:2,0:2:0:0:
234,221,52957,1,2,1:2:0:0:
416,224,53157,6,0,L|416:84,1,129.999994049073,2|0,0:2|1:2,0:2:0:0:
234,94,53557,2,2,L|382:94,1,129.999994049073,2|2,0:2|1:2,0:2:0:0:
182,95,53957,1,2,0:2:0:0:
364,94,54157,2,0,L|364:278,1,129.999994049073,2|0,1:2|0:2,0:2:0:0:
182,220,54557,1,2,1:2:0:0:
364,224,54757,1,2,0:2:0:0:
36,152,54957,5,2,1:1:0:0:
217,148,55157,2,2,L|65:148,1,129.999994049073,2|2,0:2|1:2,0:2:0:0:
268,147,55557,1,2,0:2:0:0:
87,148,55757,1,2,1:2:0:0:
268,147,55957,2,2,L|128:147,1,129.999994049073,2|2,0:2|1:2,0:2:0:0:
319,147,56357,6,0,L|319:319,1,129.999994049073,2|0,0:2|1:2,0:2:0:0:
137,274,56757,2,0,L|-15:274,2,129.999994049073,2|0|0,0:2|1:2|0:2,0:2:0:0:
318,284,57357,1,0,1:2:0:0:
137,274,57557,2,0,L|137:106,1,129.999994049073,2|0,0:2|1:2,0:2:0:0:
318,152,57957,1,2,0:2:0:0:
16,88,58157,6,0,L|168:88,1,129.999994049073,2|0,1:1|0:2,0:2:0:0:
327,84,58557,1,2,1:2:0:0:
146,88,58757,2,0,L|306:88,2,129.999994049073,2|0|0,0:2|1:2|0:2,0:2:0:0:
327,84,59357,1,2,1:2:0:0:
144,84,59557,1,2,0:2:0:0:
440,348,59757,5,2,1:1:0:0:
258,349,59957,2,0,L|258:193,1,129.999994049073,2|0,0:2|1:2,0:2:0:0:
440,220,60357,2,0,L|300:220,2,129.999994049073,2|0|0,0:2|1:2|0:2,0:2:0:0:
258,219,60957,2,0,L|110:219,1,129.999994049073,2|0,1:2|0:2,0:2:0:0:
464,232,61357,6,0,L|464:76,1,129.999994049073,2|0,1:1|0:2,0:2:0:0:
282,107,61757,1,2,1:2:0:0:
464,108,61957,1,2,0:2:0:0:
282,107,62157,2,0,L|114:107,1,129.999994049073,0|0,1:2|0:2,0:2:0:0:
333,107,62557,2,0,L|333:295,1,129.999994049073,0|0,1:2|0:2,0:2:0:0:
48,344,62957,6,0,L|48:176,1,129.999994049073,0|0,1:2|0:2,0:2:0:0:
344,136,63357,1,2,1:2:0:0:
512,136,63457,1,2,1:2:0:0:
344,140,63557,1,2,1:2:0:0:
176,136,63657,1,2,1:2:0:0:
344,140,63757,1,2,1:2:0:0:
176,136,63857,1,2,1:2:0:0:
8,136,63957,1,2,1:2:0:0:
176,140,64057,1,2,1:2:0:0:
344,92,64157,6,0,L|40:92,1,270.000001029968,0|0,1:2|0:2,0:2:0:0:
36,92,64407,1,0,0:2:0:0:
0,92,64457,1,0,0:2:0:0:
36,92,64507,1,0,0:2:0:0:
220,308,64557,5,4,1:2:0:0:
285,308,64657,1,0,0:2:0:0:
108,228,64757,1,2,0:2:0:0:
173,228,64857,1,0,0:2:0:0:
352,224,64957,2,0,L|352:136,1,64.9999970245363,10|0,0:2|0:2,0:2:0:0:
287,162,65157,1,2,0:2:0:0:
222,162,65257,1,0,0:2:0:0:
404,88,65357,5,2,1:2:0:0:
339,88,65457,1,0,0:2:0:0:
404,88,65557,1,0,1:2:0:0:
469,88,65657,1,0,0:2:0:0:
288,344,65757,1,10,0:2:0:0:
223,344,65857,1,0,0:2:0:0:
392,248,65957,1,2,0:2:0:0:
327,248,66057,1,0,0:2:0:0:
262,248,66157,5,0,1:2:0:0:
327,248,66257,1,0,0:2:0:0:
152,156,66357,1,2,0:2:0:0:
216,156,66457,1,0,0:2:0:0:
388,156,66557,2,0,L|388:72,1,64.9999970245363,10|0,0:2|0:2,0:2:0:0:
208,96,66757,1,2,0:2:0:0:
143,96,66857,1,0,0:2:0:0:
328,312,66957,5,2,1:2:0:0:
263,311,67057,1,0,0:2:0:0:
198,311,67157,1,0,1:2:0:0:
198,311,67257,1,0,0:2:0:0:
376,180,67357,1,10,0:2:0:0:
311,180,67457,1,0,0:2:0:0:
124,172,67557,1,2,0:2:0:0:
59,172,67657,1,0,0:2:0:0:
248,132,67757,6,0,L|248:52,1,64.9999970245363,0|0,1:2|0:2,0:2:0:0:
172,64,67957,2,0,L|172:152,1,64.9999970245363,0|0,0:2|0:2,0:2:0:0:
340,356,68157,1,10,0:2:0:0:
404,355,68257,1,0,0:2:0:0:
224,280,68357,1,2,0:2:0:0:
288,278,68457,1,0,0:2:0:0:
472,208,68557,5,2,1:2:0:0:
407,208,68657,1,0,0:2:0:0:
342,208,68757,1,0,1:2:0:0:
407,208,68857,1,0,0:2:0:0:
232,160,68957,1,10,0:2:0:0:
167,160,69057,1,0,0:2:0:0:
344,96,69157,1,2,0:2:0:0:
408,95,69257,1,0,0:2:0:0:
408,95,69357,5,0,1:2:0:0:
344,96,69457,1,0,0:2:0:0:
152,356,69557,1,2,0:2:0:0:
216,356,69657,1,0,0:2:0:0:
280,360,69757,2,0,L|280:260,1,64.9999970245363,8|0,0:2|0:2,0:2:0:0:
215,299,69957,1,0,0:2:0:0:
150,299,70057,1,0,0:2:0:0:
215,299,70157,5,0,1:2:0:0:
280,295,70257,1,0,0:2:0:0:
88,140,70357,1,2,1:2:0:0:
152,139,70457,1,0,0:2:0:0:
376,52,70557,1,10,0:2:0:0:
311,52,70657,1,0,0:2:0:0:
124,56,70757,1,2,0:2:0:0:
59,56,70857,1,0,0:2:0:0:
248,336,70957,5,4,1:2:0:0:
313,336,71057,1,0,0:2:0:0:
248,336,71157,1,0,0:2:0:0:
183,335,71257,1,0,0:2:0:0:
368,264,71357,1,10,0:2:0:0:
303,264,71457,1,0,0:2:0:0:
136,200,71557,1,2,0:2:0:0:
200,203,71657,1,0,0:2:0:0:
264,200,71757,5,0,1:2:0:0:
200,203,71857,1,0,0:2:0:0:
264,200,71957,1,0,1:2:0:0:
328,200,72057,1,0,0:2:0:0:
156,136,72157,1,10,0:2:0:0:
91,136,72257,1,0,0:2:0:0:
260,132,72357,2,0,L|260:48,1,64.9999970245363,2|0,0:2|0:2,0:2:0:0:
195,67,72557,5,0,1:2:0:0:
130,68,72657,1,0,0:2:0:0:
324,312,72757,1,2,0:2:0:0:
259,312,72857,1,0,0:2:0:0:
194,312,72957,1,8,0:2:0:0:
129,312,73057,1,0,0:2:0:0:
340,228,73157,1,2,0:2:0:0:
275,227,73257,1,0,0:2:0:0:
340,228,73357,5,0,1:2:0:0:
404,227,73457,1,0,0:2:0:0:
468,232,73557,2,0,L|468:136,1,64.9999970245363,0|0,1:2|0:2,0:2:0:0:
292,160,73757,1,10,0:2:0:0:
227,160,73857,1,0,0:2:0:0:
292,160,73957,1,0,0:2:0:0:
356,160,74057,1,0,0:2:0:0:
180,352,74157,6,0,L|180:268,1,64.9999970245363,6|0,1:2|0:2,0:2:0:0:
252,288,74357,2,0,L|252:192,1,64.9999970245363,0|0,0:2|0:2,0:2:0:0:
64,164,74557,1,10,0:2:0:0:
129,164,74657,1,0,0:2:0:0:
304,116,74757,1,2,0:2:0:0:
239,116,74857,1,0,0:2:0:0:
304,116,74957,5,0,1:2:0:0:
369,116,75057,1,0,0:2:0:0:
304,116,75157,2,0,L|304:204,1,64.9999970245363,0|0,1:2|0:2,0:2:0:0:
480,68,75357,1,8,0:2:0:0:
415,68,75457,1,0,0:2:0:0:
350,67,75557,1,0,0:2:0:0:
415,68,75657,1,0,0:2:0:0:
232,332,75757,5,0,1:2:0:0:
296,333,75857,1,0,1:2:0:0:
120,284,75957,2,0,L|272:284,1,129.999994049073,0|8,1:2|0:2,0:2:0:0:
56,232,76257,2,0,P|32:168|76:116,1,129.999994049073,0|8,1:2|0:2,0:2:0:0:
236,120,76557,5,0,1:2:0:0:
171,121,76657,1,8,0:2:0:0:
344,64,76757,1,0,1:2:0:0:
279,64,76857,1,8,0:2:0:0:
448,68,76957,2,8,L|448:152,1,64.9999970245363,0|0,1:2|1:2,1:2:0:0:
272,248,77157,1,0,1:2:0:0:
236,248,77207,1,0,1:2:0:0:
200,248,77257,1,0,1:2:0:0:
236,248,77307,1,0,1:2:0:0:
432,176,77357,6,0,L|224:176,1,194.999991073609,6|0,0:2|0:2,0:2:0:0:
304,176,77757,2,0,L|456:176,1,129.999994049073,2|0,0:2|0:2,0:2:0:0:
228,116,78157,1,2,0:2:0:0:
488,176,78357,2,0,L|488:320,1,129.999994049073,2|0,0:2|0:2,0:2:0:0:
292,288,78757,1,2,0:2:0:0:
228,288,78857,1,2,0:2:0:0:
428,116,78957,5,2,0:2:0:0:
356,116,79057,1,2,0:2:0:0:
484,120,79223,1,2,0:2:0:0:
272,344,79357,1,2,0:2:0:0:
368,344,79507,1,2,0:2:0:0:
136,280,79607,1,2,0:2:0:0:
48,276,79757,5,0,0:2:0:0:
320,352,79957,2,0,L|320:212,1,129.999994049073,2|0,0:2|0:2,0:2:0:0:
32,256,80357,1,2,0:2:0:0:
364,200,80557,5,6,1:2:0:0:
167,148,80757,2,2,L|475:148,1,285.000002717972,2|2,0:2|0:2,0:2:0:0:
52,136,81157,1,2,1:2:0:0:
344,92,81357,5,4,0:2:0:0:
176,92,81557,2,2,L|488:92,1,285.000002717972,2|2,0:2|0:2,0:2:0:0:
176,36,81957,1,2,1:2:0:0:
456,364,82157,6,0,L|456:220,1,129.999994049073,6|0,1:2|0:2,0:2:0:0:
260,232,82557,2,0,L|260:68,1,129.999994049073,2|0,0:2|0:2,0:2:0:0:
452,76,82957,2,0,P|364:84|456:368,1,519.99997619629,2|0,0:2|0:2,0:2:0:0:
