osu file format v14

[General]
AudioFilename: audio.mp3
AudioLeadIn: 0
PreviewTime: 557
Countdown: 0
SampleSet: Soft
StackLeniency: 0.7
Mode: 2
LetterboxInBreaks: 0
WidescreenStoryboard: 1

[Editor]
Bookmarks: 19757,33357,34157,36557,37357,51757,54957,58157,61357
DistanceSpacing: 1
BeatDivisor: 4
GridSize: 8
TimelineZoom: 2.299999

[Metadata]
Title:Motteke! Sailor Fuku (TV Size)
TitleUnicode:もってけ!セーラーふく (TV Size)
Artist:Hirano Aya, Katou Emiri, Fukuhara Kaori, Endou Aya
ArtistUnicode:平野綾、加藤英美里、福原香織、遠藤綾
Creator:Kukkai
Version:050's Cup
Source:らき☆すた
Tags:050 bigh bighzonda 泉こなた 柊かがみ 柊つかさ 高良みゆき Izumi Konata Hiiragi Kagami Hiiragi Tsukasa Takara Miyuki Lucky Star OP opening anime japanese jpop j-pop
BeatmapID:3808651
BeatmapSetID:1822454

[Difficulty]
HPDrainRate:2
CircleSize:2
OverallDifficulty:6
ApproachRate:6
SliderMultiplier:1.6
SliderTickRate:1

[Events]
//Background and Video events
0,0,"bgggggggggggggggggggggggggggg.jpg",0,0
Video,-275,"vdo.mp4"
//Break Periods
//Storyboard Layer 0 (Background)
//Storyboard Layer 1 (Fail)
//Storyboard Layer 2 (Pass)
//Storyboard Layer 3 (Foreground)
//Storyboard Layer 4 (Overlay)
//Storyboard Sound Samples

[TimingPoints]
557,400,4,2,1,60,1,0
557,-100,4,2,1,60,0,0
10557,-100,4,2,1,60,0,0
10957,-100,4,2,1,60,0,0
11357,-100,4,2,1,60,0,0
11757,-100,4,2,1,60,0,0
13357,-100,4,2,1,60,0,0
19757,-100,4,2,1,50,0,0
26157,-100,4,2,1,55,0,0
32557,-100,4,2,1,50,0,0
38957,-100,4,2,1,60,0,0
45557,-100,4,2,1,60,0,0
45957,-100,4,2,1,60,0,0
51757,-100,4,2,1,50,0,0
64157,-100,4,2,1,60,0,0
64357,-100,4,2,1,60,0,1
64557,-100,4,2,1,70,0,1
77357,-100,4,2,1,60,0,0
80757,-100,4,2,1,60,0,0
80957,-100,4,2,1,60,0,0
81557,-100,4,2,1,60,0,0
81757,-100,4,2,1,60,0,0
83757,-100,4,2,1,5,0,0

[Colours]
Combo1 : 114,214,136
Combo2 : 0,158,234
Combo3 : 138,138,255
Combo4 : 255,121,255

[HitObjects]
241,150,557,6,0,L|66:129,2,160,6|2|2,0:2|0:2|0:2,0:0:0:0:
321,162,1557,1,2,0:2:0:0:
161,190,1957,1,2,0:2:0:0:
81,196,2157,6,0,P|61:133|125:55,1,160,2|2,0:2|0:2,0:0:0:0:
191,57,2757,1,2,0:2:0:0:
351,58,3157,1,2,0:2:0:0:
191,57,3557,1,2,0:2:0:0:
271,69,3757,6,0,L|442:89,2,160,4|2|2,0:2|0:2|0:2,0:0:0:0:
150,55,4857,1,2,0:2:0:0:
270,40,5157,1,2,0:2:0:0:
350,36,5357,6,0,P|367:95|291:180,1,160,2|2,0:2|0:2,0:0:0:0:
235,174,5957,1,2,0:2:0:0:
75,174,6357,1,2,0:2:0:0:
235,174,6757,1,2,0:2:0:0:
155,221,6957,6,0,L|138:113,1,80,6|2,0:2|0:2,0:0:0:0:
303,104,7557,1,2,0:2:0:0:
383,108,7757,2,0,L|394:17,1,80,2|2,0:2|0:2,0:0:0:0:
233,221,8357,1,2,0:2:0:0:
313,224,8557,5,4,0:2:0:0:
334,140,8757,2,0,L|161:125,1,160,2|2,0:2|0:2,0:0:0:0:
153,38,9357,1,2,0:2:0:0:
313,41,9757,1,2,0:2:0:0:
393,45,9957,1,10,0:2:0:0:
313,140,10157,6,0,L|51:158,1,240,4|10,0:2|0:2,0:0:0:0:
73,156,10957,2,0,L|334:176,1,240,6|10,0:2|0:2,0:0:0:0:
392,188,11757,5,6,1:2:0:0:
312,174,11957,1,2,0:2:0:0:
232,160,12157,2,0,P|177:139|219:43,1,160,10|2,0:2|1:3,0:0:0:0:
348,39,12957,1,10,0:2:0:0:
156,198,13357,6,0,L|493:171,1,320,4|2,1:2|1:2,0:0:0:0:
434,108,14357,1,2,1:2:0:0:
348,85,14557,1,10,0:2:0:0:
188,234,14957,6,0,P|150:194|200:107,1,160,2|10,1:2|0:2,0:0:0:0:
351,72,15757,2,0,L|171:65,1,160,2|10,1:2|0:2,0:0:0:0:
352,216,16557,5,2,1:2:0:0:
432,208,16757,1,0,0:0:0:0:
472,143,16957,1,10,0:2:0:0:
432,208,17157,1,2,0:2:0:0:
352,216,17357,2,0,L|154:221,1,160,2|10,1:2|0:2,0:0:0:0:
352,133,18157,5,2,1:2:0:0:
352,133,18357,1,2,1:2:0:0:
272,174,18557,1,10,0:2:0:0:
272,174,18757,1,2,0:2:0:0:
352,133,18957,2,0,P|415:113|358:64,1,160,10|10,0:2|0:2,0:0:0:0:
192,287,19757,6,0,P|192:233|289:175,1,160,6|10,1:2|0:2,0:0:0:0:
437,136,20557,1,2,1:2:0:0:
277,122,20957,1,10,0:2:0:0:
137,63,21357,6,0,P|83:91|94:194,1,160,2|10,1:2|0:2,0:0:0:0:
242,201,22157,1,2,1:2:0:0:
82,181,22557,1,10,0:2:0:0:
242,201,22957,6,0,L|263:28,1,160,2|10,1:2|0:2,0:0:0:0:
100,43,23757,1,2,1:2:0:0:
260,40,24157,1,10,0:2:0:0:
420,36,24557,6,0,P|422:93|316:166,1,160,2|10,1:2|0:2,0:0:0:0:
193,167,25357,1,2,1:2:0:0:
353,156,25757,1,8,0:2:0:0:
191,263,26157,6,0,P|147:243|192:137,1,160,4|10,1:2|0:2,0:0:0:0:
319,126,26957,1,2,1:2:0:0:
399,107,27157,1,2,1:2:0:0:
319,126,27357,1,10,0:2:0:0:
159,146,27757,6,0,P|132:76|190:29,1,160,2|8,1:2|0:2,0:0:0:0:
353,32,28557,1,2,1:2:0:0:
273,29,28757,1,2,1:2:0:0:
193,30,28957,1,10,0:2:0:0:
353,159,29357,6,0,L|165:162,1,160,2|10,1:2|0:2,0:0:0:0:
33,159,30157,1,0,1:2:0:0:
22,101,30357,1,2,1:2:0:0:
11,46,30557,1,10,0:2:0:0:
172,35,30957,6,0,L|331:32,1,160,2|10,1:2|0:2,0:0:0:0:
492,38,31757,1,10,1:2:0:0:
404,69,31957,1,2,1:2:0:0:
316,99,32157,1,10,1:2:0:0:
156,241,32557,6,0,P|106:218|136:123,1,160,4|8,1:2|0:2,0:0:0:0:
285,184,33357,1,0,1:2:0:0:
307,134,33557,1,0,1:2:0:0:
228,122,33757,1,8,0:2:0:0:
67,204,34157,6,0,L|49:29,1,160,0|8,1:2|0:2,0:0:0:0:
209,29,34957,2,0,L|40:45,1,160,0|8,1:2|0:2,0:0:0:0:
209,29,35757,6,0,P|264:48|229:147,1,160,0|8,1:2|0:2,0:0:0:0:
94,139,36557,2,0,P|39:158|74:257,1,160,0|8,1:2|0:2,0:0:0:0:
209,165,37357,5,4,1:2:0:0:
290,145,37557,1,0,0:2:0:0:
250,71,37757,1,8,0:2:0:0:
90,257,38157,2,0,L|259:241,1,160,0|8,1:2|1:2,0:0:0:0:
73,188,38957,5,4,1:2:0:0:
114,123,39157,1,2,0:2:0:0:
193,119,39357,1,10,0:2:0:0:
354,118,39757,1,2,1:2:0:0:
233,107,40057,1,2,1:2:0:0:
113,96,40357,1,2,1:2:0:0:
274,213,40757,5,2,0:2:0:0:
314,142,40957,1,10,0:2:0:0:
153,122,41357,2,0,P|110:110|74:35,2,120,2|2|2,1:2|1:2|1:2,0:0:0:0:
313,134,42357,5,2,0:2:0:0:
233,129,42557,1,10,0:2:0:0:
73,93,42957,1,2,1:2:0:0:
193,81,43257,1,2,1:2:0:0:
313,73,43557,1,2,1:2:0:0:
150,226,43957,5,2,0:2:0:0:
110,149,44157,1,10,0:2:0:0:
270,123,44557,2,0,L|128:115,2,120,2|2|2,1:2|1:2|1:2,0:0:0:0:
446,193,45557,6,0,L|174:188,1,240,6|2,1:2|1:2,0:0:0:0:
86,191,46457,1,2,1:2:0:0:
206,158,46757,1,2,1:2:0:0:
366,136,47157,5,2,0:2:0:0:
325,86,47357,1,10,0:2:0:0:
164,71,47757,2,0,L|301:66,2,120,2|2|2,1:2|1:2|1:2,0:0:0:0:
84,168,48557,5,6,1:2:0:0:
124,218,48757,1,2,0:2:0:0:
205,220,48957,1,10,0:2:0:0:
366,221,49357,2,0,P|403:181|333:88,1,160,2|10,1:2|0:2,0:0:0:0:
208,56,50157,6,0,L|97:63,2,80,6|10|8,1:2|0:2|1:2,0:0:0:0:
368,129,50957,2,0,L|393:305,1,160,2|0,1:2|1:2,0:0:0:0:
214,256,51757,6,0,P|94:68|252:266,1,1120,4|2,1:2|1:2,0:0:0:0:
95,279,54957,6,0,B|78:195|135:131|135:131|291:176|291:176|327:105|339:25|339:25|187:20|159:110|193:193|297:196|297:196|462:219|492:119|479:38|400:43,1,1120,2|2,1:1|0:2,0:0:0:0:
259,64,58157,6,0,P|306:241|330:61,1,480,2|2,1:1|0:2,0:0:0:0:
197,247,59757,6,0,P|342:251|257:16,1,480,2|2,1:1|1:2,0:0:0:0:
116,137,61357,6,0,B|435:159|435:159|208:200|208:200|112:144,1,640,2|0,1:1|1:2,0:0:0:0:
256,192,63357,12,0,64157,1:2:0:0:
347,206,64557,5,4,1:2:0:0:
387,136,64757,1,2,0:2:0:0:
307,112,64957,1,10,0:2:0:0:
147,90,65357,2,0,P|80:110|61:196,1,160,2|10,1:2|0:2,0:0:0:0:
140,187,65957,6,0,L|410:178,1,240,2|10,0:2|0:2,0:0:0:0:
430,148,66757,1,2,0:2:0:0:
396,116,66957,2,0,L|205:126,1,160,2|10,1:2|0:2,0:0:0:0:
75,138,67757,6,0,P|28:121|84:41,1,160,0|10,1:2|0:2,0:0:0:0:
220,258,68557,2,0,P|278:242|330:138,1,160,2|10,1:2|0:2,0:0:0:0:
271,91,69157,1,2,0:2:0:0:
111,191,69557,6,0,L|378:165,1,240,2|0,0:2|1:2,0:0:0:0:
189,179,70557,1,10,0:2:0:0:
269,172,70757,1,2,0:2:0:0:
189,179,70957,6,0,P|137:153|201:76,1,160,4|10,1:2|0:2,0:0:0:0:
330,157,71757,1,0,1:2:0:0:
322,93,71957,1,0,1:2:0:0:
241,88,72157,1,10,0:2:0:0:
401,223,72557,6,0,P|449:198|401:109,1,160,0|8,1:2|0:2,0:0:0:0:
260,111,73357,1,0,1:2:0:0:
179,106,73557,1,0,1:2:0:0:
139,48,73757,1,10,0:2:0:0:
299,208,74157,6,0,P|310:151|211:106,1,160,6|10,1:2|0:2,0:0:0:0:
75,267,74957,2,0,L|249:232,1,160,0|8,1:2|0:2,0:0:0:0:
71,153,75757,5,0,1:2:0:0:
231,122,76157,1,8,0:2:0:0:
279,106,76357,1,0,0:0:0:0:
231,122,76557,1,0,1:2:0:0:
71,153,76957,1,0,1:2:0:0:
263,193,77357,6,0,L|438:172,2,160,6|2|2,0:2|0:2|0:2,0:0:0:0:
183,205,78357,1,2,0:2:0:0:
343,233,78757,1,2,0:2:0:0:
423,239,78957,6,0,P|443:176|379:98,1,160,2|2,0:2|0:2,0:0:0:0:
292,104,79607,1,0,0:0:0:0:
153,101,79957,1,2,0:2:0:0:
313,128,80357,1,2,0:2:0:0:
232,182,80557,6,0,L|224:74,1,80,6|2,1:2|0:2,0:0:0:0:
386,218,81157,1,2,1:2:0:0:
305,272,81357,2,0,L|297:164,1,80,4|2,0:2|0:2,0:0:0:0:
459,96,81957,1,2,1:2:0:0:
378,150,82157,6,0,L|197:140,1,160,6|2,1:2|0:2,0:0:0:0:
379,259,82957,2,0,P|423:238|331:42,1,320,2|0,0:2|0:2,0:0:0:0:
