osu file format v14

[General]
AudioFilename: audio.mp3
AudioLeadIn: 0
PreviewTime:39071
Countdown: 0
SampleSet: Soft
StackLeniency: 0.5
Mode: 0
LetterboxInBreaks: 0
WidescreenStoryboard: 1
EpilepsyWarning: 1

[Editor]
DistanceSpacing: 1
BeatDivisor: 4
GridSize: 16
TimelineZoom: 1

[Metadata]
Title:Tomare! (TV Size)
TitleUnicode:止マレ!(TV Size)
Artist:Hirano Aya, Chihara Minori, Gotou Yuuko
ArtistUnicode:平野綾、茅原実里、後藤邑子
Creator:KennethBBG
Version:Normal!
Source:涼宮ハルヒの憂鬱
Tags:My Angel Jeremy rock jrock j-rock j-pop anime japanese the melancholy of haruhi suzumiya no yuutsu Nagato Yuki Asahina Mikuru stop! ending ED theme season 2 s2 2期 two gotou yuuko 涼宮 ハルヒ 長門 有希 朝比奈 みくる female vocal kyoani kyoto animation
BeatmapID:3758897
BeatmapSetID:1831232

[Difficulty]
HPDrainRate:4
CircleSize:3.3
OverallDifficulty:4
ApproachRate:5
SliderMultiplier:1.1
SliderTickRate:1

[Events]
//Background and Video events
0,0,"Background.jpg",0,0
Video,-160,"background video.mp4"
//Break Periods
//Storyboard Layer 0 (Background)
//Storyboard Layer 1 (Fail)
//Storyboard Layer 2 (Pass)
//Storyboard Layer 3 (Foreground)
//Storyboard Layer 4 (Overlay)
//Storyboard Sound Samples

[TimingPoints]
-2614,327.868852459016,4,2,1,60,1,0
1812,-100,4,2,1,70,0,0
1858,-100,4,2,1,70,0,0
5254,-100,4,2,1,80,0,0
6400,-111.111111111111,4,2,1,80,0,0
7877,-111.111111111111,4,2,1,75,0,0
15746,-111.111111111111,4,2,1,55,0,0
28861,-111.111111111111,4,2,1,60,0,0
34107,-111.111111111111,4,2,1,65,0,0
38041,-111.111111111111,4,2,1,70,0,0
39353,-100,4,2,1,65,0,1
48533,-100,4,2,1,70,0,1
49845,-100,4,2,1,65,0,1
53615,-100,4,2,1,70,0,1
55090,-100,4,2,1,65,0,1
61648,-100,4,2,1,70,0,1
62631,-100,4,2,1,75,0,0

[Colours]
Combo1 : 255,186,0
Combo2 : 0,156,234
Combo3 : 24,109,38
Combo4 : 255,43,43

[HitObjects]
31,94,2304,6,0,L|107:81,1,55,8|8,0:2|0:2,0:0:0:0:
121,43,2631,1,6,3:2:0:0:
230,54,2959,1,10,0:2:0:0:
269,157,3288,2,0,P|322:157|364:123,1,110,2|10,3:2|0:2,0:0:0:0:
478,117,3943,2,0,L|475:253,1,110,2|8,3:2|0:2,0:0:0:0:
496,278,4435,2,0,P|440:273|385:300,1,110,2|2,3:2|3:2,0:0:0:0:
350,331,4927,1,8,0:2:0:0:
241,314,5254,5,14,0:2:0:0:
160,384,5582,1,10,0:2:0:0:
69,331,5910,1,10,0:2:0:0:
69,331,6074,2,0,L|81:263,1,55,10|10,0:2|0:2,0:0:0:0:
90,228,6402,1,14,0:2:0:0:
493,19,7877,5,4,3:2:0:0:
465,114,8205,2,0,L|455:234,1,98.9999969787599,10|2,0:2|3:2,0:0:0:0:
421,310,8861,1,8,0:2:0:0:
421,310,9025,2,0,P|368:333|299:323,1,98.9999969787599,2|2,3:2|3:2,0:0:0:0:
278,326,9517,1,10,0:2:0:0:
261,228,9845,1,2,0:2:0:0:
298,139,10172,2,0,P|255:105|182:106,1,98.9999969787599,10|0,0:2|3:2,0:0:0:0:
135,161,10828,6,0,L|110:276,1,98.9999969787599,10|2,0:2|3:2,0:0:0:0:
203,313,11484,1,8,0:2:0:0:
203,313,11648,2,0,L|227:200,1,98.9999969787599,2|2,3:2|3:2,0:0:0:0:
235,167,12140,1,10,0:2:0:0:
262,71,12468,2,0,P|292:60|322:65,1,49.4999984893799,2|2,0:2|3:2,0:0:0:0:
357,72,12795,2,0,L|482:85,1,98.9999969787599,10|0,0:2|3:2,0:0:0:0:
455,181,13451,6,0,P|433:236|430:296,1,98.9999969787599,10|2,0:2|3:2,0:0:0:0:
342,320,14107,1,8,0:2:0:0:
342,320,14271,2,0,P|337:265|316:214,1,98.9999969787599,2|2,3:2|3:2,0:0:0:0:
297,180,14763,1,10,0:2:0:0:
197,182,15091,1,2,0:2:0:0:
125,114,15418,1,10,0:2:0:0:
163,26,15746,6,0,L|287:42,1,98.9999969787599,6|10,3:2|0:2,0:0:0:0:
308,53,16238,1,2,3:2:0:0:
403,78,16566,2,0,L|387:152,1,49.4999984893799,2|10,3:2|0:2,0:0:0:0:
363,166,16894,2,0,L|373:241,2,49.4999984893799,10|8|0,0:2|0:2|3:2,0:0:0:0:
317,144,17386,1,8,0:2:0:0:
222,172,17713,2,0,L|145:165,1,49.4999984893799,8|8,0:2|2:2,0:0:0:0:
123,158,18041,1,8,2:2:0:0:
42,215,18369,5,4,3:2:0:0:
89,302,18697,1,10,0:2:0:0:
179,261,19025,2,0,L|257:277,1,49.4999984893799,2|2,3:2|0:2,0:0:0:0:
281,280,19353,1,8,0:2:0:0:
281,280,19517,2,0,P|304:227|294:158,1,98.9999969787599,2|2,3:2|3:2,0:0:0:0:
281,142,20008,1,10,0:2:0:0:
310,47,20336,2,0,P|334:52|359:52,1,49.4999984893799,2|2,3:2|0:2,0:0:0:0:
406,39,20664,2,0,L|386:165,1,98.9999969787599,10|0,0:2|3:2,0:0:0:0:
435,225,21320,5,10,0:2:0:0:
337,243,21648,2,0,L|259:259,1,49.4999984893799,2|2,3:2|0:2,0:0:0:0:
244,244,21976,1,8,0:2:0:0:
244,244,22140,2,0,P|267:297|257:366,1,98.9999969787599,2|2,3:2|3:2,0:0:0:0:
240,379,22631,1,10,0:2:0:0:
142,362,22959,2,0,L|51:388,2,74.2499977340699,14|14|14,0:2|0:2|0:2,0:0:0:0:
133,215,23943,5,10,0:2:0:0:
77,132,24271,2,0,L|93:54,1,49.4999984893799,2|2,3:2|0:2,0:0:0:0:
117,45,24599,1,8,0:2:0:0:
117,45,24763,2,0,P|170:22|239:32,1,98.9999969787599,2|2,3:2|3:2,0:0:0:0:
256,40,25254,2,0,P|296:32|332:24,1,49.4999984893799,10|2,0:2|3:2,0:0:0:0:
353,20,25583,1,2,3:2:0:0:
424,87,25910,1,10,0:2:0:0:
371,171,26238,6,0,L|264:147,1,98.9999969787599,6|10,3:2|0:2,0:0:0:0:
225,140,26730,1,2,3:2:0:0:
194,234,27058,2,0,P|190:272|191:302,1,49.4999984893799,6|8,3:2|0:2,0:0:0:0:
197,332,27386,2,0,B|234:313|234:313|311:330,1,98.9999969787599,6|0,3:2|3:2,0:0:0:0:
332,351,27877,1,8,0:2:0:0:
404,283,28205,1,10,0:2:0:0:
345,203,28533,1,10,3:2:0:0:
374,108,28861,6,0,P|437:90|503:105,2,98.9999969787599,6|8|0,0:2|0:2|3:2,0:0:0:0:
337,82,29681,1,2,0:2:0:0:
337,82,29845,2,0,L|266:65,1,49.4999984893799,10|2,0:2|3:2,0:0:0:0:
239,74,30172,1,2,0:2:0:0:
144,70,30500,1,8,0:2:0:0:
144,70,30664,2,0,P|149:127|136:182,1,98.9999969787599,2|0,3:2|3:2,0:0:0:0:
125,215,31156,1,10,0:2:0:0:
151,310,31484,6,0,L|262:291,1,98.9999969787599,2|8,3:2|0:2,0:0:0:0:
293,204,32140,2,0,L|401:222,1,98.9999969787599,2|8,3:2|0:2,0:0:0:0:
488,203,32795,2,0,P|501:138|481:94,1,98.9999969787599,2|8,3:2|0:2,0:0:0:0:
402,64,33451,1,2,3:2:0:0:
308,97,33779,2,0,L|246:82,1,49.4999984893799,10|8,0:2|0:2,0:0:0:0:
211,72,34107,6,0,L|193:185,1,98.9999969787599,6|10,3:2|0:2,0:0:0:0:
241,187,34599,2,0,P|261:239|265:312,1,98.9999969787599,6|10,0:2|0:2,0:0:0:0:
274,330,35090,1,6,0:2:0:0:
372,302,35418,1,10,0:2:0:0:
372,302,35582,2,0,P|377:247|397:196,1,98.9999969787599,6|10,0:2|0:2,0:0:0:0:
426,170,36074,2,0,L|502:163,2,49.4999984893799,14|2|10,0:2|0:2|0:2,0:0:0:0:
399,127,36566,5,2,3:2:0:0:
335,58,36894,1,8,0:2:0:0:
335,58,37058,2,0,L|277:51,1,49.4999984893799,8|0,0:2|3:2,0:0:0:0:
236,55,37385,1,0,1:2:0:0:
150,104,37713,1,8,0:2:0:0:
168,201,38041,6,0,L|155:290,2,74.2499977340699,14|10|10,0:2|0:2|0:2,0:0:0:0:
212,179,38697,1,10,0:2:0:0:
301,220,39025,1,8,0:2:0:0:
395,164,39353,6,0,L|379:23,1,110,6|10,3:2|0:2,0:0:0:0:
370,0,39845,1,2,0:2:0:0:
260,10,40172,2,0,L|190:6,1,55,2|8,3:2|0:2,0:0:0:0:
150,16,40500,2,0,P|114:45|124:126,1,110,4|0,3:2|3:2,0:0:0:0:
140,151,40992,1,8,0:2:0:0:
197,244,41320,1,0,3:2:0:0:
131,331,41648,2,0,L|64:314,1,55,10|10,0:2|0:2,0:0:0:0:
23,306,41976,6,0,B|47:255|47:255|30:160,1,110,6|10,0:2|0:2,0:0:0:0:
14,151,42468,1,2,3:2:0:0:
53,48,42795,2,0,L|122:59,1,55,2|8,3:2|0:2,0:0:0:0:
154,85,43123,2,0,L|264:72,1,110,6|0,3:2|3:2,0:0:0:0:
318,76,43615,2,0,P|327:105|322:134,1,55,8|0,0:2|3:2,0:0:0:0:
279,232,44107,1,8,0:2:0:0:
279,232,44271,2,0,L|294:303,1,55,8|0,0:2|1:2,0:0:0:0:
329,325,44599,6,0,P|368:354|446:347,1,110,6|10,3:2|0:2,0:0:0:0:
473,325,45090,1,2,3:2:0:0:
456,216,45418,2,0,L|461:136,1,55,2|8,3:2|0:2,0:0:0:0:
473,110,45746,1,6,3:2:0:0:
401,34,46074,1,2,3:2:0:0:
401,34,46238,2,0,P|369:40|339:41,1,55,10|2,0:2|3:2,0:0:0:0:
291,33,46566,2,0,P|259:27|229:26,1,55,2|2,3:2|0:2,0:0:0:0:
181,29,46894,1,10,0:2:0:0:
120,121,47222,5,4,3:2:0:0:
120,121,47386,2,0,L|42:132,2,55,2|10|2,0:2|0:2|3:2,0:0:0:0:
147,169,47877,2,0,L|216:179,1,55,10|2,0:2|3:2,0:0:0:0:
256,180,48205,1,10,0:2:0:0:
336,261,48533,1,6,3:2:0:0:
336,261,48697,2,0,L|323:329,1,55,10|10,0:2|0:2,0:0:0:0:
319,367,49025,2,0,P|256:356|206:382,1,110,6|8,3:2|0:2,0:0:0:0:
160,372,49517,1,0,3:2:0:0:
72,305,49845,6,0,L|84:195,1,110,6|10,3:2|0:2,0:0:0:0:
86,140,50337,1,2,3:2:0:0:
122,37,50664,2,0,L|181:31,1,55,2|8,3:2|0:2,0:0:0:0:
231,24,50992,2,0,P|279:45|288:97,1,110,6|0,3:2|3:2,0:0:0:0:
261,146,51484,2,0,L|269:211,1,55,8|0,0:2|3:2,0:0:0:0:
312,307,51976,1,0,3:2:0:0:
312,307,52140,2,0,P|341:315|375:304,1,55,10|10,0:2|0:2,0:0:0:0:
407,274,52468,6,0,B|387:235|387:235|409:155,1,110,6|10,3:2|0:2,0:0:0:0:
425,120,52960,1,2,3:2:0:0:
363,28,53287,2,0,L|294:17,1,55,2|8,3:2|0:2,0:0:0:0:
253,20,53615,2,0,B|171:13|208:84|88:68,1,165,6|8,3:2|0:2,0:0:0:0:
58,103,54271,1,2,3:2:0:0:
114,203,54599,1,2,3:2:0:0:
114,203,54763,2,0,L|121:275,1,55,10|10,0:2|0:2,0:0:0:0:
151,302,55090,6,0,L|144:373,2,55,6|2|10,3:2|0:2|0:2,0:0:0:0:
198,273,55582,1,2,3:2:0:0:
292,216,55910,2,0,L|357:226,1,55,2|10,3:2|0:2,0:0:0:0:
399,240,56238,2,0,P|382:193|397:124,1,110,2|2,3:2|3:2,0:0:0:0:
407,84,56730,1,10,0:2:0:0:
407,84,56894,2,0,B|373:104|373:104|281:82,1,110,2|2,3:2|3:2,0:0:0:0:
257,58,57386,1,10,0:2:0:0:
152,72,57712,5,6,3:2:0:0:
152,72,57877,2,0,L|74:92,1,55,2|8,3:2|0:2,0:0:0:0:
28,171,58369,2,0,P|37:214|36:246,1,55,8|8,0:2|0:2,0:0:0:0:
75,264,58697,2,0,P|66:307|67:339,1,55,10|2,0:2|1:2,0:0:0:0:
52,371,59025,1,6,3:2:0:0:
165,383,59353,1,10,0:2:0:0:
165,383,59517,2,0,L|281:357,1,110,6|10,3:2|3:2,0:0:0:0:
325,343,60008,1,14,0:2:0:0:
478,277,60500,5,0,3:2:0:0:
478,277,60664,1,8,0:2:0:0:
408,192,60992,2,0,P|365:201|333:200,1,55,0|8,3:2|0:2,0:0:0:0:
302,180,61320,2,0,P|259:171|227:172,1,55,10|2,0:2|0:2,0:0:0:0:
199,197,61648,1,6,3:2:0:0:
98,167,61976,1,2,3:2:0:0:
98,167,62140,2,0,L|89:45,1,110,10|2,0:2|3:2,0:0:0:0:
88,5,62631,5,14,0:2:0:0:
