osu file format v14

[General]
AudioFilename: audio.mp3
AudioLeadIn: 0
PreviewTime: 49155
Countdown: 0
SampleSet: None
StackLeniency: 0.7
Mode: 0
LetterboxInBreaks: 0
WidescreenStoryboard: 0

[Editor]
Bookmarks: 34815,49215,58815,68415,78015,85215,87615,101565
DistanceSpacing: 1
BeatDivisor: 4
GridSize: 8
TimelineZoom: 2

[Metadata]
Title:Super Driver
TitleUnicode:Super Driver
Artist:Hirano Aya
ArtistUnicode:Hirano Aya
Creator:stq
Version:xenon-
Source:
Tags:
BeatmapID:1690218
BeatmapSetID:805150

[Difficulty]
HPDrainRate:5.2
CircleSize:3.8
OverallDifficulty:9.5
ApproachRate:9.6
SliderMultiplier:1.8
SliderTickRate:1

[Events]
//Background and Video events
0,0,"BG.jpg",0,0
//Break Periods
//Storyboard Layer 0 (Background)
//Storyboard Layer 1 (Fail)
//Storyboard Layer 2 (Pass)
//Storyboard Layer 3 (Foreground)
//Storyboard Sound Samples

[TimingPoints]
1215,300,4,2,0,52,1,0
1215,-111.111111111111,4,2,0,52,0,0
3015,-83.3333333333333,4,2,0,52,0,0
3615,-111.111111111111,4,2,0,52,0,0
5415,-83.3333333333333,4,2,0,52,0,0
6015,-111.111111111111,4,2,0,52,0,0
6915,-142.857142857143,4,2,0,52,0,0
7215,-111.111111111111,4,2,0,52,0,0
9315,-142.857142857143,4,2,0,52,0,0
9615,-111.111111111111,4,2,0,52,0,0
11715,-142.857142857143,4,2,0,52,0,0
12015,-111.111111111111,4,2,0,52,0,0
14415,-142.857142857143,4,2,0,52,0,0
15615,-125,4,2,0,52,0,0
20415,-125,4,2,0,52,0,0
30015,-125,4,2,0,52,0,0
39615,-125,4,2,0,52,0,0
49215,-100,4,2,0,52,0,1
87615,-111.111111111111,4,2,0,52,0,0
88515,-142.857142857143,4,2,0,52,0,0
88815,-111.111111111111,4,2,0,52,0,0
90915,-142.857142857143,4,2,0,52,0,0
91215,-111.111111111111,4,2,0,52,0,0
93315,-142.857142857143,4,2,0,52,0,0
93615,-111.111111111111,4,2,0,52,0,0
95715,-357.142857142857,4,2,0,22,0,0

[HitObjects]
173,199,1215,6,0,L|92:208,1,80.9999975280763,2|0,0:0|0:0,0:0:0:0:
56,97,1515,2,0,L|137:106,1,80.9999975280763,2|0,0:0|0:0,0:0:0:0:
256,188,1815,1,8,0:0:0:0:
339,199,2115,6,0,L|420:208,1,80.9999975280763,2|0,0:0|0:0,0:0:0:0:
456,97,2415,2,0,L|375:106,1,80.9999975280763,2|0,0:0|0:0,0:0:0:0:
256,188,2714,1,8,0:0:0:0:
200,18,3015,6,0,B|185:51|185:51|194:129,1,107.999996704102,10|0,0:1|0:0,0:0:0:0:
310,18,3315,2,0,B|324:51|324:51|315:129,1,107.999996704102,10|0,0:1|0:0,0:0:0:0:
339,207,3615,6,0,L|420:198,1,80.9999975280763,2|0,0:0|0:0,0:0:0:0:
456,309,3915,2,0,L|375:300,1,80.9999975280763,2|0,0:0|0:0,0:0:0:0:
256,218,4215,1,8,0:0:0:0:
173,207,4515,6,0,L|92:198,1,80.9999975280763,2|0,0:0|0:0,0:0:0:0:
56,309,4815,2,0,L|137:300,1,80.9999975280763,2|0,0:0|0:0,0:0:0:0:
256,218,5114,1,8,0:0:0:0:
321,384,5415,6,0,B|307:350|307:350|316:272,1,107.999996704102,10|0,0:1|0:0,0:0:0:0:
191,384,5715,2,0,B|206:350|206:350|197:272,1,107.999996704102,10|0,0:1|0:0,0:0:0:0:
136,212,6015,6,0,L|55:221,1,80.9999975280763,8|0,0:0|0:0,0:0:0:0:
170,128,6315,1,2,0:0:0:0:
170,128,6465,2,0,L|89:119,1,80.9999975280763,8|0,0:0|0:0,0:0:0:0:
239,78,6765,1,2,0:0:0:0:
239,78,6915,2,0,P|254:146|214:201,1,125.999996154785,4|0,0:0|0:0,0:0:0:0:
229,359,7365,5,2,0:0:0:0:
307,326,7515,2,0,L|298:245,1,80.9999975280763,8|0,0:0|0:0,0:0:0:0:
328,62,7815,5,10,3:0:0:0:
170,128,7965,1,0,0:0:0:0:
352,136,8115,5,8,3:0:0:0:
196,54,8265,1,0,0:0:0:0:
380,209,8415,6,0,L|461:200,1,80.9999975280763,8|0,0:0|0:0,0:0:0:0:
346,293,8715,1,2,0:0:0:0:
346,293,8865,2,0,L|427:302,1,80.9999975280763,8|0,0:0|0:0,0:0:0:0:
277,343,9165,1,2,0:0:0:0:
277,343,9315,2,0,P|262:275|302:220,1,125.999996154785,4|0,0:0|0:0,0:0:0:0:
287,62,9765,5,2,0:0:0:0:
209,95,9915,2,0,L|218:176,1,80.9999975280763,8|0,0:0|0:0,0:0:0:0:
137,352,10215,5,10,0:3:0:0:
346,293,10365,1,0,0:0:0:0:
113,278,10515,5,8,0:3:0:0:
320,367,10665,1,0,0:0:0:0:
217,175,10815,6,0,L|208:94,1,80.9999975280763,8|0,0:0|0:0,0:0:0:0:
312,197,11115,1,2,0:0:0:0:
312,197,11265,2,0,L|303:116,1,80.9999975280763,8|0,0:0|0:0,0:0:0:0:
367,261,11565,1,2,0:0:0:0:
367,261,11715,2,0,P|300:281|242:246,1,125.999996154785,4|0,0:0|0:0,0:0:0:0:
81,255,12165,5,2,0:0:0:0:
114,333,12315,2,0,L|195:324,1,80.9999975280763,8|0,0:0|0:0,0:0:0:0:
312,197,12615,5,10,3:0:0:0:
274,358,12765,1,0,0:0:0:0:
229,183,12915,5,8,3:0:0:0:
345,319,13065,1,0,0:0:0:0:
177,244,13215,5,10,0:0:0:0:
379,247,13365,1,2,0:0:0:0:
147,167,13515,1,8,0:0:0:0:
193,366,13665,2,0,L|274:357,1,80.9999975280763,2|0,0:0|0:0,0:0:0:0:
110,372,13965,5,10,0:0:0:0:
229,183,14115,1,8,0:0:0:0:
222,176,14415,6,0,B|127:186|127:186|166:163,1,125.999996154785,2|0,0:0|0:0,0:0:0:0:
293,126,15015,6,0,P|309:176|293:225,1,94.499997116089,2|0,0:0|0:0,0:0:0:0:
284,240,15315,2,0,P|268:290|284:339,1,94.499997116089,2|0,0:0|0:0,0:0:0:0:
292,353,15615,6,0,L|138:370,1,144,10|0,0:0|0:0,0:0:0:0:
68,377,16065,1,2,0:0:0:0:
93,232,16215,2,0,L|101:309,1,72,10|0,0:0|0:0,0:0:0:0:
44,162,16515,2,0,P|95:146|137:159,1,72,2|0,0:0|0:0,0:0:0:0:
288,172,16815,5,10,0:0:0:0:
173,205,16965,1,0,0:0:0:0:
332,252,17115,2,0,L|323:329,1,72,2|0,0:0|0:0,0:0:0:0:
178,380,17415,2,0,L|255:371,1,72,10|0,0:0|0:0,0:0:0:0:
258,184,17715,2,0,L|249:261,1,72,2|0,0:0|0:0,0:0:0:0:
104,312,18015,6,0,L|181:304,1,72,10|0,0:0|0:0,0:0:0:0:
43,371,18315,2,0,P|18:309|64:237,1,144,8|0,0:0|0:0,0:0:0:0:
253,295,18765,1,2,0:0:0:0:
104,312,18915,1,2,0:0:0:0:
135,170,19065,1,2,0:0:0:0:
204,365,19215,6,0,P|255:381|297:368,1,72,10|0,0:0|0:0,0:0:0:0:
403,311,19515,2,0,P|367:310|334:324,1,72,2|0,0:0|0:0,0:0:0:0:
245,223,19815,2,0,L|253:300,1,72,10|0,0:0|0:0,0:0:0:0:
338,166,20115,2,0,L|330:243,1,72,2|0,0:0|0:0,0:0:0:0:
233,99,20415,5,10,3:0:0:0:
245,223,20565,1,0,0:0:0:0:
176,43,20715,5,8,3:0:0:0:
155,165,20865,1,0,0:0:0:0:
312,89,21015,5,10,3:0:0:0:
111,98,21165,1,0,0:0:0:0:
245,223,21315,5,8,3:0:0:0:
48,179,21465,1,0,0:0:0:0:
134,324,21615,5,10,3:0:0:0:
146,200,21765,1,0,0:0:0:0:
77,380,21915,5,8,3:0:0:0:
56,258,22065,1,0,0:0:0:0:
203,373,22215,6,0,L|280:381,1,72,10|0,3:0|0:0,0:0:0:0:
316,215,22515,2,0,L|244:222,1,72,8|0,3:0|0:0,0:0:0:0:
351,337,22815,6,0,L|428:345,1,72,10|0,0:0|0:0,0:0:0:0:
397,207,23115,1,2,0:0:0:0:
277,298,23265,2,0,L|205:305,1,72,10|0,0:0|0:0,0:0:0:0:
34,319,23565,1,2,0:0:0:0:
124,185,23715,1,0,0:0:0:0:
155,373,23865,1,2,0:0:0:0:
53,235,24015,6,0,P|37:184|50:142,1,72,10|0,0:0|0:0,0:0:0:0:
102,305,24315,2,0,P|51:321|9:308,1,72,2|0,0:0|0:0,0:0:0:0:
124,185,24615,1,10,0:0:0:0:
175,347,24765,2,0,L|170:385,2,36,2|0|0,0:0|0:0|0:0,0:0:0:0:
209,211,25065,2,0,L|205:173,1,36,2|0,0:0|0:0,0:0:0:0:
102,305,25215,6,0,L|256:322,1,144,10|0,0:0|0:0,0:0:0:0:
326,329,25665,1,2,0:0:0:0:
301,184,25815,2,0,L|293:261,1,72,10|0,0:0|0:0,0:0:0:0:
350,114,26115,2,0,P|299:98|257:111,1,72,2|0,0:0|0:0,0:0:0:0:
106,124,26415,5,10,0:0:0:0:
221,157,26565,1,0,0:0:0:0:
62,204,26715,2,0,L|71:281,1,72,2|0,0:0|0:0,0:0:0:0:
216,332,27015,2,0,L|139:323,1,72,10|0,0:0|0:0,0:0:0:0:
136,136,27315,2,0,L|145:213,1,72,2|0,0:0|0:0,0:0:0:0:
290,264,27615,6,0,L|213:256,1,72,10|0,0:0|0:0,0:0:0:0:
351,323,27915,2,0,P|376:261|330:189,1,144,2|0,0:0|0:0,0:0:0:0:
141,247,28365,1,2,0:0:0:0:
290,264,28515,1,2,0:0:0:0:
259,122,28665,1,2,0:0:0:0:
190,317,28815,6,0,P|139:333|97:320,1,72,10|0,0:0|0:0,0:0:0:0:
259,367,29115,2,0,P|310:351|352:364,1,72,2|0,0:0|0:0,0:0:0:0:
268,199,29415,2,0,L|260:276,1,72,10|0,0:0|0:0,0:0:0:0:
170,160,29715,2,0,L|178:237,1,72,2|0,0:0|0:0,0:0:0:0:
280,75,30015,5,10,3:0:0:0:
268,199,30165,1,0,0:0:0:0:
165,80,30315,5,8,3:0:0:0:
324,140,30465,1,0,0:0:0:0:
140,250,30615,5,10,3:0:0:0:
348,223,30765,1,0,0:0:0:0:
165,80,30915,5,8,3:0:0:0:
244,273,31065,1,0,0:0:0:0:
100,124,31215,5,10,3:0:0:0:
224,136,31365,1,0,0:0:0:0:
105,239,31515,5,8,3:0:0:0:
165,80,31665,1,0,0:0:0:0:
172,279,31815,6,0,L|244:286,1,72,10|0,3:0|0:0,0:0:0:0:
334,376,32115,2,0,L|262:383,1,72,8|0,3:0|0:0,0:0:0:0:
361,192,32415,6,0,L|433:199,1,72,10|0,0:0|0:0,0:0:0:0:
416,369,32715,1,2,0:0:0:0:
274,251,32865,2,0,L|202:244,1,72,10|0,0:0|0:0,0:0:0:0:
31,230,33165,1,2,0:0:0:0:
121,364,33315,1,0,0:0:0:0:
152,176,33465,1,2,0:0:0:0:
50,314,33615,6,0,P|34:365|47:407,1,72,10|0,0:0|0:0,0:0:0:0:
99,244,33915,2,0,P|48:228|6:241,1,72,2|0,0:0|0:0,0:0:0:0:
121,364,34215,1,10,0:0:0:0:
172,202,34365,2,0,L|167:164,2,36,2|0|0,0:0|0:0|0:0,0:0:0:0:
206,338,34665,2,0,L|202:376,1,36,2|0,0:0|0:0,0:0:0:0:
405,279,34815,5,10,3:0:0:0:
238,262,34965,1,0,0:0:0:0:
369,140,35115,5,8,3:0:0:0:
304,331,35265,1,0,0:0:0:0:
277,140,35415,5,10,3:0:0:0:
443,195,35565,1,0,0:0:0:0:
238,262,35715,5,8,3:0:0:0:
369,140,35865,1,0,0:0:0:0:
304,331,36015,5,10,3:0:0:0:
277,140,36165,1,0,0:0:0:0:
116,263,36315,5,8,3:0:0:0:
356,260,36465,1,0,0:0:0:0:
141,181,36615,5,10,3:0:0:0:
369,270,36765,1,0,0:0:0:0:
277,140,36915,5,8,3:0:0:0:
304,331,37065,1,0,0:0:0:0:
421,192,37215,6,0,L|349:185,1,72,10|0,0:0|0:0,0:0:0:0:
205,146,37515,2,0,L|277:139,1,72,2|0,0:0|0:0,0:0:0:0:
464,96,37815,5,10,0:0:0:0:
280,60,37965,1,2,0:0:0:0:
442,16,38115,1,2,0:0:0:0:
276,139,38265,1,2,0:0:0:0:
486,176,38415,6,0,L|493:248,1,72,10|0,0:0|0:0,0:0:0:0:
387,309,38715,2,0,L|394:237,1,72,2|0,0:0|0:0,0:0:0:0:
291,171,39015,2,0,L|298:243,1,72,10|0,0:0|0:0,0:0:0:0:
192,304,39315,2,0,L|199:232,1,72,2|0,0:0|0:0,0:0:0:0:
282,62,39615,5,10,3:0:0:0:
297,242,39765,1,0,0:0:0:0:
421,98,39915,5,8,3:0:0:0:
230,163,40065,1,0,0:0:0:0:
421,190,40215,5,10,3:0:0:0:
366,24,40365,1,0,0:0:0:0:
297,242,40515,5,8,3:0:0:0:
421,98,40665,1,0,0:0:0:0:
230,163,40815,5,10,3:0:0:0:
421,190,40965,1,0,0:0:0:0:
282,326,41115,5,8,3:0:0:0:
301,111,41265,1,0,0:0:0:0:
364,301,41415,5,10,3:0:0:0:
291,98,41565,1,0,0:0:0:0:
421,190,41715,5,8,3:0:0:0:
230,163,41865,1,0,0:0:0:0:
369,46,42015,6,0,L|376:118,1,72,10|0,0:0|0:0,0:0:0:0:
317,270,42315,1,2,0:0:0:0:
230,163,42465,2,0,P|155:147|104:186,1,144,10|0,0:0|0:0,0:0:0:0:
154,353,42915,1,2,0:0:0:0:
177,230,43065,1,0,0:0:0:0:
262,361,43215,6,0,P|336:376|388:338,1,144,10|0,0:0|0:0,0:0:0:0:
292,167,43665,2,0,P|276:241|315:293,1,144,10|0,0:0|0:0,0:0:0:0:
431,213,44115,2,0,L|359:220,1,72,10|0,0:0|0:0,0:0:0:0:
498,265,44415,6,0,P|513:190|475:139,1,144,10|0,0:0|0:0,0:0:0:0:
338,113,44865,1,2,0:0:0:0:
431,213,45015,1,2,0:0:0:0:
347,33,45165,5,10,0:0:0:0:
332,225,45315,1,2,0:0:0:0:
424,68,45465,1,2,0:0:0:0:
431,213,45615,5,10,3:0:0:0:
253,177,45765,1,0,0:0:0:0:
424,68,45915,5,8,3:0:0:0:
392,276,46065,1,0,0:0:0:0:
288,99,46215,5,10,3:0:0:0:
431,213,46365,1,0,0:0:0:0:
348,48,46515,5,8,3:0:0:0:
332,225,46665,1,0,0:0:0:0:
165,76,46815,5,10,3:0:0:0:
363,132,46965,1,0,0:0:0:0:
156,154,47115,5,8,3:0:0:0:
348,48,47265,1,0,0:0:0:0:
154,73,47415,5,10,3:0:0:0:
374,134,47565,1,0,0:0:0:0:
144,159,47715,5,8,3:0:0:0:
358,42,47865,1,0,0:0:0:0:
158,244,48015,6,0,L|86:251,1,72,10|0,0:0|0:0,0:0:0:0:
222,339,48315,2,0,L|150:332,1,72,2|0,0:0|0:0,0:0:0:0:
206,164,48615,2,0,L|242:167,1,36,10|0,0:0|0:0,0:0:0:0:
289,251,48765,2,0,L|252:254,1,36,2|0,0:0|0:0,0:0:0:0:
287,89,48915,2,0,L|323:92,1,36,10|0,0:0|0:0,0:0:0:0:
370,176,49065,2,0,L|333:179,1,36,2|0,0:0|0:0,0:0:0:0:
204,79,49215,6,0,L|114:71,1,90,10|0,1:2|0:0,0:0:0:0:
183,212,49515,1,0,1:0:0:0:
288,89,49665,1,0,0:0:0:0:
112,162,49815,2,0,L|22:154,1,90,8|0,1:2|0:0,0:0:0:0:
91,295,50115,1,0,1:0:0:0:
260,172,50265,6,0,B|302:183|327:169|327:169|352:154|391:165,1,135,10|0,1:2|0:0,0:0:0:0:
421,198,50565,2,0,L|511:206,1,90,0|0,1:0|0:0,0:0:0:0:
353,315,50865,2,0,L|263:323,1,90,8|0,1:2|0:0,0:0:0:0:
62,260,51165,1,0,1:0:0:0:
230,193,51315,1,0,1:0:0:0:
191,371,51465,1,0,1:0:0:0:
117,165,51615,6,0,L|27:173,1,90,10|0,1:2|0:0,0:0:0:0:
225,286,51915,2,0,L|135:278,1,90,0|0,1:0|0:0,0:0:0:0:
304,159,52215,2,0,L|214:167,1,90,8|0,1:2|0:0,0:0:0:0:
370,280,52515,1,0,1:0:0:0:
225,286,52665,6,0,B|182:297|157:283|157:283|132:268|93:279,1,135,10|0,1:2|0:0,0:0:0:0:
64,312,52965,1,0,1:0:0:0:
196,179,53115,1,0,0:0:0:0:
13,234,53265,1,0,0:0:0:0:
194,372,53415,2,0,L|284:364,1,90,10|0,1:2|0:0,0:0:0:0:
388,242,53715,2,0,L|298:234,1,90,0|0,1:0|0:0,0:0:0:0:
116,286,54015,6,0,L|206:278,1,90,10|0,1:2|0:0,0:0:0:0:
398,159,54315,1,0,1:0:0:0:
283,364,54465,1,0,0:0:0:0:
301,150,54615,1,8,1:2:0:0:
382,339,54765,1,0,0:0:0:0:
217,187,54915,2,0,L|127:195,1,90,0|0,1:0|0:0,0:0:0:0:
308,286,55215,5,10,1:2:0:0:
217,101,55365,2,0,B|259:90|284:104|284:104|309:119|348:108,1,135,2|0,1:2|0:0,0:0:0:0:
378,75,55665,2,0,L|468:67,1,90,0|0,1:0|0:0,0:0:0:0:
302,199,55965,2,0,L|392:207,1,90,8|0,1:2|0:0,0:0:0:0:
217,101,56265,1,2,0:0:0:0:
161,277,56415,5,10,1:2:0:0:
300,120,56565,1,0,0:0:0:0:
96,79,56715,1,8,0:0:0:0:
276,238,56865,1,0,0:0:0:0:
209,40,57015,1,10,0:0:0:0:
72,196,57165,1,0,0:0:0:0:
300,120,57315,2,0,L|390:128,1,90,8|0,1:0|0:0,0:0:0:0:
209,40,57615,5,10,1:2:0:0:
197,261,57765,2,0,L|107:269,1,90,2|0,1:2|0:0,0:0:0:0:
204,117,58065,1,0,1:0:0:0:
286,254,58215,1,8,0:0:0:0:
146,187,58365,1,0,0:0:0:0:
300,120,58515,1,8,0:0:0:0:
197,261,58665,1,0,0:0:0:0:
209,40,58815,6,0,L|299:32,1,90,10|0,1:2|0:0,0:0:0:0:
245,185,59115,1,0,1:0:0:0:
126,46,59265,1,0,0:0:0:0:
300,120,59415,2,0,L|390:112,1,90,8|0,1:2|0:0,0:0:0:0:
435,286,59715,1,0,1:0:0:0:
254,235,59865,6,0,B|212:224|187:238|187:238|162:253|123:242,1,135,10|0,1:2|0:0,0:0:0:0:
93,209,60165,2,0,L|3:201,1,90,0|0,1:0|0:0,0:0:0:0:
161,92,60465,2,0,L|251:84,1,90,8|0,1:2|0:0,0:0:0:0:
452,147,60765,1,0,1:0:0:0:
284,214,60915,1,0,1:0:0:0:
323,36,61065,1,0,1:0:0:0:
397,242,61215,6,0,L|487:234,1,90,10|0,1:2|0:0,0:0:0:0:
289,121,61515,2,0,L|379:129,1,90,0|0,1:0|0:0,0:0:0:0:
210,248,61815,2,0,L|300:240,1,90,8|0,1:2|0:0,0:0:0:0:
95,126,62115,1,0,1:0:0:0:
289,121,62265,6,0,B|332:110|357:124|357:124|382:139|421:128,1,135,10|0,1:2|0:0,0:0:0:0:
450,95,62565,1,0,1:0:0:0:
338,239,62715,1,0,0:0:0:0:
507,166,62865,1,0,0:0:0:0:
320,35,63015,2,0,L|230:43,1,90,10|0,1:2|0:0,0:0:0:0:
126,165,63315,2,0,L|216:173,1,90,0|0,1:0|0:0,0:0:0:0:
420,128,63615,6,0,L|330:136,1,90,10|0,1:2|0:0,0:0:0:0:
131,270,63915,1,0,1:0:0:0:
335,223,64065,1,0,0:0:0:0:
126,165,64215,1,8,1:2:0:0:
297,306,64365,1,0,0:0:0:0:
343,94,64515,2,0,L|433:86,1,90,0|0,1:0|0:0,0:0:0:0:
206,121,64815,5,10,1:2:0:0:
297,306,64965,2,0,B|255:317|230:303|230:303|205:288|166:299,1,135,2|0,1:2|0:0,0:0:0:0:
136,332,65265,2,0,L|46:340,1,90,0|0,1:0|0:0,0:0:0:0:
212,208,65565,2,0,L|122:200,1,90,10|0,1:2|0:0,0:0:0:0:
325,103,65865,1,2,0:0:0:0:
351,364,66015,5,10,1:2:0:0:
212,208,66165,1,0,0:0:0:0:
424,165,66315,1,8,0:0:0:0:
261,320,66465,1,0,0:0:0:0:
325,103,66615,1,8,0:0:0:0:
443,314,66765,1,0,0:0:0:0:
212,208,66915,2,0,L|221:105,1,90,8|0,1:0|0:0,0:0:0:0:
2,244,67215,5,10,0:3:0:0:
69,50,67365,1,0,0:0:0:0:
117,286,67515,5,8,0:3:0:0:
153,68,67665,1,0,0:0:0:0:
250,313,67815,5,10,0:3:0:0:
242,72,67965,1,0,0:0:0:0:
373,262,68115,5,8,0:3:0:0:
139,330,68265,1,0,0:0:0:0:
419,184,68415,5,10,3:0:0:0:
150,172,68565,1,0,0:0:0:0:
467,110,68715,5,8,3:0:0:0:
325,337,68865,1,0,0:0:0:0:
242,20,69015,5,10,3:0:0:0:
459,266,69165,1,0,0:0:0:0:
150,172,69315,5,8,3:0:0:0:
424,30,69465,1,0,0:0:0:0:
371,262,69615,5,10,3:0:0:0:
154,16,69765,1,0,0:0:0:0:
419,184,69915,5,8,3:0:0:0:
150,172,70065,1,0,0:0:0:0:
467,110,70215,5,10,3:0:0:0:
320,337,70365,1,0,0:0:0:0:
242,20,70515,5,8,3:0:0:0:
411,342,70665,1,0,0:0:0:0:
193,97,70815,5,10,3:0:0:0:
55,320,70965,1,0,0:0:0:0:
326,181,71115,5,8,3:0:0:0:
52,165,71265,1,0,0:0:0:0:
369,264,71415,5,10,3:0:0:0:
154,16,71565,1,0,0:0:0:0:
226,334,71715,5,8,3:0:0:0:
425,31,71865,1,0,0:0:0:0:
184,253,72015,5,10,3:0:0:0:
378,105,72165,1,0,0:0:0:0:
102,91,72315,5,8,3:0:0:0:
328,180,72465,1,0,0:0:0:0:
52,166,72615,5,10,3:0:0:0:
286,100,72765,1,0,0:0:0:0:
94,248,72915,2,0,L|87:352,1,90,8|0,3:0|0:0,0:0:0:0:
102,91,73215,5,10,3:0:0:0:
419,184,73365,1,0,0:0:0:0:
94,248,73515,5,8,3:0:0:0:
243,18,73665,1,0,0:0:0:0:
317,337,73815,5,10,3:0:0:0:
154,14,73965,1,0,0:0:0:0:
467,109,74115,5,8,3:0:0:0:
225,333,74265,1,0,0:0:0:0:
243,18,74415,5,10,3:0:0:0:
458,267,74565,1,0,0:0:0:0:
145,171,74715,5,8,3:0:0:0:
421,184,74865,1,0,0:0:0:0:
94,248,75015,5,10,3:0:0:0:
243,18,75165,1,0,0:0:0:0:
317,339,75315,5,8,3:0:0:0:
2,240,75465,1,0,0:0:0:0:
380,104,75615,5,10,3:0:0:0:
94,248,75765,1,0,0:0:0:0:
421,184,75915,5,8,3:0:0:0:
154,12,76065,1,0,0:0:0:0:
132,329,76215,5,10,3:0:0:0:
339,21,76365,1,0,0:0:0:0:
52,166,76515,5,8,3:0:0:0:
320,337,76665,1,0,0:0:0:0:
380,104,76815,5,10,3:0:0:0:
275,252,76965,1,0,0:0:0:0:
243,18,77115,2,0,L|335:26,1,90,10|0,3:0|0:0,0:0:0:0:
206,116,77415,2,0,L|147:111,1,45,10|0,0:0|0:0,0:0:0:0:
100,38,77565,2,0,L|144:33,1,45,2|0,0:0|0:0,0:0:0:0:
115,213,77715,2,0,L|57:208,1,45,10|0,0:0|0:0,0:0:0:0:
10,130,77865,2,0,L|54:126,1,45,2|0,0:0|0:0,0:0:0:0:
199,215,78015,5,10,1:2:0:0:
294,355,78165,1,0,1:0:0:0:
272,155,78315,2,0,L|280:65,1,90,0|0,1:0|0:0,0:0:0:0:
200,215,78615,1,8,1:2:0:0:
390,181,78765,1,0,1:0:0:0:
182,104,78915,1,0,1:0:0:0:
227,324,79065,2,0,L|335:333,1,90,0|0,1:0|0:0,0:0:0:0:
140,372,79365,5,10,1:2:0:0:
200,215,79515,2,0,L|290:223,1,90,2|0,1:2|0:0,0:0:0:0:
404,95,79815,2,0,L|314:103,1,90,8|0,1:2|0:0,0:0:0:0:
130,117,80115,1,0,1:0:0:0:
289,222,80265,1,0,1:0:0:0:
221,44,80415,6,0,L|213:134,1,90,10|0,1:2|0:0,0:0:0:0:
379,272,80715,2,0,L|371:182,1,90,0|0,1:0|0:0,0:0:0:0:
206,222,81015,1,8,1:2:0:0:
385,356,81165,1,0,1:0:0:0:
286,183,81315,1,0,1:0:0:0:
186,356,81465,1,0,1:0:0:0:
213,133,81615,5,8,1:2:0:0:
266,318,81765,1,0,0:0:0:0:
133,171,81915,1,8,1:2:0:0:
72,381,82065,1,0,0:0:0:0:
205,221,82215,2,0,L|264:216,1,45,10|0,0:0|0:0,0:0:0:0:
311,143,82365,2,0,L|267:138,1,45,2|0,0:0|0:0,0:0:0:0:
339,224,82515,2,0,L|397:219,1,45,10|0,0:0|0:0,0:0:0:0:
445,146,82665,2,0,L|401:142,1,45,2|0,0:0|0:0,0:0:0:0:
415,298,82815,5,10,1:2:0:0:
311,143,82965,1,0,1:0:0:0:
330,353,83115,2,0,L|240:345,1,90,0|0,1:0|0:0,0:0:0:0:
40,280,83415,1,8,1:2:0:0:
231,262,83565,1,0,1:0:0:0:
68,362,83715,1,0,1:0:0:0:
105,136,83865,2,0,L|195:144,1,90,0|0,1:0|0:0,0:0:0:0:
30,71,84165,5,10,1:2:0:0:
90,228,84315,2,0,L|180:236,1,90,0|0,1:0|0:0,0:0:0:0:
321,334,84615,2,0,L|231:342,1,90,8|0,1:2|0:0,0:0:0:0:
44,357,84915,1,0,1:0:0:0:
105,136,85065,1,0,1:0:0:0:
153,375,85215,5,4,1:0:0:0:
105,136,85815,6,0,B|91:164|91:164|99:233,1,90,4|0,1:0|0:0,0:0:0:0:
321,334,86265,6,0,B|334:305|334:305|327:247,1,90,4|0,1:0|0:0,0:0:0:0:
300,24,86565,1,2,0:0:0:0:
247,198,86715,1,10,0:0:0:0:
380,62,86865,1,2,0:0:0:0:
441,272,87015,1,10,0:0:0:0:
308,112,87165,2,0,L|263:115,1,45,2|0,0:0|0:0,0:0:0:0:
202,192,87315,2,0,L|246:197,1,45,10|0,0:0|0:0,0:0:0:0:
173,102,87465,2,0,L|128:105,1,45,2|0,0:0|0:0,0:0:0:0:
118,226,87615,6,0,L|109:307,1,80.9999975280763,8|0,0:0|0:0,0:0:0:0:
202,192,87915,1,2,0:0:0:0:
202,192,88065,2,0,L|211:273,1,80.9999975280763,8|0,0:0|0:0,0:0:0:0:
252,123,88365,1,2,0:0:0:0:
252,123,88515,2,0,P|184:108|129:148,1,125.999996154785,12|0,0:0|0:0,0:0:0:0:
51,331,88965,5,2,0:0:0:0:
129,298,89115,2,0,L|120:217,1,80.9999975280763,8|0,0:0|0:0,0:0:0:0:
218,76,89415,5,10,0:3:0:0:
60,142,89565,1,0,0:0:0:0:
242,150,89715,5,8,0:3:0:0:
86,68,89865,1,0,0:0:0:0:
270,223,90015,6,0,L|351:214,1,80.9999975280763,8|0,0:0|0:0,0:0:0:0:
236,307,90315,1,2,0:0:0:0:
236,307,90465,2,0,L|317:316,1,80.9999975280763,8|0,0:0|0:0,0:0:0:0:
167,357,90765,1,2,0:0:0:0:
167,357,90915,2,0,P|152:289|192:234,1,125.999996154785,4|0,0:0|0:0,0:0:0:0:
167,62,91365,5,2,0:0:0:0:
245,95,91515,2,0,L|236:176,1,80.9999975280763,8|0,0:0|0:0,0:0:0:0:
317,352,91815,5,10,0:3:0:0:
108,293,91965,1,0,0:0:0:0:
341,278,92115,5,8,0:3:0:0:
134,367,92265,1,0,0:0:0:0:
237,175,92415,6,0,L|246:94,1,80.9999975280763,8|0,0:0|0:0,0:0:0:0:
142,197,92715,1,2,0:0:0:0:
142,197,92865,2,0,L|151:116,1,80.9999975280763,8|0,0:0|0:0,0:0:0:0:
87,261,93165,1,2,0:0:0:0:
87,261,93315,2,0,P|154:281|212:246,1,125.999996154785,4|0,0:0|0:0,0:0:0:0:
373,255,93765,5,2,0:0:0:0:
340,333,93915,2,0,L|259:324,1,80.9999975280763,8|0,0:0|0:0,0:0:0:0:
142,197,94215,5,10,3:0:0:0:
180,358,94365,1,0,0:0:0:0:
225,183,94515,5,8,3:0:0:0:
109,319,94665,1,0,0:0:0:0:
277,244,94815,5,8,0:0:0:0:
75,247,94965,1,2,0:0:0:0:
304,169,95115,1,8,0:0:0:0:
180,358,95265,2,0,L|261:367,1,80.9999975280763,2|0,0:0|0:0,0:0:0:0:
156,255,95565,5,4,0:1:0:0:
156,255,95715,2,0,B|165:179|173:206|179:128|165:147|173:70|161:93|145:24|145:24|190:4|222:19|239:38|245:70|237:99|213:119|213:119|276:110|254:123|292:115|321:125|321:125|363:123|392:111|408:78|397:39|363:13|329:6|303:22|303:22|306:76|318:55|322:114|315:128|317:171|327:149|328:217|318:195|317:252,1,970.200011843262,6|0,0:1|0:0,0:0:0:0:
