osu file format v14

[General]
AudioFilename: audio.mp3
AudioLeadIn: 0
PreviewTime: 49155
Countdown: 0
SampleSet: None
StackLeniency: 0.7
Mode: 0
LetterboxInBreaks: 0
WidescreenStoryboard: 0

[Editor]
Bookmarks: 20415,30015,34830,79065,81015,81615,82815,83865,85230,95715
DistanceSpacing: 2
BeatDivisor: 2
GridSize: 32
TimelineZoom: 2.5

[Metadata]
Title:Super Driver
TitleUnicode:Super Driver
Artist:Hirano Aya
ArtistUnicode:Hirano Aya
Creator:stq
Version:TheAlphaSheep
Source:
Tags:gayshit
BeatmapID:1690214
BeatmapSetID:805150

[Difficulty]
HPDrainRate:5.5
CircleSize:3.8
OverallDifficulty:9
ApproachRate:9.4
SliderMultiplier:2.02
SliderTickRate:1

[Events]
//Background and Video events
0,0,"BG.jpg",0,0
//Break Periods
//Storyboard Layer 0 (Background)
//Storyboard Layer 1 (Fail)
//Storyboard Layer 2 (Pass)
//Storyboard Layer 3 (Foreground)
//Storyboard Sound Samples

[TimingPoints]
1215,300,4,3,0,52,1,0
5415,-181.818181818181,4,3,0,100,0,0
5715,-83.3333333333333,4,3,0,100,0,0
15015,-181.818181818181,4,3,0,100,0,0
15615,-83.3333333333333,4,3,0,100,0,0
49215,-66.6666666666667,4,3,0,100,0,1
68415,-83.3333333333333,4,3,0,100,0,0
78015,-83.3333333333333,4,3,0,100,0,1
85215,-83.3333333333333,4,3,0,100,0,0

[HitObjects]
164,140,1215,5,8,0:0:0:0:
332,130,1365,1,8,0:0:0:0:
125,223,1515,1,0,0:0:0:0:
376,240,1665,1,0,0:0:0:0:
73,147,1815,1,4,0:0:0:0:
288,20,2115,5,8,0:0:0:0:
270,190,2265,1,8,0:0:0:0:
205,58,2415,1,0,0:0:0:0:
207,299,2565,1,0,0:0:0:0:
394,70,2715,1,4,0:0:0:0:
335,322,3015,5,8,0:0:0:0:
335,322,3315,1,8,0:0:0:0:
164,140,3615,5,8,0:0:0:0:
365,196,3765,1,8,0:0:0:0:
120,245,3915,1,0,0:0:0:0:
208,35,4065,1,0,0:0:0:0:
228,284,4215,1,4,0:0:0:0:
321,91,4515,5,8,0:0:0:0:
296,240,4665,1,8,0:0:0:0:
164,140,4815,1,0,0:0:0:0:
434,151,4965,1,0,0:0:0:0:
120,245,5115,1,4,0:0:0:0:
30,38,5415,6,0,P|56:50|76:68,1,55.5500016952515,8|0,0:0|0:0,0:0:0:0:
165,63,5715,2,0,P|136:115|129:176,1,121.19999630127,4|0,0:0|0:0,0:0:0:0:
284,343,6015,5,8,0:0:0:0:
187,213,6165,1,0,0:0:0:0:
381,239,6315,1,8,0:0:0:0:
94,233,6465,2,0,P|100:174|141:130,1,121.19999630127,4|0,0:0|0:0,0:0:0:0:
346,105,6765,5,8,0:0:0:0:
103,31,6915,2,0,P|13:108|-13:224,1,242.399992602539,4|0,0:0|0:0,0:0:0:0:
126,324,7365,5,8,0:0:0:0:
198,132,7515,1,0,0:0:0:0:
42,205,7665,1,8,0:0:0:0:
313,134,7815,2,0,P|295:191|252:232,1,121.19999630127,4|0,0:0|0:0,0:0:0:0:
170,24,8115,2,0,P|229:26|279:58,1,121.19999630127,4|0,0:0|0:0,0:0:0:0:
189,278,8415,5,8,0:0:0:0:
106,114,8565,1,0,0:0:0:0:
314,134,8715,1,8,0:0:0:0:
41,204,8865,2,0,P|4:158|-3:99,1,121.19999630127,4|0,0:0|0:0,0:0:0:0:
210,124,9165,5,8,0:0:0:0:
308,348,9315,2,0,B|252:313|190:342|190:342|130:370|74:336,1,242.399992602539,4|0,0:0|0:0,0:0:0:0:
259,236,9765,5,8,0:0:0:0:
100,148,9915,1,0,0:0:0:0:
320,100,10065,1,8,0:0:0:0:
39,77,10215,2,0,P|9:128|16:188,1,121.19999630127,4|0,0:0|0:0,0:0:0:0:
196,302,10515,2,0,P|168:250|178:192,1,121.19999630127,4|0,0:0|0:0,0:0:0:0:
410,125,10815,5,8,0:0:0:0:
259,236,10965,1,0,0:0:0:0:
230,75,11115,1,8,0:0:0:0:
386,304,11265,2,0,P|402:247|395:187,1,121.19999630127,4|0,0:0|0:0,0:0:0:0:
142,174,11565,5,8,0:0:0:0:
384,86,11715,2,0,P|431:194|386:303,1,242.399992602539,4|0,0:0|0:0,3:0:0:0:
126,266,12165,5,8,0:0:0:0:
263,130,12315,1,0,0:0:0:0:
221,341,12465,1,8,0:0:0:0:
167,111,12615,2,0,P|195:59|248:33,1,121.19999630127,4|0,0:0|0:0,0:0:0:0:
237,246,12915,2,0,P|184:273|125:265,1,121.19999630127,4|0,0:0|0:0,0:0:0:0:
359,149,13215,5,8,0:0:0:0:
307,381,13365,1,8,0:0:0:0:
202,178,13515,1,4,0:0:0:0:
441,238,13665,5,8,0:0:0:0:
237,246,13815,1,8,0:0:0:0:
439,156,13965,1,0,0:0:0:0:
161,245,14115,2,0,B|163:311|234:344|285:306|285:306|317:283|352:286,2,242.399992602539,4|0|0,0:0|0:0|0:0,0:0:0:0:
403,60,15015,6,0,P|379:105|374:128,1,55.5500016952515,2|0,0:0|0:0,0:0:0:0:
298,163,15315,2,0,P|297:135|301:108,1,55.5500016952515,2|0,0:0|0:0,0:0:0:0:
205,77,15615,6,0,P|220:135|227:195,1,121.19999630127,8|0,0:0|0:0,0:0:0:0:
337,302,15915,2,0,P|277:312|216:314,1,121.19999630127
103,184,16215,6,0,P|93:260|74:334,1,121.19999630127,8|0,0:0|0:0,0:0:0:0:
205,77,16515,2,0,P|128:86|52:85,1,121.19999630127
227,218,16815,6,0,P|287:214|347:204,1,121.19999630127,8|0,0:0|0:0,0:0:0:0:
438,54,17115,2,0,P|430:126|441:211,1,121.19999630127,8|0,0:0|0:0,0:0:0:0:
343,325,17415,6,0,P|351:253|340:168,1,121.19999630127,8|0,0:0|0:0,0:0:0:0:
204,125,17715,2,0,P|307:109|373:123,1,121.19999630127,8|0,0:0|0:0,0:0:0:0:
187,321,18015,2,0,P|95:275|191:243,2,242.399992602539,8|0|0,0:0|0:0|0:0,0:0:0:0:
432,199,18765,5,8,0:0:0:0:
242,265,18915,1,8,0:0:0:0:
340,41,19065,2,0,P|357:134|350:191,2,121.19999630127,4|0|0,0:0|0:0|0:0,0:0:0:0:
98,90,19515,2,0,P|191:77|248:87,1,121.19999630127,4|0,0:0|0:0,0:0:0:0:
179,276,19815,6,0,P|165:217|135:164,1,121.19999630127,8|0,0:0|0:0,0:0:0:0:
354,159,20115,2,0,P|289:169|243:202,1,121.19999630127,8|0,0:0|0:0,0:0:0:0:
407,278,20415,5,8,0:0:0:0:
266,166,20565,1,0,0:0:0:0:
441,165,20715,5,8,0:0:0:0:
288,256,20865,1,0,0:0:0:0:
257,72,21015,5,8,0:0:0:0:
365,211,21165,1,0,0:0:0:0:
197,213,21315,5,8,0:0:0:0:
350,122,21465,1,0,0:0:0:0:
180,118,21615,5,8,0:0:0:0:
288,256,21765,1,0,0:0:0:0:
103,163,21915,5,8,0:0:0:0:
266,166,22065,1,0,0:0:0:0:
211,302,22215,5,8,0:0:0:0:
180,118,22365,1,0,0:0:0:0:
134,347,22515,5,8,0:0:0:0:
197,213,22665,1,0,0:0:0:0:
300,364,22815,6,0,P|243:350|210:301,1,121.19999630127,4|0,0:0|0:0,0:0:0:0:
363,201,23115,1,8,0:0:0:0:
110,224,23265,6,0,L|120:357,1,121.19999630127,4|0,0:0|0:0,0:0:0:0:
154,100,23565,2,0,L|194:214,1,121.19999630127,4|0,0:0|0:0,0:0:0:0:
24,137,23865,5,8,0:0:0:0:
176,38,24015,1,4,0:0:0:0:
110,224,24165,1,8,0:0:0:0:
58,37,24315,1,0,0:0:0:0:
227,132,24465,1,8,0:0:0:0:
29,217,24615,5,8,0:0:0:0:
272,238,24765,1,8,0:0:0:0:
34,297,24915,6,0,L|101:284,1,60.5999981506348,4|0,0:0|0:0,0:0:0:0:
267,158,25065,2,0,L|200:171,1,60.5999981506348,4|0,0:0|0:0,0:0:0:0:
329,314,25215,6,0,P|342:252|375:195,1,121.19999630127,8|0,0:0|0:0,0:0:0:0:
256,40,25515,2,0,P|272:98|267:158,1,121.19999630127
47,134,25815,6,0,P|139:129|186:136,1,121.19999630127,8|0,0:0|0:0,0:0:0:0:
293,246,26115,2,0,P|201:241|154:248,1,121.19999630127
418,101,26415,6,0,P|401:180|415:249,1,121.19999630127,8|0,0:0|0:0,0:0:0:0:
280,364,26715,2,0,P|297:285|283:216,1,121.19999630127,8|0,0:0|0:0,0:0:0:0:
83,173,27015,6,0,P|165:163|218:173,1,121.19999630127,8|0,0:0|0:0,0:0:0:0:
417,99,27315,2,0,P|356:105|297:95,1,121.19999630127,8|0,0:0|0:0,0:0:0:0:
134,33,27615,2,4,B|179:129|128:209|128:209|83:173,2,242.399992602539
308,173,28365,5,8,0:0:0:0:
128,209,28515,1,8,0:0:0:0:
297,96,28665,2,0,P|358:89|416:100,2,121.19999630127
297,293,29115,2,0,P|308:226|305:146,1,121.19999630127,4|0,0:0|0:0,0:0:0:0:
57,69,29415,6,0,P|128:110|167:150,1,121.19999630127,4|0,0:0|0:0,0:0:0:0:
106,349,29715,2,0,P|108:275|95:216,1,121.19999630127,4|0,0:0|0:0,0:0:0:0:
300,287,30015,5,8,0:0:0:0:
159,177,30165,1,0,0:0:0:0:
347,201,30315,5,8,0:0:0:0:
178,268,30465,1,0,0:0:0:0:
422,306,30615,5,8,0:0:0:0:
281,195,30765,1,0,0:0:0:0:
440,214,30915,5,8,0:0:0:0:
300,287,31065,1,0,0:0:0:0:
332,137,31215,5,8,0:0:0:0:
422,306,31365,1,0,0:0:0:0:
459,123,31515,5,8,0:0:0:0:
364,243,31665,1,0,0:0:0:0:
345,62,31815,5,8,0:0:0:0:
411,180,31965,1,0,0:0:0:0:
462,46,32115,5,8,0:0:0:0:
353,176,32265,1,0,0:0:0:0:
393,15,32415,6,0,P|382:75|397:137,1,121.19999630127,4|0,0:0|0:0,0:0:0:0:
341,292,32715,1,8,0:0:0:0:
191,172,32865,6,0,P|224:122|277:95,1,121.19999630127,4|0,0:0|0:0,0:0:0:0:
65,139,33165,2,0,P|77:229|72:288,1,121.19999630127,4|0,0:0|0:0,0:0:0:0:
222,33,33465,5,8,0:0:0:0:
256,207,33615,1,8,0:0:0:0:
105,49,33765,1,4,0:0:0:0:
296,117,33915,1,0,0:0:0:0:
65,139,34065,1,8,0:0:0:0:
336,27,34215,5,8,0:0:0:0:
249,266,34365,2,0,P|248:236|256:207,1,60.5999981506348,4|0,0:0|0:0,0:0:0:0:
222,33,34515,5,8,0:0:0:0:
360,246,34665,2,0,P|353:216|340:190,1,60.5999981506348,4|0,0:0|0:0,0:0:0:0:
430,67,34815,6,0,P|417:127|421:187,1,121.19999630127,8|0,0:0|0:0,0:0:0:0:
314,306,35115,1,8,0:0:0:0:
200,121,35265,2,0,P|280:134|350:122,1,121.19999630127,8|0,0:0|0:0,0:0:0:0:
142,242,35565,5,8,0:0:0:0:
74,77,35715,1,8,0:0:0:0:
281,39,35865,2,0,P|266:137|274:196,1,121.19999630127,8|0,0:0|0:0,0:0:0:0:
304,295,36165,5,8,0:0:0:0:
149,142,36315,2,0,P|216:141|285:168,1,121.19999630127,4|0,0:0|0:0,0:0:0:0:
438,109,36615,2,0,P|411:200|404:248,1,121.19999630127,4|0,0:0|0:0,0:0:0:0:
210,255,36915,5,8,0:0:0:0:
344,80,37065,1,8,0:0:0:0:
106,89,37215,2,0,P|82:186|86:249,1,121.19999630127,4|0,0:0|0:0,0:0:0:0:
234,372,37515,2,0,P|210:275|214:212,1,121.19999630127,4|0,0:0|0:0,0:0:0:0:
319,107,37815,5,8,2:2:0:0:
363,217,37965,1,4,2:2:0:0:
244,102,38115,5,8,2:2:0:0:
258,266,38265,1,4,2:2:0:0:
284,52,38415,5,8,2:2:0:0:
416,193,38565,1,0,2:2:0:0:
170,97,38715,5,8,2:2:0:0:
393,112,38865,1,0,2:2:0:0:
209,48,39015,5,8,2:2:0:0:
310,241,39165,1,0,2:2:0:0:
96,92,39315,5,8,2:2:0:0:
358,58,39465,1,0,2:2:0:0:
107,207,39615,6,0,P|191:247|224:273,1,121.19999630127,8|4,0:0|0:0,0:0:0:0:
378,181,39915,1,8,0:0:0:0:
134,89,40065,2,0,P|33:131|-7:175,1,121.19999630127,8|0,0:0|0:0,0:0:0:0:
195,339,40365,5,8,0:0:0:0:
261,103,40515,1,8,0:0:0:0:
376,319,40665,2,0,P|443:311|514:260,1,121.19999630127,4|0,0:0|0:0,0:0:0:0:
227,223,40965,5,8,0:0:0:0:
330,27,41115,2,0,P|400:116|403:160,1,121.19999630127,4|0,0:0|0:0,0:0:0:0:
134,158,41415,2,0,P|103:255|98:318,1,121.19999630127,4|0,0:0|0:0,0:0:0:0:
370,214,41715,5,8,0:0:0:0:
207,107,41865,1,8,0:0:0:0:
248,311,42015,2,4,P|345:329|411:322,1,121.19999630127,4|0,0:0|0:0,0:0:0:0:
411,53,42315,5,8,0:0:0:0:
322,202,42465,1,4,0:0:0:0:
315,29,42615,5,8,0:0:0:0:
418,226,42765,1,4,0:0:0:0:
226,178,42915,5,8,0:0:0:0:
467,142,43065,1,4,0:0:0:0:
166,57,43215,2,8,P|80:99|50:132,1,121.19999630127
171,334,43515,5,8,0:0:0:0:
196,142,43665,1,4,0:0:0:0:
285,304,43815,5,8,0:0:0:0:
338,98,43965,1,4,0:0:0:0:
399,274,44115,5,8,0:0:0:0:
252,74,44265,1,4,0:0:0:0:
94,252,44415,6,0,P|183:262|245:255,1,121.19999630127,4|0,0:0|0:0,0:0:0:0:
395,141,44715,1,8,0:0:0:0:
170,60,44865,2,0,P|159:167|162:224,1,121.19999630127,4|0,0:0|0:0,0:0:0:0:
288,308,45165,1,8,0:0:0:0:
62,275,45315,2,0,P|63:214|72:154,1,121.19999630127,8|0,0:0|0:0,0:0:0:0:
310,117,45615,5,8,0:0:0:0:
221,253,45765,1,0,0:0:0:0:
227,101,45915,5,8,0:0:0:0:
301,252,46065,1,0,0:0:0:0:
281,41,46215,5,8,0:0:0:0:
143,254,46365,1,0,0:0:0:0:
202,24,46515,5,8,0:0:0:0:
379,251,46665,1,0,0:0:0:0:
164,138,46815,5,10,0:0:0:0:
384,94,46965,1,4,0:0:0:0:
136,72,47115,5,10,0:0:0:0:
337,170,47265,1,4,0:0:0:0:
103,175,47415,5,10,0:0:0:0:
298,52,47565,1,4,0:0:0:0:
76,110,47715,5,10,0:0:0:0:
299,248,47865,1,4,0:0:0:0:
17,218,48015,6,0,P|32:148|66:100,1,121.19999630127,10|0,0:0|0:0,0:0:0:0:
253,71,48315,6,0,L|211:115,1,60.5999981506348,8|0,0:0|0:0,0:0:0:0:
145,226,48465,2,0,L|187:183,1,60.5999981506348,8|0,0:0|0:0,0:0:0:0:
315,108,48615,6,0,L|285:160,1,60.5999981506348,8|0,0:0|0:0,0:0:0:0:
250,284,48765,2,0,L|279:230,1,60.5999981506348,8|0,0:0|0:0,0:0:0:0:
388,113,48915,6,0,L|373:171,1,60.5999981506348,8|0,0:0|0:0,0:0:0:0:
372,301,49065,2,0,L|386:242,1,60.5999981506348,8|0,0:0|0:0,0:0:0:0:
167,111,49215,6,0,P|240:92|314:107,1,151.500005779267,8|0,0:0|0:0,0:0:0:0:
183,271,49515,2,0,P|110:252|36:267,1,151.500005779267,8|0,0:0|0:0,0:0:0:0:
376,155,49815,2,0,P|390:228|372:301,1,151.500005779267,8|0,0:0|0:0,0:0:0:0:
237,153,50115,5,8,0:0:0:0:
387,44,50265,2,0,P|459:99|491:171,1,151.500005779267,8|0,0:0|0:0,0:0:0:0:
125,74,50565,2,0,P|189:34|263:27,1,151.500005779267,8|0,0:0|0:0,0:0:0:0:
276,302,50865,2,0,P|310:218|315:134,2,151.500005779267,4|0|0,0:0|0:0|0:0,0:0:0:0:
86,183,51315,5,8,0:0:0:0:
270,137,51465,1,8,0:0:0:0:
95,329,51615,2,0,P|31:258|14:189,1,151.500005779267,4|0,0:0|0:0,0:0:0:0:
241,33,51915,2,0,P|177:104|160:173,1,151.500005779267,4|0,0:0|0:0,0:0:0:0:
368,267,52215,6,0,P|263:253|168:273,1,151.500005779267,8|0,0:0|0:0,0:0:0:0:
447,319,52515,1,8,0:0:0:0:
448,47,52665,2,0,P|434:152|454:247,1,151.500005779267,8|0,0:0|0:0,0:0:0:0:
161,156,52965,2,0,P|266:142|361:162,2,151.500005779267,4|0|0,0:0|0:0|0:0,0:0:0:0:
54,19,53415,6,0,P|55:146|69:182,1,151.500005779267,4|0,0:0|0:0,0:0:0:0:
155,374,53715,2,0,P|156:247|170:211,1,151.500005779267,4|0,0:0|0:0,0:0:0:0:
368,33,54015,5,8,0:0:0:0:
417,202,54165,1,4,0:0:0:0:
453,45,54315,5,10,0:0:0:0:
338,218,54465,1,0,0:0:0:0:
283,21,54615,5,8,0:0:0:0:
462,130,54765,1,4,0:0:0:0:
242,139,54915,5,10,0:0:0:0:
453,45,55065,1,0,0:0:0:0:
200,44,55215,5,8,0:0:0:0:
400,174,55365,1,4,0:0:0:0:
152,149,55515,5,10,0:0:0:0:
385,95,55665,1,0,0:0:0:0:
117,67,55815,5,8,0:0:0:0:
338,218,55965,1,4,0:0:0:0:
62,159,56115,5,10,0:0:0:0:
305,72,56265,1,0,0:0:0:0:
243,321,56415,2,0,P|175:336|88:324,1,151.500005779267,8|4,0:0|0:0,0:0:0:0:
115,75,56715,5,8,0:0:0:0:
208,220,56865,1,0,0:0:0:0:
244,24,57015,5,8,0:0:0:0:
291,236,57165,1,4,0:0:0:0:
385,29,57315,5,8,0:0:0:0:
374,251,57465,1,0,0:0:0:0:
208,106,57615,2,0,P|278:50|346:35,1,151.500005779267,8|4,0:0|0:0,0:0:0:0:
213,284,57915,5,8,0:0:0:0:
73,191,58065,1,0,0:0:0:0:
321,221,58215,5,8,0:0:0:0:
169,71,58365,1,4,0:0:0:0:
429,158,58515,5,8,0:0:0:0:
155,154,58665,1,0,0:0:0:0:
389,23,58815,6,0,P|438:81|451:155,1,151.500005779267,8|0,0:0|0:0,0:0:0:0:
358,313,59115,2,0,P|344:239|296:181,1,151.500005779267,8|0,0:0|0:0,0:0:0:0:
112,107,59415,2,0,P|161:165|174:239,1,151.500005779267,8|0,0:0|0:0,0:0:0:0:
285,345,59715,5,8,0:0:0:0:
389,166,59865,2,0,P|312:124|237:126,1,151.500005779267,8|0,0:0|0:0,0:0:0:0:
109,299,60165,2,0,P|150:222|148:147,1,151.500005779267,8|0,0:0|0:0,0:0:0:0:
360,39,60465,2,0,P|442:71|499:106,2,151.500005779267,4|0|0,3:0|3:0|3:0,3:0:0:0:
201,62,60915,5,8,0:0:0:0:
338,182,61065,1,8,0:0:0:0:
90,167,61215,2,0,P|32:230|14:300,1,151.500005779267,4|0,0:0|0:0,0:0:0:0:
293,236,61515,2,0,P|364:258|417:311,1,151.500005779267,4|0,0:0|0:0,0:0:0:0:
146,262,61815,6,0,P|168:190|221:137,1,151.500005779267,8|0,0:0|0:0,0:0:0:0:
241,347,62115,1,8,0:0:0:0:
87,158,62265,2,0,P|55:237|63:309,1,151.500005779267,8|0,0:0|0:0,0:0:0:0:
344,126,62565,2,0,P|264:94|192:102,2,151.500005779267,4|0|0,0:0|0:0|0:0,0:0:0:0:
479,269,63015,6,0,P|354:252|315:257,1,151.500005779267,4|0,0:0|0:0,0:0:0:0:
52,196,63315,2,0,P|177:179|216:184,1,151.500005779267,4|0,0:0|0:0,0:0:0:0:
345,54,63615,5,8,0:0:0:0:
428,185,63765,1,4,0:0:0:0:
265,68,63915,5,2,0:0:0:0:
333,258,64065,1,0,0:0:0:0:
426,40,64215,5,8,0:0:0:0:
429,257,64365,1,4,0:0:0:0:
211,124,64515,5,10,0:0:0:0:
427,113,64665,1,0,0:0:0:0:
238,259,64815,5,8,0:0:0:0:
428,185,64965,1,4,0:0:0:0:
265,68,65115,5,10,0:0:0:0:
334,259,65265,1,0,0:0:0:0:
136,101,65415,5,8,0:0:0:0:
362,200,65565,1,4,0:0:0:0:
189,37,65715,5,10,0:0:0:0:
284,260,65865,1,0,0:0:0:0:
52,160,66015,2,0,P|73:96|143:26,1,151.500005779267,8|4,0:0|0:0,0:0:0:0:
351,114,66315,5,8,0:0:0:0:
143,187,66465,1,0,0:0:0:0:
368,221,66615,5,8,0:0:0:0:
181,114,66765,1,4,0:0:0:0:
469,136,66915,2,0,P|505:207|497:289,1,151.500005779267,8|0,0:0|0:0,0:0:0:0:
217,243,67215,5,8,0:0:0:0:
339,126,67365,1,4,0:0:0:0:
430,274,67515,1,8,0:0:0:0:
372,49,67665,1,0,0:0:0:0:
133,92,67815,6,0,P|79:183|77:238,1,151.500005779267,4|0,0:0|0:0,0:0:0:0:
360,144,68115,2,0,P|414:235|416:290,1,151.500005779267,4|0,0:0|0:0,0:0:0:0:
138,208,68415,5,8,0:0:0:0:
294,101,68565,1,8,0:0:0:0:
256,300,68715,2,0,P|166:329|90:331,1,121.19999630127,4|0,0:0|0:0,0:0:0:0:
405,225,69015,5,8,0:0:0:0:
236,176,69165,1,8,0:0:0:0:
449,112,69315,1,0,0:0:0:0:
183,98,69465,2,0,P|134:145|117:223,1,121.19999630127,4|0,0:0|0:0,0:0:0:0:
256,300,69765,5,8,0:0:0:0:
39,266,69915,2,0,P|16:210|21:150,1,121.19999630127,4|0,0:0|0:0,0:0:0:0:
298,80,70215,2,0,P|238:74|182:97,1,121.19999630127,4|0,0:0|0:0,0:0:0:0:
369,240,70515,5,8,0:0:0:0:
203,184,70665,1,8,0:0:0:0:
379,80,70815,2,0,P|450:93|497:133,1,121.19999630127,4|0,0:0|0:0,0:0:0:0:
274,260,71115,2,0,P|287:189|327:142,1,121.19999630127,4|0,0:0|0:0,0:0:0:0:
79,281,71415,5,8,0:0:0:0:
215,117,71565,1,4,0:0:0:0:
201,307,71715,1,8,0:0:0:0:
99,115,71865,1,4,0:0:0:0:
329,61,72015,5,8,0:0:0:0:
215,202,72165,1,4,0:0:0:0:
398,94,72315,5,8,0:0:0:0:
192,127,72465,1,4,0:0:0:0:
408,171,72615,5,8,0:0:0:0:
167,51,72765,1,4,0:0:0:0:
400,5,72915,2,0,P|458:18|493:65,1,121.19999630127,8|4,0:0|0:0,0:0:0:0:
234,200,73215,5,8,0:0:0:0:
317,42,73365,1,8,0:0:0:0:
375,253,73515,2,0,P|336:302|276:342,1,121.19999630127,4|0,0:0|0:0,0:0:0:0:
228,122,73815,5,8,0:0:0:0:
419,148,73965,1,8,0:0:0:0:
214,231,74115,1,0,0:0:0:0:
379,66,74265,2,0,P|438:60|491:88,1,121.19999630127,4|0,0:0|0:0,0:0:0:0:
326,239,74565,5,8,0:0:0:0:
227,78,74715,2,0,P|167:71|114:99,1,121.19999630127,4|0,0:0|0:0,0:0:0:0:
101,294,75015,2,0,P|65:246|62:186,1,121.19999630127,4|0,0:0|0:0,0:0:0:0:
286,162,75315,5,8,0:0:0:0:
180,298,75465,1,8,0:0:0:0:
227,77,75615,2,0,P|283:58|341:74,1,121.19999630127,4|0,0:0|0:0,0:0:0:0:
180,298,75915,2,0,P|199:241|183:184,1,121.19999630127,4|0,0:0|0:0,0:0:0:0:
410,163,76215,5,8,0:0:0:0:
282,282,76365,1,4,0:0:0:0:
410,73,76515,5,8,0:0:0:0:
284,222,76665,1,4,0:0:0:0:
332,26,76815,5,8,0:0:0:0:
336,251,76965,1,4,0:0:0:0:
147,62,77115,6,0,P|125:118|118:178,1,121.19999630127,4|0,0:0|0:0,0:0:0:0:
253,356,77415,2,0,P|231:299|224:239,1,121.19999630127,4|0,0:0|0:0,0:0:0:0:
371,70,77715,2,0,P|349:126|342:186,1,121.19999630127,4|0,0:0|0:0,0:0:0:0:
432,269,78015,5,8,0:0:0:0:
221,185,78165,1,0,0:0:0:0:
449,175,78315,5,8,0:0:0:0:
226,266,78465,1,0,0:0:0:0:
512,237,78615,5,8,0:0:0:0:
286,136,78765,1,0,0:0:0:0:
498,70,78915,5,8,0:0:0:0:
352,301,79065,1,0,0:0:0:0:
346,6,79215,5,8,0:0:0:0:
416,226,79365,1,0,0:0:0:0:
207,83,79515,5,8,0:0:0:0:
448,143,79665,1,0,0:0:0:0:
261,20,79815,5,8,0:0:0:0:
296,262,79965,1,0,0:0:0:0:
123,77,80115,5,8,0:0:0:0:
345,172,80265,1,0,0:0:0:0:
126,185,80415,6,0,P|56:242|32:311,1,121.19999630127,4|0,0:0|0:0,0:0:0:0:
375,246,80715,2,0,P|425:213|458:162,1,121.19999630127,4|0,0:0|0:0,0:0:0:0:
174,240,81015,5,8,0:0:0:0:
297,60,81165,1,0,0:0:0:0:
323,325,81315,5,8,0:0:0:0:
236,148,81465,1,0,0:0:0:0:
161,351,81615,5,0,0:0:0:0:
197,53,81765,1,0,0:0:0:0:
370,242,81915,5,8,0:0:0:0:
77,140,82065,1,0,0:0:0:0:
397,43,82215,6,0,L|385:109,1,60.5999981506348,8|0,0:0|0:0,0:0:0:0:
230,299,82365,2,0,L|242:233,1,60.5999981506348,4|0,0:0|0:0,0:0:0:0:
305,28,82515,6,0,L|293:94,1,60.5999981506348,8|0,0:0|0:0,0:0:0:0:
371,323,82665,2,0,L|383:257,1,60.5999981506348,4|0,0:0|0:0,0:0:0:0:
202,112,82815,5,8,0:0:0:0:
430,195,82965,1,0,0:0:0:0:
165,222,83115,5,8,0:0:0:0:
386,103,83265,1,0,0:0:0:0:
95,136,83415,5,8,0:0:0:0:
353,242,83565,1,0,0:0:0:0:
56,238,83715,5,8,0:0:0:0:
355,129,83865,1,0,0:0:0:0:
0,150,84015,5,8,0:0:0:0:
209,328,84165,1,0,0:0:0:0:
206,29,84315,5,8,0:0:0:0:
283,284,84465,1,0,0:0:0:0:
300,24,84615,5,8,0:0:0:0:
208,243,84765,1,0,0:0:0:0:
112,34,84915,5,8,0:0:0:0:
357,240,85065,1,0,0:0:0:0:
48,173,85215,5,8,0:0:0:0:
48,173,85515,5,8,0:0:0:0:
48,173,85815,5,8,0:0:0:0:
157,282,85965,2,0,P|265:267|325:241,1,121.19999630127,8|0,0:0|0:0,0:0:0:0:
381,44,86265,2,0,P|372:118|379:198,1,121.19999630127,4|0,0:0|0:0,0:0:0:0:
163,122,86565,5,8,0:0:0:0:
310,53,86715,1,0,0:0:0:0:
87,64,86865,1,0,0:0:0:0:
320,160,87015,5,0,0:0:0:0:
69,162,87165,2,0,L|147:168,1,60.5999981506348
400,90,87315,2,0,L|322:96,1,60.5999981506348
26,59,87465,2,0,L|104:65,1,60.5999981506348
314,241,87615,5,0,0:0:0:0:
210,81,87765,1,0,0:0:0:0:
146,276,87915,1,0,0:0:0:0:
329,84,88065,2,0,P|391:170|394:204,1,121.19999630127
267,309,88365,5,0,0:0:0:0:
469,220,88515,2,0,P|447:100|363:15,1,242.399992602539
148,124,88965,5,0,0:0:0:0:
311,252,89115,1,0,0:0:0:0:
263,52,89265,1,0,0:0:0:0:
198,271,89415,2,0,P|243:313|321:349,1,121.19999630127
69,171,89715,2,0,P|27:216|-9:294,1,121.19999630127
292,183,90015,5,0,0:0:0:0:
132,102,90165,1,0,0:0:0:0:
352,90,90315,1,0,0:0:0:0:
140,13,90465,2,0,P|83:29|48:77,1,121.19999630127
190,263,90765,5,0,0:0:0:0:
271,18,90915,2,0,P|360:7|489:110,1,242.399992602539
357,264,91365,5,0,0:0:0:0:
162,155,91515,1,0,0:0:0:0:
379,167,91665,1,0,0:0:0:0:
112,267,91815,2,0,P|76:213|67:140,1,121.19999630127
307,57,92115,2,0,P|271:111|262:184,1,121.19999630127
326,315,92415,5,0,0:0:0:0:
439,132,92565,1,0,0:0:0:0:
431,291,92715,1,0,0:0:0:0:
323,89,92865,2,0,P|354:46|444:17,1,121.19999630127
479,226,93165,5,0,0:0:0:0:
239,188,93315,2,0,P|204:96|271:-31,1,242.399992602539
74,188,93765,5,0,0:0:0:0:
186,45,93915,1,0,0:0:0:0:
233,226,94065,1,0,0:0:0:0:
90,69,94215,2,0,P|19:85|-34:151,1,121.19999630127
288,148,94515,2,0,P|359:164|412:230,1,121.19999630127
114,308,94815,5,0,0:0:0:0:
208,155,94965,1,0,0:0:0:0:
232,342,95115,1,0,0:0:0:0:
114,147,95265,5,0,0:0:0:0:
187,275,95415,1,0,0:0:0:0:
268,74,95565,1,0,0:0:0:0:
301,311,95715,1,0,0:0:0:0:
256,192,95865,12,0,100515,0:0:0:0:
