osu file format v14

[General]
AudioFilename: audio.mp3
AudioLeadIn: 0
PreviewTime: 49155
Countdown: 0
SampleSet: None
StackLeniency: 0.5
Mode: 0
LetterboxInBreaks: 0
WidescreenStoryboard: 0

[Editor]
Bookmarks: 34830,85230
DistanceSpacing: 0.8
BeatDivisor: 4
GridSize: 32
TimelineZoom: 2.5

[Metadata]
Title:Super Driver
TitleUnicode:Super Driver
Artist:Hirano Aya
ArtistUnicode:Hirano Aya
Creator:stq
Version:Onlybiscuit
Source:
Tags:
BeatmapID:1690208
BeatmapSetID:805150

[Difficulty]
HPDrainRate:5
CircleSize:3.8
OverallDifficulty:9.2
ApproachRate:9.5
SliderMultiplier:2.02
SliderTickRate:1

[Events]
//Background and Video events
0,0,"BG.jpg",0,0
//Break Periods
//Storyboard Layer 0 (Background)
//Storyboard Layer 1 (Fail)
//Storyboard Layer 2 (Pass)
//Storyboard Layer 3 (Foreground)
//Storyboard Sound Samples

[TimingPoints]
1237,300,4,2,0,52,1,0
1250,-98.0392156862745,4,2,0,52,0,0
3015,300,4,2,0,52,1,0
3015,-192.307692307692,4,2,0,52,0,0
3240,-192.307692307692,4,2,0,5,0,0
3315,-192.307692307692,4,2,0,52,0,0
3540,-192.307692307692,4,2,0,5,0,0
3615,300,4,2,0,52,1,0
3615,-98.0392156862745,4,2,0,52,0,0
5415,-161.290322580645,4,2,0,52,0,0
5640,-121.951219512195,4,2,0,52,0,0
6015,-98.0392156862744,4,2,0,52,0,0
8115,-89.2857142857143,4,2,0,52,0,0
8415,-98.0392156862745,4,2,0,52,0,0
10515,-89.2857142857143,4,2,0,52,0,0
10740,-98.0392156862745,4,2,0,5,0,0
10815,-98.0392156862745,4,2,0,52,0,0
14115,-121.951219512195,4,2,0,52,0,0
14340,-121.951219512195,4,2,0,5,0,0
14415,-121.951219512195,4,2,0,52,0,0
15015,-192.307692307692,4,2,0,52,0,0
15240,-192.307692307692,4,2,0,52,0,0
15315,-138.888888888889,4,2,0,52,0,0
15540,-138.888888888889,4,2,0,52,0,0
15615,-121.951219512195,4,2,0,52,0,0
15915,-108.695652173913,4,2,0,52,0,0
16515,-121.951219512195,4,2,0,52,0,0
16740,-121.951219512195,4,2,0,5,0,0
16815,-108.695652173913,4,2,0,52,0,0
17715,-108.695652173913,4,2,0,52,0,0
17940,-108.695652173913,4,2,0,5,0,0
18015,-108.695652173913,4,2,0,52,0,0
20115,-121.951219512195,4,2,0,52,0,0
20340,-121.951219512195,4,2,0,5,0,0
20415,-98.0392156862745,4,2,0,52,0,0
21315,-108.695652173913,4,2,0,52,0,0
21540,-108.695652173913,4,2,0,5,0,0
21615,-98.0392156862745,4,2,0,52,0,0
26115,-108.695652173913,4,2,0,52,0,0
26340,-108.695652173913,4,2,0,5,0,0
26415,-98.0392156862745,4,2,0,52,0,0
27315,-108.695652173913,4,2,0,52,0,0
27540,-108.695652173913,4,2,0,5,0,0
27615,-98.0392156862745,4,2,0,52,0,0
29940,-98.0392156862745,4,2,0,5,0,0
30015,-98.0392156862745,4,2,0,52,0,0
31140,-98.0392156862745,4,2,0,5,0,0
31215,-98.0392156862745,4,2,0,52,0,0
32115,-108.695652173913,4,2,0,52,0,0
32415,-98.0392156862745,4,2,0,52,0,0
49215,-98.0392156862745,4,2,0,52,0,0
49440,-81.9672131147541,4,2,0,5,0,0
49515,-81.9672131147541,4,2,0,52,0,1
61515,-121.951219512195,4,2,0,52,0,1
61740,-121.951219512195,4,2,0,5,0,1
61815,-81.9672131147541,4,2,0,52,0,1
85215,-98.0392156862745,4,2,0,52,0,0
89715,-89.2857142857143,4,2,0,52,0,0
89940,-89.2857142857143,4,2,0,5,0,0
90015,-98.0392156862745,4,2,0,52,0,0
92115,-89.2857142857143,4,2,0,52,0,0
92340,-98.0392156862745,4,2,0,5,0,0
92415,-98.0392156862745,4,2,0,52,0,0
94515,-89.2857142857143,4,2,0,52,0,0
94740,-89.2857142857143,4,2,0,5,0,0
94815,-98.0392156862745,4,2,0,52,0,0
95790,-98.0392156862745,4,2,0,52,0,0
96615,-98.0392156862745,4,2,0,45,0,0
97215,-98.0392156862745,4,2,0,40,0,0
97815,-98.0392156862745,4,2,0,35,0,0
98415,-98.0392156862745,4,2,0,30,0,0

[HitObjects]
383,204,1237,5,8,0:0:0:0:
139,229,1387,1,8,0:0:0:0:
280,42,1537,1,8,0:0:0:0:
287,324,1687,1,8,0:0:0:0:
98,84,1837,1,8,0:0:0:0:
98,84,2137,5,8,0:0:0:0:
260,241,2287,1,8,0:0:0:0:
188,62,2437,1,8,0:0:0:0:
87,306,2587,1,8,0:0:0:0:
357,122,2737,1,8,0:0:0:0:
357,122,3015,6,0,P|321:137|295:186,1,78.779999519165,0|0,3:0|0:0,0:0:0:0:
260,241,3315,6,0,P|282:209|318:194,1,78.779999519165,0|0,3:0|0:0,0:0:0:0:
428,239,3615,5,8,0:0:0:0:
182,189,3765,1,8,0:0:0:0:
316,348,3915,1,8,0:0:0:0:
357,122,4065,1,8,0:0:0:0:
104,229,4215,1,8,0:0:0:0:
104,229,4515,5,8,0:0:0:0:
317,194,4665,1,8,0:0:0:0:
106,116,4815,1,8,0:0:0:0:
278,268,4965,1,8,0:0:0:0:
395,52,5115,1,8,0:0:0:0:
395,52,5415,6,0,B|346:41|296:52,1,93.9299962735292,8|0,2:3|0:0,0:0:0:0:
222,82,5715,6,0,P|285:101|314:158,1,124.230001895599,4|0,0:0|0:0,0:0:0:0:
317,194,6015,6,0,P|265:203|212:197,1,103.020000628784,4|0,0:0|0:0,0:0:0:0:
110,29,6315,1,8,0:0:0:0:
23,146,6465,2,0,P|15:205|24:258,1,103.020000628784,2|0,0:0|0:0,0:0:0:0:
65,335,6765,1,2,0:0:0:0:
215,197,6915,2,0,B|293:197|293:197|359:224|359:224|433:224,1,206.040001257568,8|0,0:0|3:0,0:0:0:0:
365,135,7365,5,0,0:0:0:0:
309,299,7515,2,0,B|271:313|271:313|197:309,1,103.020000628784,8|0,0:0|0:0,0:0:0:0:
146,144,7815,1,0,3:0:0:0:
98,257,7965,1,0,3:0:0:0:
181,64,8115,2,0,B|268:46|268:112|347:98,1,169.680002071289,8|0,0:0|0:0,0:0:0:0:
399,42,8415,6,0,P|371:82|370:157,1,103.020000628784,4|0,0:0|0:0,0:0:0:0:
396,333,8715,1,8,0:0:0:0:
472,222,8865,1,2,0:0:0:0:
299,238,9015,1,0,0:0:0:0:
364,134,9165,1,2,0:0:0:0:
396,333,9315,2,0,B|324:315|324:315|177:320,1,206.040001257568,8|0,0:0|3:0,0:0:0:0:
150,216,9765,5,0,0:0:0:0:
17,354,9915,2,0,L|21:226,1,103.020000628784,8|0,0:0|0:0,0:0:0:0:
64,58,10215,2,0,L|71:116,1,51.5100003143921,0|0,3:0|0:0,0:0:0:0:
150,216,10365,2,0,L|156:151,1,51.5100003143921,8|0,0:0|0:0,0:0:0:0:
255,56,10515,2,0,L|263:225,1,169.680002071289,8|0,0:0|0:0,0:0:0:0:
299,238,10815,6,0,P|354:244|410:231,1,103.020000628784,4|0,0:0|0:0,0:0:0:0:
255,56,11115,1,8,0:0:0:0:
150,164,11265,2,0,L|148:271,1,103.020000628784,2|0,0:0|0:0,0:0:0:0:
239,339,11565,1,2,0:0:0:0:
349,161,11715,2,0,P|450:168|486:257,1,206.040001257568,8|0,0:0|3:0,0:0:0:0:
394,312,12165,5,0,0:0:0:0:
252,171,12315,2,0,L|141:163,1,103.020000628784,8|0,0:0|0:0,0:0:0:0:
66,38,12615,1,0,3:0:0:0:
32,208,12765,1,0,3:0:0:0:
152,63,12915,2,0,L|263:55,1,103.020000628784,8|0,0:0|0:0,0:0:0:0:
463,155,13215,5,2,0:0:0:0:
254,55,13365,1,0,3:0:0:0:
365,224,13515,1,0,3:0:0:0:
355,100,13665,1,0,3:0:0:0:
218,264,13815,1,0,3:0:0:0:
243,144,13965,1,0,3:0:0:0:
336,344,14115,2,0,L|206:347,1,124.230001895599,8|0,0:0|0:0,0:0:0:0:
167,334,14415,5,2,0:0:0:0:
152,326,14715,1,2,0:0:0:0:
9,137,15015,6,0,P|52:132|93:157,1,78.779999519165,2|0,0:0|0:0,0:0:0:0:
153,180,15315,6,0,P|90:172|30:209,1,109.080002663086,8|0,0:0|0:0,0:0:0:0:
8,250,15615,6,0,P|59:244|107:273,1,82.8200012637329,2|0,0:0|0:0,0:0:0:0:
239,337,15915,2,0,P|188:343|137:309,1,92.9199968807374,8|0,0:0|0:0,0:0:0:0:
253,237,16215,2,0,P|304:231|355:265,1,92.9199968807374,0|0,3:0|3:0,0:0:0:0:
465,348,16515,2,0,L|457:210,1,124.230001895599,10|0,0:0|0:0,0:0:0:0:
459,175,16815,6,0,P|411:165|365:172,1,92.9199968807374,0|0,3:0|0:0,0:0:0:0:
161,233,17115,2,0,P|209:243|255:236,1,92.9199968807374,8|0,0:0|0:0,0:0:0:0:
202,99,17415,1,0,3:0:0:0:
161,233,17565,1,0,3:0:0:0:
37,77,17715,2,0,B|108:65|109:109|175:97,1,139.379995321106,8|0,0:0|0:0,0:0:0:0:
202,99,18015,6,0,P|248:105|309:101,1,92.9199968807374,0|0,3:0|0:0,0:0:0:0:
481,24,18315,2,0,P|482:70|476:116,1,92.9199968807374,8|0,0:0|0:0,0:0:0:0:
398,218,18615,1,0,3:0:0:0:
294,103,18765,1,0,3:0:0:0:
161,233,18915,1,8,0:0:0:0:
202,99,19065,1,0,0:0:0:0:
298,258,19215,6,0,L|301:356,1,92.9199968807374,0|0,3:0|0:0,0:0:0:0:
479,209,19515,2,0,L|476:111,1,92.9199968807374,8|0,0:0|0:0,0:0:0:0:
335,33,19815,1,0,3:0:0:0:
249,180,19965,1,0,3:0:0:0:
153,34,20115,2,0,L|18:30,1,124.230001895599,8|0,0:0|0:0,0:0:0:0:
1,81,20415,6,0,L|136:77,1,103.020000628784,8|0,0:0|0:0,0:0:0:0:
334,220,20715,5,10,0:0:0:0:
160,132,20865,1,0,0:0:0:0:
392,153,21015,5,10,0:0:0:0:
212,251,21165,1,0,3:0:0:0:
414,302,21315,6,0,L|264:296,1,139.379995321106,10|0,0:0|0:0,0:0:0:0:
212,251,21615,5,10,0:0:0:0:
315,99,21765,1,0,0:0:0:0:
78,115,21915,5,10,0:0:0:0:
266,171,22065,1,0,0:0:0:0:
54,295,22215,6,0,L|44:181,1,103.020000628784,10|0,0:0|0:0,0:0:0:0:
176,48,22515,2,0,L|186:162,1,103.020000628784,10|0,0:0|0:0,0:0:0:0:
310,345,22815,5,10,0:0:0:0:
128,245,22965,1,0,0:0:0:0:
363,266,23115,5,10,0:0:0:0:
162,335,23265,1,0,3:0:0:0:
321,187,23415,5,8,0:0:0:0:
407,346,23565,1,2,0:0:0:0:
369,107,23715,5,8,0:0:0:0:
268,273,23865,1,0,3:0:0:0:
263,93,24015,5,8,0:0:0:0:
363,266,24165,1,0,3:0:0:0:
423,38,24315,6,0,P|361:27|310:38,1,103.020000628784,4|0,0:0|0:0,0:0:0:0:
195,159,24615,1,8,0:0:0:0:
103,40,24765,1,0,1:0:0:0:
84,82,24840,1,0,1:0:0:0:
83,128,24915,1,0,1:0:0:0:
99,171,24990,1,0,1:0:0:0:
129,207,25065,1,0,1:0:0:0:
147,249,25140,1,0,1:0:0:0:
148,295,25215,6,0,P|93:307|44:295,1,103.020000628784,0|0,1:0|0:0,0:0:0:0:
257,230,25515,2,0,P|312:218|361:230,1,103.020000628784,8|0,0:0|0:0,0:0:0:0:
447,329,25815,1,0,3:0:0:0:
398,153,25965,1,0,3:0:0:0:
310,330,26115,2,0,P|235:336|162:324,1,139.379995321106,8|0,0:0|0:0,0:0:0:0:
148,295,26415,6,0,P|153:239|184:197,1,103.020000628784,0|0,3:0|0:0,0:0:0:0:
356,79,26715,2,0,P|351:135|320:177,1,103.020000628784,8|0,0:0|0:0,0:0:0:0:
236,66,27015,1,0,3:0:0:0:
178,201,27165,1,0,3:0:0:0:
42,58,27315,2,0,P|52:124|59:209,1,139.379995321106,8|0,0:0|0:0,0:0:0:0:
91,243,27615,6,0,P|96:191|104:140,1,103.020000628784,0|0,3:0|0:0,0:0:0:0:
260,233,27915,2,0,P|265:284|273:335,1,103.020000628784,8|0,0:0|0:0,0:0:0:0:
420,297,28215,1,0,3:0:0:0:
339,154,28365,1,0,3:0:0:0:
196,339,28515,2,0,P|144:333|93:325,1,103.020000628784,8|0,0:0|0:0,0:0:0:0:
260,233,28815,6,0,P|311:238|362:246,1,103.020000628784,0|0,3:0|0:0,0:0:0:0:
236,66,29115,2,0,P|185:71|134:79,1,103.020000628784,8|0,0:0|0:0,0:0:0:0:
244,150,29415,1,0,3:0:0:0:
330,32,29565,1,0,3:0:0:0:
433,187,29715,2,0,L|447:357,1,154.530000943176,10|0,0:0|0:0,0:0:0:0:
402,350,30015,6,0,L|291:343,1,103.020000628784,10|0,0:0|0:0,0:0:0:0:
176,223,30315,5,10,0:0:0:0:
56,360,30465,1,0,0:0:0:0:
85,153,30615,5,10,0:0:0:0:
183,323,30765,1,0,3:0:0:0:
244,150,30915,6,0,P|322:146|402:134,1,154.530000943176,10|0,0:0|0:0,0:0:0:0:
447,70,31215,5,10,0:0:0:0:
238,45,31365,1,0,0:0:0:0:
362,221,31515,5,10,0:0:0:0:
343,56,31665,1,0,0:0:0:0:
176,223,31815,5,10,0:0:0:0:
397,134,31965,1,0,3:0:0:0:
134,115,32115,6,0,L|32:110,1,92.9199968807374,4|0,0:0|0:0,0:0:0:0:
73,228,32415,6,0,L|181:222,1,103.020000628784,0|0,3:0|0:0,0:0:0:0:
420,314,32715,2,0,L|312:308,1,103.020000628784,8|2,0:0|0:0,0:0:0:0:
238,162,33015,1,0,3:0:0:0:
362,221,33165,1,0,3:0:0:0:
182,325,33315,2,0,L|175:215,1,103.020000628784,8|2,0:0|0:0,0:0:0:0:
182,50,33615,5,0,3:0:0:0:
238,162,33765,1,0,0:0:0:0:
382,32,33915,2,0,P|442:29|497:39,1,103.020000628784,4|0,0:0|0:0,0:0:0:0:
340,165,34215,2,0,P|280:168|225:158,1,103.020000628784,2|0,3:0|3:0,0:0:0:0:
203,130,34440,1,0,3:0:0:0:
203,130,34515,1,8,0:0:0:0:
45,37,34665,1,8,0:0:0:0:
45,37,34740,1,8,0:0:0:0:
45,37,34815,6,0,L|40:146,1,103.020000628784,0|2,3:0|0:0,0:0:0:0:
160,342,35115,5,10,0:0:0:0:
119,153,35265,1,0,0:0:0:0:
339,307,35415,5,10,0:0:0:0:
140,246,35565,1,0,0:0:0:0:
340,165,35715,5,10,0:0:0:0:
252,331,35865,1,0,0:0:0:0:
275,91,36015,5,10,0:0:0:0:
409,260,36165,1,0,0:0:0:0:
434,37,36315,6,0,L|313:28,1,103.020000628784,10|0,0:0|3:0,0:0:0:0:
119,153,36615,2,0,L|240:144,1,103.020000628784,10|0,0:0|3:0,0:0:0:0:
92,64,36915,5,10,0:0:0:0:
37,238,37065,1,0,3:0:0:0:
248,223,37215,5,10,0:0:0:0:
38,140,37365,1,0,0:0:0:0:
327,146,37515,5,10,0:0:0:0:
139,235,37665,1,0,0:0:0:0:
398,234,37815,5,10,0:0:0:0:
210,145,37965,1,2,0:0:0:0:
392,82,38115,5,10,0:0:0:0:
323,282,38265,1,0,0:0:0:0:
259,71,38415,5,10,0:0:0:0:
467,181,38565,1,2,0:0:0:0:
210,145,38715,5,10,0:0:0:0:
392,82,38865,1,0,3:0:0:0:
409,304,39015,5,10,0:0:0:0:
313,146,39165,1,0,3:0:0:0:
238,308,39315,6,0,L|136:315,1,103.020000628784,10|0,0:0|3:0,0:0:0:0:
34,133,39615,5,10,0:0:0:0:
230,224,39765,1,0,0:0:0:0:
148,42,39915,5,10,0:0:0:0:
87,237,40065,1,0,0:0:0:0:
266,137,40215,5,10,0:0:0:0:
63,49,40365,1,2,0:0:0:0:
341,47,40515,5,10,0:0:0:0:
128,125,40665,1,0,3:0:0:0:
426,129,40815,5,10,0:0:0:0:
244,47,40965,1,2,0:0:0:0:
510,24,41115,6,0,L|509:162,1,103.020000628784,10|0,0:0|0:0,0:0:0:0:
366,319,41415,2,0,L|367:181,1,103.020000628784,10|0,0:0|0:0,0:0:0:0:
87,292,41715,5,10,0:0:0:0:
281,241,41865,1,2,0:0:0:0:
115,126,42015,5,14,0:0:0:0:
208,335,42165,1,0,0:0:0:0:
335,139,42315,5,10,0:0:0:0:
96,220,42465,1,0,0:0:0:0:
417,266,42615,5,10,0:0:0:0:
206,177,42765,1,0,3:0:0:0:
492,152,42915,5,10,0:0:0:0:
281,241,43065,1,0,3:0:0:0:
481,343,43215,6,0,L|351:351,1,103.020000628784,14|0,0:0|0:0,0:0:0:0:
169,263,43515,5,10,0:0:0:0:
335,139,43665,1,0,0:0:0:0:
99,109,43815,5,10,0:0:0:0:
281,241,43965,1,2,0:0:0:0:
29,351,44115,6,0,L|33:239,1,103.020000628784,10|0,0:0|3:0,0:0:0:0:
246,148,44415,5,10,0:0:0:0:
18,79,44565,1,0,0:0:0:0:
169,263,44715,5,10,0:0:0:0:
311,46,44865,1,0,3:0:0:0:
58,182,45015,5,10,0:0:0:0:
287,322,45165,1,2,0:0:0:0:
172,115,45315,5,10,0:0:0:0:
95,343,45465,1,0,3:0:0:0:
357,262,45615,5,10,0:0:0:0:
138,190,45765,1,0,3:0:0:0:
479,164,45915,5,10,0:0:0:0:
255,235,46065,1,0,3:0:0:0:
362,50,46215,5,10,0:0:0:0:
328,177,46365,1,0,3:0:0:0:
216,41,46515,5,10,0:0:0:0:
289,98,46665,1,0,3:0:0:0:
50,152,46815,5,14,0:0:0:0:
404,128,46965,1,0,3:0:0:0:
130,19,47115,2,0,L|150:137,1,103.020000628784,10|0,0:0|3:0,0:0:0:0:
353,356,47415,5,10,0:0:0:0:
289,98,47565,1,0,3:0:0:0:
149,351,47715,2,0,L|169:233,1,103.020000628784,10|0,0:0|3:0,0:0:0:0:
226,44,48015,6,0,L|348:35,1,103.020000628784,14|2,0:0|0:0,0:0:0:0:
481,92,48315,5,0,1:0:0:0:
490,142,48390,1,0,1:0:0:0:
480,192,48465,1,0,1:0:0:0:
440,224,48540,1,0,1:0:0:0:
388,220,48615,1,0,1:0:0:0:
344,192,48690,1,0,1:0:0:0:
292,192,48765,1,0,1:0:0:0:
243,209,48840,1,0,1:0:0:0:
216,253,48915,1,0,1:0:0:0:
215,304,48990,1,0,1:0:0:0:
187,347,49065,1,0,1:0:0:0:
132,355,49140,1,0,1:0:0:0:
86,331,49215,6,0,P|75:257|94:179,1,154.530000943176,0|0,3:0|0:0,0:0:0:0:
95,136,49515,2,0,P|163:133|228:136,1,123.219994923493,10|0,0:0|3:0,0:0:0:0:
408,144,49815,1,10,0:0:0:0:
243,209,49965,1,0,3:0:0:0:
360,46,50115,1,10,0:0:0:0:
457,244,50265,6,0,L|325:237,1,123.219994923493,0|10,3:0|0:0,0:0:0:0:
187,347,50565,2,0,L|319:340,1,123.219994923493,2|10,0:0|0:0,0:0:0:0:
86,331,50865,2,0,P|80:258|92:196,1,123.219994923493,2|10,0:0|0:0,0:0:0:0:
122,25,51165,1,2,0:0:0:0:
161,190,51315,1,10,0:0:0:0:
141,107,51465,1,2,0:0:0:0:
177,270,51615,6,0,P|249:275|301:236,1,123.219994923493,14|0,0:0|0:0,0:0:0:0:
292,38,51915,2,0,P|244:74|227:133,1,123.219994923493,10|0,0:0|0:0,0:0:0:0:
455,153,52215,2,0,P|402:125|342:133,1,123.219994923493,10|2,0:0|0:0,0:0:0:0:
345,369,52515,6,0,L|348:300,1,61.6099974617463,10|2,0:0|0:0,0:0:0:0:
386,207,52665,6,0,P|374:264|390:337,1,123.219994923493,0|10,3:0|0:0,0:0:0:0:
486,275,52965,1,2,0:0:0:0:
296,244,53115,2,0,P|227:252|162:276,1,123.219994923493,10|0,0:0|3:0,0:0:0:0:
50,353,53415,1,10,0:0:0:0:
245,339,53565,1,0,3:0:0:0:
150,186,53715,1,10,0:0:0:0:
98,275,53865,1,0,3:0:0:0:
30,132,54015,6,0,P|25:60|29:1,1,123.219994923493,14|0,0:0|0:0,0:0:0:0:
151,63,54315,2,0,P|153:124|149:185,1,123.219994923493,10|0,0:0|3:0,0:0:0:0:
259,51,54615,1,10,0:0:0:0:
350,163,54765,1,0,3:0:0:0:
470,42,54915,2,0,P|407:38|343:40,1,123.219994923493,10|0,0:0|0:0,0:0:0:0:
252,194,55215,5,14,0:0:0:0:
442,291,55365,2,0,P|449:227|442:157,1,123.219994923493,2|10,0:0|0:0,0:0:0:0:
252,194,55665,2,0,P|245:258|252:328,1,123.219994923493,2|10,0:0|0:0,0:0:0:0:
350,163,55965,2,0,P|354:101|347:40,1,123.219994923493,2|10,0:0|0:0,0:0:0:0:
215,25,56265,1,0,0:0:0:0:
144,226,56415,5,10,0:0:0:0:
71,57,56565,1,0,0:0:0:0:
252,194,56715,5,10,0:0:0:0:
48,144,56865,1,0,0:0:0:0:
350,163,57015,5,10,0:0:0:0:
144,226,57165,1,0,3:0:0:0:
401,288,57315,6,0,L|247:283,1,123.219994923493,10|0,0:0|3:0,0:0:0:0:
51,266,57615,6,0,P|44:204|49:133,1,123.219994923493,10|0,0:0|3:0,0:0:0:0:
174,29,57915,5,10,0:0:0:0:
244,198,58065,1,0,3:0:0:0:
373,35,58215,5,10,0:0:0:0:
204,113,58365,1,0,3:0:0:0:
425,208,58515,5,10,0:0:0:0:
289,72,58665,1,0,0:0:0:0:
277,284,58815,6,0,L|123:279,1,123.219994923493,14|0,0:0|0:0,0:0:0:0:
80,116,59115,2,0,L|234:111,1,123.219994923493,10|0,0:0|0:0,0:0:0:0:
425,208,59415,1,10,0:0:0:0:
244,198,59565,1,0,3:0:0:0:
450,111,59715,1,10,0:0:0:0:
399,288,59865,6,0,P|333:291|258:279,1,123.219994923493,0|10,3:0|0:0,0:0:0:0:
203,112,60165,2,0,P|269:109|344:121,1,123.219994923493,0|10,3:0|0:0,0:0:0:0:
153,280,60465,2,0,P|87:283|12:271,1,123.219994923493,0|10,3:0|0:0,0:0:0:0:
94,87,60765,1,0,3:0:0:0:
244,198,60915,1,10,0:0:0:0:
93,199,61065,1,0,3:0:0:0:
266,51,61215,6,0,P|285:118|262:184,1,123.219994923493,14|0,0:0|0:0,0:0:0:0:
30,275,61515,2,0,B|74:277|74:277|113:291|113:291|157:282,1,124.230001895599,10|0,0:0|0:0,0:0:0:0:
195,291,61815,1,10,0:0:0:0:
356,188,61965,1,0,3:0:0:0:
356,369,62115,1,10,0:0:0:0:
271,249,62265,1,0,3:0:0:0:
440,141,62415,5,10,0:0:0:0:
483,327,62565,1,0,0:0:0:0:
377,78,62715,5,10,0:0:0:0:
359,277,62865,1,0,3:0:0:0:
359,277,62940,1,0,3:0:0:0:
359,277,63015,1,10,0:0:0:0:
232,155,63165,1,0,3:0:0:0:
89,303,63315,2,0,P|82:232|89:171,1,123.219994923493,10|0,0:0|3:0,0:0:0:0:
230,32,63615,6,0,P|237:103|230:164,1,123.219994923493,10|0,0:0|0:0,0:0:0:0:
26,108,63915,2,0,P|91:97|160:112,1,123.219994923493,10|0,0:0|3:0,0:0:0:0:
224,283,64215,1,10,0:0:0:0:
319,139,64365,1,0,3:0:0:0:
397,341,64515,2,0,P|390:270|397:209,1,123.219994923493,10|0,0:0|3:0,0:0:0:0:
357,59,64815,5,10,0:0:0:0:
276,213,64965,2,0,P|214:230|151:226,1,123.219994923493,0|2,3:0|0:0,0:0:0:0:
319,139,65265,2,0,P|381:122|444:126,1,123.219994923493,0|10,3:0|0:0,0:0:0:0:
316,289,65565,1,0,3:0:0:0:
201,146,65715,2,0,P|139:129|76:133,1,123.219994923493,10|0,0:0|0:0,0:0:0:0:
201,329,66015,6,0,P|261:317|315:288,1,123.219994923493,14|0,0:0|0:0,0:0:0:0:
286,59,66315,5,10,0:0:0:0:
128,213,66465,1,0,0:0:0:0:
389,199,66615,5,10,0:0:0:0:
201,146,66765,1,0,3:0:0:0:
414,36,66915,6,0,P|449:88|462:152,1,123.219994923493,10|0,0:0|3:0,0:0:0:0:
411,315,67215,6,0,L|346:275,3,61.6099974617463,0|0|0|0,3:0|3:0|3:0|3:0,0:0:0:0:
228,237,67515,2,0,L|293:197,3,61.6099974617463,10|0|0|0,0:0|3:0|3:0|3:0,0:0:0:0:
374,128,67815,5,10,0:0:0:0:
374,128,67890,1,0,3:0:0:0:
370,123,67965,1,0,3:0:0:0:
370,123,68040,1,0,3:0:0:0:
374,128,68115,2,0,L|243:105,1,123.219994923493,10|0,0:0|0:0,0:0:0:0:
41,30,68415,6,0,P|33:84|33:164,1,123.219994923493,10|0,0:0|0:0,0:0:0:0:
128,328,68715,5,10,0:0:0:0:
201,146,68865,1,0,3:0:0:0:
330,334,69015,5,10,0:0:0:0:
162,233,69165,1,0,3:0:0:0:
380,168,69315,5,10,0:0:0:0:
230,333,69465,1,0,0:0:0:0:
288,151,69615,5,10,0:0:0:0:
439,300,69765,1,0,3:0:0:0:
243,224,69915,5,10,0:0:0:0:
488,138,70065,1,0,3:0:0:0:
264,60,70215,6,0,P|205:58|139:62,1,123.219994923493,10|0,0:0|3:0,0:0:0:0:
75,139,70440,1,0,0:0:0:0:
75,139,70515,2,0,P|134:141|200:137,1,123.219994923493,10|0,0:0|3:0,0:0:0:0:
370,48,70815,5,10,0:0:0:0:
466,217,70965,1,0,0:0:0:0:
288,151,71115,5,10,0:0:0:0:
466,62,71265,1,0,0:0:0:0:
140,61,71415,5,10,0:0:0:0:
372,139,71565,1,0,3:0:0:0:
108,253,71715,5,10,0:0:0:0:
246,42,71865,1,0,3:0:0:0:
310,249,72015,5,0,3:0:0:0:
310,285,72090,1,0,3:0:0:0:
301,321,72165,1,0,3:0:0:0:
278,350,72240,1,0,3:0:0:0:
243,364,72315,2,0,P|172:363|105:328,1,123.219994923493,10|0,0:0|3:0,0:0:0:0:
18,171,72615,5,10,0:0:0:0:
54,168,72690,1,0,3:0:0:0:
91,166,72765,1,0,3:0:0:0:
128,163,72840,1,0,3:0:0:0:
165,161,72915,2,0,L|293:149,1,123.219994923493,10|0,0:0|0:0,0:0:0:0:
432,259,73215,6,0,L|303:247,1,123.219994923493,10|0,0:0|0:0,0:0:0:0:
162,74,73515,5,10,0:0:0:0:
388,131,73665,1,0,0:0:0:0:
187,257,73815,5,10,0:0:0:0:
274,67,73965,1,0,3:0:0:0:
324,329,74115,5,10,0:0:0:0:
236,149,74265,1,0,3:0:0:0:
151,348,74415,5,10,0:0:0:0:
281,236,74565,1,2,0:0:0:0:
41,196,74715,5,10,0:0:0:0:
241,331,74865,1,0,3:0:0:0:
162,74,75015,5,10,0:0:0:0:
79,275,75165,1,0,3:0:0:0:
314,155,75315,6,0,P|380:162|448:159,1,123.219994923493,10|0,0:0|0:0,0:0:0:0:
252,69,75615,5,10,0:0:0:0:
416,247,75765,1,0,0:0:0:0:
203,147,75915,5,10,0:0:0:0:
436,160,76065,1,0,0:0:0:0:
189,238,76215,5,10,0:0:0:0:
428,70,76365,1,2,0:0:0:0:
242,311,76515,5,10,0:0:0:0:
337,35,76665,1,2,0:0:0:0:
360,314,76815,6,0,P|295:327|228:301,1,123.219994923493,10|0,0:0|0:0,0:0:0:0:
80,114,77115,1,0,1:0:0:0:
105,148,77190,1,0,1:0:0:0:
146,158,77265,1,0,1:0:0:0:
174,145,77340,1,0,1:0:0:0:
203,134,77415,1,0,3:0:0:0:
233,134,77490,1,0,3:0:0:0:
261,145,77565,5,0,3:0:0:0:
283,166,77640,1,0,3:0:0:0:
313,196,77715,1,0,1:0:0:0:
359,211,77790,1,0,0:0:0:0:
406,199,77865,1,0,0:0:0:0:
438,162,77940,1,0,0:0:0:0:
433,112,78015,5,0,3:0:0:0:
250,41,78165,5,8,0:0:0:0:
212,253,78315,2,0,L|72:267,1,123.219994923493,0|8,3:0|0:0,0:0:0:0:
174,145,78615,1,0,3:0:0:0:
340,325,78765,1,8,0:0:0:0:
267,182,78915,1,0,3:0:0:0:
209,344,79065,1,8,0:0:0:0:
403,247,79215,6,0,L|398:119,1,123.219994923493,0|8,3:0|0:0,0:0:0:0:
321,56,79515,1,0,3:0:0:0:
212,253,79665,1,8,0:0:0:0:
161,74,79815,2,0,L|35:68,1,123.219994923493,0|8,3:0|0:0,0:0:0:0:
29,204,80115,1,0,3:0:0:0:
161,74,80265,1,8,0:0:0:0:
212,253,80415,6,0,P|272:264|332:249,1,123.219994923493,0|8,3:0|0:0,0:0:0:0:
478,122,80715,2,0,P|418:111|358:126,1,123.219994923493,0|8,3:0|0:0,0:0:0:0:
377,333,81015,1,0,3:0:0:0:
267,182,81165,1,8,0:0:0:0:
94,340,81315,1,0,3:0:0:0:
181,157,81465,1,8,0:0:0:0:
253,336,81615,6,0,L|379:332,1,123.219994923493,0|8,3:0|0:0,0:0:0:0:
212,253,81915,2,0,L|86:249,1,123.219994923493,0|8,3:0|0:0,0:0:0:0:
29,124,82215,1,0,3:0:0:0:
233,71,82365,1,0,1:0:0:0:
276,71,82440,1,0,1:0:0:0:
319,71,82515,1,0,1:0:0:0:
362,71,82590,1,0,1:0:0:0:
405,71,82665,1,0,1:0:0:0:
448,71,82740,1,0,1:0:0:0:
491,71,82815,5,0,1:0:0:0:
424,269,82965,1,8,0:0:0:0:
313,167,83115,2,0,L|180:164,1,123.219994923493,0|8,3:0|0:0,0:0:0:0:
77,57,83415,1,0,3:0:0:0:
125,236,83565,1,8,0:0:0:0:
233,71,83715,1,2,0:0:0:0:
300,271,83865,6,0,L|433:268,1,123.219994923493,8|0,0:0|3:0,0:0:0:0:
362,71,84165,1,8,0:0:0:0:
219,241,84315,2,0,L|210:369,1,123.219994923493,0|8,3:0|0:0,0:0:0:0:
423,268,84615,2,0,L|432:140,1,123.219994923493,0|8,3:0|0:0,0:0:0:0:
233,71,84915,5,8,0:0:0:0:
125,236,85065,1,0,3:0:0:0:
431,145,85215,1,4,3:0:0:0:
86,70,85815,5,4,3:0:0:0:
321,343,86265,6,0,L|312:230,1,103.020000628784,8|2,0:0|0:0,0:0:0:0:
150,125,86565,1,0,3:0:0:0:
240,304,86715,1,0,3:0:0:0:
216,42,86865,1,0,3:0:0:0:
44,247,87015,1,0,3:0:0:0:
306,161,87165,1,0,1:0:0:0:
306,161,87240,1,0,1:0:0:0:
306,161,87315,2,0,L|387:155,3,51.5100003143921,0|0|0|0,1:0|1:0|1:0|1:0,0:0:0:0:
398,94,87615,6,0,L|407:207,1,103.020000628784,8|0,0:0|0:0,0:0:0:0:
291,72,87915,1,8,0:0:0:0:
223,215,88065,2,0,P|168:222|112:210,1,103.020000628784,2|0,0:0|0:0,0:0:0:0:
172,123,88365,1,2,0:0:0:0:
265,335,88515,2,0,B|283:315|318:322|318:322|394:367|472:330,1,206.040001257568,8|0,0:0|3:0,0:0:0:0:
394,248,88965,5,0,0:0:0:0:
169,328,89115,2,0,B|128:319|128:319|48:319,1,103.020000628784,8|0,0:0|1:0,0:0:0:0:
48,148,89415,1,0,0:0:0:0:
193,244,89565,1,2,0:0:0:0:
31,120,89715,2,0,B|118:102|118:168|197:154,1,169.680002071289,8|0,0:0|0:0,0:0:0:0:
266,190,90015,6,0,P|241:145|240:95,1,103.020000628784,0|0,3:0|0:0,0:0:0:0:
394,40,90315,1,8,0:0:0:0:
416,152,90465,2,0,P|365:150|320:125,1,103.020000628784,2|0,0:0|3:0,0:0:0:0:
394,40,90765,1,0,3:0:0:0:
459,239,90915,2,0,P|351:235|258:182,1,206.040001257568,8|0,0:0|3:0,0:0:0:0:
169,71,91365,5,0,3:0:0:0:
47,285,91515,2,0,L|162:282,1,103.020000628784,8|0,0:0|0:0,0:0:0:0:
338,260,91815,2,0,L|273:254,1,51.5100003143921,0|0,3:0|0:0,0:0:0:0:
203,330,91965,2,0,L|268:324,1,51.5100003143921,8|0,0:0|0:0,0:0:0:0:
382,343,92115,2,0,L|371:173,1,169.680002071289,8|0,0:0|0:0,0:0:0:0:
350,136,92415,6,0,L|230:131,1,103.020000628784,0|0,3:0|0:0,0:0:0:0:
70,36,92715,1,8,0:0:0:0:
47,201,92865,2,0,L|169:197,1,103.020000628784,2|0,0:0|3:0,0:0:0:0:
110,113,93165,1,0,3:0:0:0:
47,285,93315,2,0,L|290:278,1,206.040001257568,8|0,0:0|3:0,0:0:0:0:
316,185,93765,5,0,3:0:0:0:
465,346,93915,2,0,L|457:232,1,103.020000628784,8|0,0:0|0:0,0:0:0:0:
453,202,94140,1,2,0:0:0:0:
446,161,94215,1,0,3:0:0:0:
341,276,94365,1,0,3:0:0:0:
240,96,94515,2,0,P|152:80|72:105,1,169.680002071289,8|0,0:0|0:0,0:0:0:0:
48,147,94815,5,0,3:0:0:0:
149,288,94965,1,4,3:0:0:0:
240,96,95115,1,8,0:0:0:0:
95,221,95265,1,0,3:0:0:0:
377,185,95415,1,8,3:0:0:0:
159,42,95565,1,0,3:0:0:0:
212,352,95715,1,8,0:0:0:0:
256,192,95790,12,0,101865,0:0:0:0:
