osu file format v14

[General]
AudioFilename: audio.mp3
AudioLeadIn: 0
PreviewTime: 49215
Countdown: 0
SampleSet: Soft
StackLeniency: 0.7
Mode: 0
LetterboxInBreaks: 0
WidescreenStoryboard: 0

[Editor]
Bookmarks: 12615
DistanceSpacing: 1.3
BeatDivisor: 4
GridSize: 8
TimelineZoom: 2.5

[Metadata]
Title:Super Driver
TitleUnicode:Super Driver
Artist:Hirano Aya
ArtistUnicode:Hirano Aya
Creator:stq
Version:GreenHue - The Winner
Source:
Tags:
BeatmapID:1690200
BeatmapSetID:805150

[Difficulty]
HPDrainRate:5
CircleSize:4.2
OverallDifficulty:9
ApproachRate:9.2
SliderMultiplier:1.8
SliderTickRate:1

[Events]
//Background and Video events
0,0,"BG.jpg",0,0
//Break Periods
//Storyboard Layer 0 (Background)
//Storyboard Layer 1 (Fail)
//Storyboard Layer 2 (Pass)
//Storyboard Layer 3 (Foreground)
//Storyboard Sound Samples

[TimingPoints]
1215,300,4,2,0,52,1,0
3015,-125,4,2,0,52,0,0
5415,-100,4,2,0,52,0,0
5715,-62.5,4,2,0,52,0,0
6015,-100,4,2,0,52,0,0
14115,-125,4,2,0,52,0,0
15016,-125,4,2,0,52,0,0
15615,-111.111111111111,4,2,0,52,0,0
72915,-99.9999999999999,4,2,0,52,0,0
73215,-111.111111111111,4,2,0,52,0,0

[Colours]
Combo1 : 155,123,123
Combo2 : 233,188,120
Combo3 : 192,192,192
Combo4 : 239,103,69

[HitObjects]
43,116,1215,5,8,0:0:0:0:
56,267,1365,1,8,0:0:0:0:
202,53,1515,5,8,0:0:0:0:
163,199,1665,1,8,0:0:0:0:
94,12,1815,1,8,0:0:0:0:
469,116,2115,5,8,0:0:0:0:
456,267,2265,1,8,0:0:0:0:
310,53,2415,5,8,0:0:0:0:
349,199,2565,1,8,0:0:0:0:
418,12,2715,1,8,0:0:0:0:
261,320,3015,6,2,P|249:259|261:198,1,108,2|0,0:0|0:0,0:0:0:0:
249,108,3315,2,2,P|261:169|249:230,1,108,2|0,0:0|0:0,0:0:0:0:
133,300,3615,5,10,0:0:0:0:
120,153,3765,1,10,0:0:0:0:
0,189,3915,5,10,0:0:0:0:
62,55,4065,1,10,0:0:0:0:
83,231,4215,1,10,0:0:0:0:
379,300,4515,5,10,0:0:0:0:
392,153,4665,1,10,0:0:0:0:
512,189,4815,5,10,0:0:0:0:
450,55,4965,1,10,0:0:0:0:
429,231,5115,1,10,0:0:0:0:
261,85,5415,6,2,B|223:74|193:88|193:88|163:101|121:82,1,135,2|0,0:0|0:0,0:0:0:0:
64,42,5715,2,2,P|139:-2|96:85,1,216,4|0,0:0|0:0,0:0:0:0:
38,155,6015,5,0,0:0:0:0:
132,282,6165,1,0,0:0:0:0:
173,169,6315,1,8,0:0:0:0:
36,295,6465,2,0,P|47:339|181:376,1,180
259,326,6915,2,8,L|274:141,1,180,8|0,0:0|0:0,0:0:0:0:
284,14,7365,5,0,0:0:0:0:
388,164,7515,1,8,0:0:0:0:
268,197,7665,5,0,0:0:0:0:
385,73,7815,1,0,0:0:0:0:
377,274,7965,5,0,0:0:0:0:
276,112,8115,1,8,0:0:0:0:
469,231,8265,1,0,0:0:0:0:
280,294,8415,6,0,P|229:303|179:291,1,90,4|0,0:0|0:0,0:0:0:0:
116,233,8715,1,8,0:0:0:0:
253,17,8865,2,0,L|233:204,1,180
10,249,9315,2,0,P|28:173|117:131,1,180,8|0,0:0|0:0,0:0:0:0:
219,256,9765,5,0,0:0:0:0:
142,352,9915,1,12,0:0:0:0:
109,237,10065,5,0,0:0:0:0:
247,377,10215,1,0,0:0:0:0:
44,325,10365,5,0,0:0:0:0:
180,155,10515,1,8,0:0:0:0:
142,352,10665,1,0,0:0:0:0:
7,223,10815,6,0,L|-2:116,1,90,4|0,0:0|0:0,0:0:0:0:
51,31,11115,1,8,0:0:0:0:
180,155,11265,2,0,P|263:188|360:146,1,180
453,44,11715,6,0,B|417:96|417:96|437:220,1,180,8|0,0:0|0:0,0:0:0:0:
452,316,12165,5,0,0:0:0:0:
499,151,12315,1,8,0:0:0:0:
299,115,12465,5,0,0:0:0:0:
436,236,12615,1,0,0:0:0:0:
369,37,12765,5,0,0:0:0:0:
328,214,12915,1,12,0:0:0:0:
468,59,13065,1,0,0:0:0:0:
272,122,13215,6,0,L|176:114,1,90
72,51,13515,1,8,0:0:0:0:
219,29,13665,1,0,0:0:0:0:
122,248,13815,1,0,0:0:0:0:
152,109,13965,1,0,0:0:0:0:
293,328,14115,6,0,B|222:355|222:355|158:326|158:326|76:360|2:271|59:195,1,360,12|0,0:0|0:0,0:0:0:0:
191,232,15015,2,0,P|142:238|116:253,1,72
285,142,15315,2,0,P|240:140|210:123,1,72
365,53,15615,6,0,B|397:100|397:100|387:220,1,161.999995056153,4|8,0:0|0:0,0:0:0:0:
375,318,16065,1,0,0:0:0:0:
475,236,16215,2,0,L|482:149,1,80.9999975280763
365,53,16515,2,0,L|358:140,1,80.9999975280763,8|0,0:0|0:0,0:0:0:0:
270,229,16815,6,0,P|229:239|187:227,1,80.9999975280763
123,116,17115,2,0,P|164:106|206:118,1,80.9999975280763,8|0,0:0|0:0,0:0:0:0:
26,205,17415,1,0,0:0:0:0:
44,69,17565,1,0,0:0:0:0:
115,240,17715,2,0,L|109:333,1,80.9999975280763,8|0,0:0|0:0,0:0:0:0:
233,295,18015,6,0,L|238:102,1,161.999995056153,0|8,0:0|0:0,0:0:0:0:
371,108,18465,1,0,0:0:0:0:
326,222,18615,1,0,0:0:0:0:
286,36,18765,2,0,P|322:11|381:4,1,80.9999975280763,0|8,0:0|0:0,0:0:0:0:
484,86,19065,1,0,0:0:0:0:
441,308,19215,6,0,B|422:187|422:187|466:224,1,161.999995056153,0|8,0:0|0:0,0:0:0:0:
335,333,19665,1,0,0:0:0:0:
335,333,19740,1,0,0:0:0:0:
335,333,19815,6,0,L|248:328,1,80.9999975280763
148,208,20115,2,0,L|255:215,1,80.9999975280763,8|0,0:0|0:0,0:0:0:0:
129,318,20415,5,12,0:0:0:0:
201,108,20565,1,0,0:0:0:0:
203,294,20715,5,8,0:0:0:0:
131,84,20865,1,0,0:0:0:0:
358,320,21015,5,8,0:0:0:0:
286,110,21165,1,0,0:0:0:0:
284,296,21315,5,8,0:0:0:0:
356,86,21465,1,0,0:0:0:0:
203,294,21615,6,0,P|200:337|205:385,1,80.9999975280763,8|0,0:0|0:0,0:0:0:0:
286,110,21915,2,0,P|289:67|284:19,1,80.9999975280763,8|0,0:0|0:0,0:0:0:0:
89,293,22215,6,0,P|86:336|91:384,1,80.9999975280763,8|0,0:0|0:0,0:0:0:0:
170,109,22515,2,0,P|173:66|168:18,1,80.9999975280763,8|0,0:0|0:0,0:0:0:0:
48,200,22815,6,0,B|96:179|132:199|132:199|170:217|215:196,1,161.999995056153,4|8,0:0|0:0,0:0:0:0:
378,130,23265,2,0,L|376:243,1,80.9999975280763
241,286,23565,1,0,0:0:0:0:
290,147,23715,1,8,0:0:0:0:
339,343,23865,1,0,0:0:0:0:
190,154,24015,6,0,L|101:161,1,80.9999975280763
20,265,24315,2,0,L|118:255,1,80.9999975280763,12|0,0:0|0:0,0:0:0:0:
209,55,24615,1,0,0:0:0:0:
59,56,24765,5,8,0:0:0:0:
46,94,24840,1,8,0:0:0:0:
56,133,24915,1,8,0:0:0:0:
74,168,24990,1,8,0:0:0:0:
89,205,25065,1,8,0:0:0:0:
77,243,25140,1,8,0:0:0:0:
51,275,25215,6,0,B|133:254|133:254|222:283,1,161.999995056153,12|8,0:0|0:0,0:0:0:0:
304,318,25665,1,0,0:0:0:0:
426,253,25815,6,0,L|418:155,1,80.9999975280763
256,108,26115,1,8,0:0:0:0:
332,209,26265,1,0,0:0:0:0:
303,25,26415,6,0,P|262:13|214:22,1,80.9999975280763
52,32,26715,6,0,P|93:20|141:29,1,80.9999975280763,8|0,0:0|0:0,0:0:0:0:
330,146,27015,2,0,L|249:138,1,80.9999975280763
19,147,27315,2,0,L|99:139,1,80.9999975280763,8|0,0:0|0:0,0:0:0:0:
239,236,27615,6,0,P|256:271|218:391,1,161.999995056153,0|8,0:0|0:0,0:0:0:0:
44,234,28065,1,0,0:0:0:0:
181,297,28215,1,0,0:0:0:0:
27,348,28365,1,0,0:0:0:0:
138,148,28515,2,8,L|129:250,1,80.9999975280763,8|0,0:0|0:0,0:0:0:0:
42,124,28815,6,0,P|64:80|188:56,1,161.999995056153,0|8,0:0|0:0,0:0:0:0:
273,146,29265,1,0,0:0:0:0:
402,79,29415,2,0,P|402:29|392:-20,1,80.9999975280763
269,172,29715,2,0,P|267:212|274:266,1,80.9999975280763,8|0,0:0|0:0,0:0:0:0:
339,25,30015,5,12,0:0:0:0:
179,172,30165,1,0,0:0:0:0:
410,244,30315,5,8,0:0:0:0:
282,87,30465,1,0,0:0:0:0:
208,342,30615,5,8,0:0:0:0:
353,172,30765,1,0,0:0:0:0:
124,101,30915,5,8,0:0:0:0:
247,253,31065,1,0,0:0:0:0:
325,9,31215,6,0,P|279:-4|225:17,1,80.9999975280763,8|0,0:0|0:0,0:0:0:0:
0,172,31515,2,0,P|46:185|100:164,1,80.9999975280763,8|0,0:0|0:0,0:0:0:0:
353,172,31815,6,0,P|307:159|253:180,1,80.9999975280763,8|0,0:0|0:0,0:0:0:0:
28,335,32115,2,0,P|74:348|128:327,1,80.9999975280763,8|0,0:0|0:0,0:0:0:0:
78,93,32415,6,0,B|46:140|46:140|75:269,1,161.999995056153,4|8,0:0|0:0,0:0:0:0:
272,308,32865,2,0,L|235:215,1,80.9999975280763
69,242,33165,1,0,0:0:0:0:
197,333,33315,1,8,0:0:0:0:
99,163,33465,1,0,0:0:0:0:
0,304,33615,6,0,P|-5:340|6:387,1,80.9999975280763
178,192,33915,2,0,P|183:156|172:109,1,80.9999975280763,12|0,0:0|0:0,0:0:0:0:
20,154,34215,1,0,0:0:0:0:
142,274,34365,1,0,0:0:0:0:
142,274,34440,1,0,0:0:0:0:
142,274,34515,1,8,0:0:0:0:
252,62,34665,1,0,0:0:0:0:
104,158,34815,5,12,0:0:0:0:
319,206,34965,1,0,0:0:0:0:
58,236,35115,5,8,0:0:0:0:
273,284,35265,1,0,0:0:0:0:
252,62,35415,5,8,0:0:0:0:
136,250,35565,1,0,0:0:0:0:
312,132,35715,5,8,0:0:0:0:
196,320,35865,1,0,0:0:0:0:
155,80,36015,6,0,L|161:-10,1,80.9999975280763,8|0,0:0|0:0,0:0:0:0:
318,214,36315,2,0,L|312:294,1,80.9999975280763,8|0,0:0|0:0,0:0:0:0:
249,92,36615,6,0,L|255:2,1,80.9999975280763,8|0,0:0|0:0,0:0:0:0:
412,226,36915,2,0,L|406:306,1,80.9999975280763,8|0,0:0|0:0,0:0:0:0:
383,99,37215,5,12,0:0:0:0:
330,308,37365,1,0,0:0:0:0:
252,52,37515,5,8,0:0:0:0:
254,267,37665,1,0,0:0:0:0:
113,63,37815,5,8,0:0:0:0:
170,270,37965,1,0,0:0:0:0:
0,135,38115,5,8,0:0:0:0:
108,320,38265,1,0,0:0:0:0:
198,97,38415,6,0,P|200:31|193:0,1,80.9999975280763,8|0,0:0|0:0,0:0:0:0:
80,238,38715,2,0,P|78:304|85:335,1,80.9999975280763,8|0,0:0|0:0,0:0:0:0:
319,96,39015,6,0,P|321:30|314:-1,1,80.9999975280763,8|0,0:0|0:0,0:0:0:0:
201,237,39315,2,0,P|199:303|206:334,1,80.9999975280763,8|0,0:0|0:0,0:0:0:0:
387,237,39615,5,12,0:0:0:0:
130,324,39765,1,0,0:0:0:0:
459,323,39915,5,8,0:0:0:0:
201,237,40065,1,0,0:0:0:0:
386,133,40215,5,8,0:0:0:0:
128,47,40365,1,0,0:0:0:0:
457,46,40515,5,8,0:0:0:0:
200,133,40665,1,0,0:0:0:0:
376,46,40815,6,0,P|412:41|481:54,1,80.9999975280763,8|0,0:0|0:0,0:0:0:0:
227,216,41115,2,0,P|191:221|122:208,1,80.9999975280763,8|0,0:0|0:0,0:0:0:0:
373,163,41415,6,0,P|409:158|478:171,1,80.9999975280763,8|0,0:0|0:0,0:0:0:0:
224,333,41715,2,0,P|188:338|119:325,1,80.9999975280763,8|0,0:0|0:0,0:0:0:0:
70,200,42015,6,0,L|48:359,1,161.999995056153,4|8,0:0|0:0,0:0:0:0:
48,360,42465,1,0,0:0:0:0:
17,135,42615,2,0,P|55:114|108:124,1,80.9999975280763
162,224,42915,2,0,P|165:262|159:316,1,80.9999975280763,8|0,0:0|0:0,0:0:0:0:
253,135,43215,6,0,B|300:118|337:132|337:132|385:151|436:127,1,161.999995056153,4|8,0:0|0:0,0:0:0:0:
375,27,43665,1,0,0:0:0:0:
301,218,43815,2,0,L|312:316,1,80.9999975280763
438,367,44115,2,0,L|426:268,1,80.9999975280763,8|0,0:0|0:0,0:0:0:0:
231,337,44415,6,0,P|263:375|309:388,1,80.9999975280763,4|0,0:0|0:0,0:0:0:0:
386,179,44715,2,0,P|353:140|307:123,1,80.9999975280763,8|0,0:0|0:0,0:0:0:0:
169,107,45015,1,0,0:0:0:0:
298,217,45165,1,0,0:0:0:0:
257,52,45315,1,8,0:0:0:0:
181,215,45465,1,0,0:0:0:0:
353,82,45615,6,0,P|357:41|339:-6,1,80.9999975280763
160,28,45915,2,0,P|156:69|174:116,1,80.9999975280763,8|0,0:0|0:0,0:0:0:0:
298,217,46215,2,0,L|289:312,1,80.9999975280763
150,342,46515,2,0,L|158:246,1,80.9999975280763,8|0,0:0|0:0,0:0:0:0:
383,248,46815,5,12,0:0:0:0:
167,177,46965,1,0,0:0:0:0:
327,313,47115,5,8,0:0:0:0:
224,110,47265,1,0,0:0:0:0:
240,325,47415,5,8,0:0:0:0:
310,108,47565,1,0,0:0:0:0:
171,267,47715,5,8,0:0:0:0:
373,163,47865,1,0,0:0:0:0:
240,325,48015,6,0,P|203:351|151:358,1,80.9999975280763,8|0,0:0|0:0,0:0:0:0:
28,297,48315,2,0,L|31:223,1,40.4999987640381,8|0,0:0|0:0,0:0:0:0:
116,158,48465,2,0,L|116:225,1,40.4999987640381,8|0,0:0|0:0,0:0:0:0:
44,71,48615,1,8,0:0:0:0:
80,53,48690,1,8,0:0:0:0:
120,48,48765,1,8,0:0:0:0:
159,57,48840,1,8,0:0:0:0:
195,76,48915,1,8,0:0:0:0:
233,88,48990,1,8,0:0:0:0:
273,83,49065,1,8,0:0:0:0:
310,67,49140,1,8,0:0:0:0:
338,48,49215,6,0,L|439:40,1,80.9999975280763,4|0,0:0|0:0,0:0:0:0:
327,201,49515,6,0,L|225:208,1,80.9999975280763,8|0,0:0|0:0,0:0:0:0:
135,287,49815,2,0,P|130:334|150:377,1,80.9999975280763
246,207,50115,1,8,0:0:0:0:
126,158,50265,1,0,0:0:0:0:
253,313,50415,6,0,L|352:305,1,80.9999975280763
410,158,50715,6,0,L|311:166,1,80.9999975280763,8|0,0:0|0:0,0:0:0:0:
451,340,51015,2,0,P|454:293|438:255,1,80.9999975280763
298,171,51315,5,8,0:0:0:0:
375,308,51465,1,0,0:0:0:0:
493,175,51615,6,0,P|488:124|479:88,1,80.9999975280763,4|0,0:0|0:0,0:0:0:0:
336,15,51915,2,0,P|347:63|351:101,1,80.9999975280763,8|0,0:0|0:0,0:0:0:0:
238,227,52215,2,0,P|227:179|223:141,1,80.9999975280763
217,36,52515,1,8,0:0:0:0:
316,171,52665,1,0,0:0:0:0:
130,245,52815,6,0,L|36:239,1,80.9999975280763
0,101,53115,2,0,L|93:106,1,80.9999975280763,8|0,0:0|0:0,0:0:0:0:
232,148,53415,6,0,P|241:188|232:231,1,80.9999975280763
333,363,53715,6,0,P|321:324|327:284,1,80.9999975280763,8|0,0:0|0:0,0:0:0:0:
426,159,54015,6,0,B|454:211|454:211|428:322,1,161.999995056153,4|8,0:0|0:0,0:0:0:0:
332,202,54465,1,0,0:0:0:0:
421,72,54615,6,0,P|462:79|501:131,1,80.9999975280763
332,202,54915,2,0,P|291:195|252:143,1,80.9999975280763,8|0,0:0|0:0,0:0:0:0:
218,33,55215,1,0,0:0:0:0:
334,113,55365,1,0,0:0:0:0:
156,137,55515,2,0,L|46:127,1,80.9999975280763,8|0,0:0|0:0,0:0:0:0:
0,235,55815,2,0,L|109:244,1,80.9999975280763
151,361,56115,2,0,L|41:351,1,80.9999975280763,8|0,0:0|0:0,0:0:0:0:
231,216,56415,6,0,P|264:149|224:56,1,161.999995056153,4|8,0:0|0:0,0:0:0:0:
141,39,56865,1,0,0:0:0:0:
296,142,57015,2,0,L|389:134,1,80.9999975280763
501,202,57315,2,0,P|516:243|506:294,1,80.9999975280763,8|0,0:0|0:0,0:0:0:0:
341,240,57615,5,0,0:0:0:0:
411,131,57765,1,0,0:0:0:0:
403,336,57915,2,0,L|301:351,1,80.9999975280763,8|0,0:0|0:0,0:0:0:0:
161,223,58215,2,0,L|263:208,1,80.9999975280763
62,156,58515,2,0,P|43:189|41:242,1,80.9999975280763,8|0,0:0|0:0,0:0:0:0:
163,102,58815,6,0,P|161:54|165:13,1,80.9999975280763,4|0,0:0|0:0,0:0:0:0:
241,211,59115,2,0,P|243:259|239:300,1,80.9999975280763,8|0,0:0|0:0,0:0:0:0:
303,99,59415,2,0,P|346:89|397:105,1,80.9999975280763
469,244,59715,1,8,0:0:0:0:
347,197,59865,1,0,0:0:0:0:
447,33,60015,6,0,P|471:70|473:112,1,80.9999975280763
355,277,60315,2,0,L|345:185,1,80.9999975280763,8|0,0:0|0:0,0:0:0:0:
202,102,60615,2,0,L|211:193,1,80.9999975280763
104,284,60915,1,8,0:0:0:0:
107,123,61065,1,0,0:0:0:0:
181,320,61215,6,0,P|151:356|97:375,1,80.9999975280763
23,253,61515,2,0,P|52:216|106:197,1,80.9999975280763,8|0,0:0|0:0,0:0:0:0:
224,211,61815,6,0,L|322:208,1,80.9999975280763
406,352,62115,1,8,0:0:0:0:
281,312,62265,1,0,0:0:0:0:
446,233,62415,6,0,P|447:181|424:131,1,80.9999975280763
265,40,62715,6,0,P|264:92|287:142,1,80.9999975280763,8|0,0:0|0:0,0:0:0:0:
437,53,63015,2,0,L|355:72,1,80.9999975280763
276,223,63315,2,0,L|358:204,1,80.9999975280763,8|0,0:0|0:0,0:0:0:0:
173,170,63615,6,0,P|186:254|156:355,1,161.999995056153,4|8,0:0|0:0,0:0:0:0:
71,241,64065,1,0,0:0:0:0:
122,79,64215,2,0,P|173:66|215:72,1,80.9999975280763
22,139,64515,2,0,P|9:88|15:46,1,80.9999975280763,12|0,0:0|0:0,0:0:0:0:
71,241,64815,5,0,0:0:0:0:
122,79,64965,1,0,0:0:0:0:
183,192,65115,6,0,L|172:302,1,80.9999975280763,8|0,0:0|0:0,0:0:0:0:
280,134,65415,2,0,L|289:30,1,80.9999975280763
375,220,65715,2,0,L|365:330,1,80.9999975280763,8|0,0:0|0:0,0:0:0:0:
409,106,66015,6,0,P|458:130|493:251,1,161.999995056153,4|8,0:0|0:0,0:0:0:0:
440,365,66465,1,0,0:0:0:0:
294,225,66615,2,0,L|389:218,1,80.9999975280763
248,339,66915,2,0,P|208:316|187:285,1,80.9999975280763,8|0,0:0|0:0,0:0:0:0:
151,163,67215,5,8,0:0:0:0:
294,225,67365,1,0,0:0:0:0:
88,249,67515,5,8,0:0:0:0:
247,128,67665,1,0,0:0:0:0:
145,331,67815,5,8,0:0:0:0:
61,162,67965,1,0,0:0:0:0:
294,225,68115,6,0,P|248:235|207:229,1,80.9999975280763,8|0,0:0|0:0,0:0:0:0:
237,37,68415,5,12,0:0:0:0:
381,172,68565,1,0,0:0:0:0:
196,172,68715,5,8,0:0:0:0:
340,37,68865,1,0,0:0:0:0:
340,307,69015,5,8,0:0:0:0:
196,172,69165,1,0,0:0:0:0:
381,172,69315,5,8,0:0:0:0:
239,303,69465,1,0,0:0:0:0:
80,200,69615,6,0,P|79:145|86:111,1,80.9999975280763,8|0,0:0|0:0,0:0:0:0:
239,303,69915,2,0,P|240:358|233:392,1,80.9999975280763,8|0,0:0|0:0,0:0:0:0:
196,172,70215,6,0,P|195:117|202:83,1,80.9999975280763,8|0,0:0|0:0,0:0:0:0:
355,275,70515,2,0,P|356:330|349:364,1,80.9999975280763,8|0,0:0|0:0,0:0:0:0:
364,130,70815,5,12,0:0:0:0:
239,303,70965,1,0,0:0:0:0:
230,102,71115,5,8,0:0:0:0:
355,275,71265,1,0,0:0:0:0:
189,212,71415,5,8,0:0:0:0:
314,39,71565,1,0,0:0:0:0:
295,195,71715,5,0,0:0:0:0:
170,22,71865,1,0,0:0:0:0:
367,137,72015,5,8,0:0:0:0:
407,137,72090,1,8,0:0:0:0:
447,135,72165,1,8,0:0:0:0:
295,195,72315,5,8,0:0:0:0:
276,159,72390,1,8,0:0:0:0:
260,121,72465,1,8,0:0:0:0:
391,228,72615,5,8,0:0:0:0:
370,262,72690,1,8,0:0:0:0:
352,298,72765,1,8,0:0:0:0:
184,203,72915,2,0,B|206:245|206:245|194:346,1,135,4|0,0:0|0:0,0:0:0:0:
179,374,73215,6,0,P|126:387|87:368,1,80.9999975280763,8|0,0:0|0:0,0:0:0:0:
305,231,73515,2,0,P|358:218|394:233,1,80.9999975280763,8|0,0:0|0:0,0:0:0:0:
171,252,73815,6,0,P|118:265|78:252,1,80.9999975280763,8|0,0:0|0:0,0:0:0:0:
297,109,74115,2,0,P|350:96|387:115,1,80.9999975280763,8|0,0:0|0:0,0:0:0:0:
247,291,74415,5,8,0:0:0:0:
214,87,74565,1,0,0:0:0:0:
318,215,74715,5,8,0:0:0:0:
356,12,74865,1,0,0:0:0:0:
128,62,75015,5,8,0:0:0:0:
331,100,75165,1,0,0:0:0:0:
203,204,75315,5,8,0:0:0:0:
407,171,75465,1,0,0:0:0:0:
244,23,75615,6,0,L|230:114,1,80.9999975280763,12|0,0:0|0:0,0:0:0:0:
301,323,75915,2,0,L|316:229,1,80.9999975280763,8|0,0:0|0:0,0:0:0:0:
118,36,76215,2,0,L|104:132,1,80.9999975280763,8|0,0:0|0:0,0:0:0:0:
175,336,76515,2,0,L|190:241,1,80.9999975280763,8|0,0:0|0:0,0:0:0:0:
10,199,76815,6,0,P|46:232|88:242,1,80.9999975280763,8|0,0:0|0:0,0:0:0:0:
205,136,77115,1,8,0:0:0:0:
242,110,77190,1,8,0:0:0:0:
286,109,77265,1,8,0:0:0:0:
323,134,77340,1,8,0:0:0:0:
353,167,77415,1,8,0:0:0:0:
397,175,77490,1,8,0:0:0:0:
440,164,77565,1,8,0:0:0:0:
463,125,77640,1,8,0:0:0:0:
425,149,77715,5,8,0:0:0:0:
414,192,77790,1,8,0:0:0:0:
420,236,77865,1,8,0:0:0:0:
445,273,77940,1,8,0:0:0:0:
475,296,78015,5,12,0:0:0:0:
332,250,78165,1,0,0:0:0:0:
384,80,78315,2,0,L|382:-2,1,80.9999975280763,8|0,0:0|0:0,0:0:0:0:
263,190,78615,1,0,0:0:0:0:
169,72,78765,1,0,0:0:0:0:
147,223,78915,1,8,0:0:0:0:
275,77,79065,1,0,0:0:0:0:
77,24,79215,6,0,P|62:63|73:116,1,80.9999975280763
147,223,79515,2,0,P|162:184|151:131,1,80.9999975280763,8|0,0:0|0:0,0:0:0:0:
65,320,79815,2,0,L|160:329,1,80.9999975280763
245,211,80115,1,8,0:0:0:0:
77,176,80265,1,0,0:0:0:0:
240,328,80415,6,0,P|246:288|247:247,1,80.9999975280763,4|0,0:0|0:0,0:0:0:0:
177,41,80715,2,0,P|170:80|169:121,1,80.9999975280763,8|0,0:0|0:0,0:0:0:0:
372,142,81015,1,0,0:0:0:0:
274,75,81165,1,0,0:0:0:0:
346,252,81315,1,8,0:0:0:0:
512,59,81465,6,0,B|422:60|419:64|414:67|419:65|422:60|422:53|416:49|409:49|410:53|412:58|413:61|414:66|406:69|398:61|394:73|396:66|398:61|406:69|402:64|398:61|394:57|390:54|398:60|400:50|399:55|395:71|397:62|340:62,1,161.999995056153
442,287,81915,6,0,P|434:229|401:187,1,80.9999975280763,8|0,0:0|0:0,0:0:0:0:
336,68,82215,1,0,0:0:0:0:
202,124,82365,1,8,0:0:0:0:
184,160,82440,1,8,0:0:0:0:
185,200,82515,1,8,0:0:0:0:
205,235,82590,1,8,0:0:0:0:
226,269,82665,1,8,0:0:0:0:
228,309,82740,1,8,0:0:0:0:
213,346,82815,5,12,0:0:0:0:
273,179,82965,1,0,0:0:0:0:
351,285,83115,2,0,P|359:316|345:381,1,80.9999975280763,8|0,0:0|0:0,0:0:0:0:
146,292,83415,1,0,0:0:0:0:
252,197,83565,1,0,0:0:0:0:
206,367,83715,1,8,0:0:0:0:
64,265,83865,6,0,L|76:151,1,80.9999975280763
199,77,84165,1,0,0:0:0:0:
252,197,84315,2,0,P|206:211|165:200,1,80.9999975280763,8|0,0:0|0:0,0:0:0:0:
89,67,84615,2,0,L|183:78,1,80.9999975280763
346,148,84915,1,12,0:0:0:0:
174,204,85065,1,0,0:0:0:0:
318,0,85215,5,8,0:0:0:0:
331,24,85815,1,8,0:0:0:0:
445,114,86265,6,0,B|466:152|446:192|446:192|429:235|448:287,1,161.999995056153
478,344,86715,1,8,0:0:0:0:
294,219,86865,1,8,0:0:0:0:
338,360,87015,1,8,0:0:0:0:
362,150,87165,5,8,0:0:0:0:
324,134,87240,1,8,0:0:0:0:
284,130,87315,1,8,0:0:0:0:
246,141,87390,1,8,0:0:0:0:
208,157,87465,1,8,0:0:0:0:
168,158,87540,1,8,0:0:0:0:
131,144,87615,5,12,0:0:0:0:
46,21,87765,1,0,0:0:0:0:
187,62,87915,1,12,0:0:0:0:
43,198,88065,2,0,L|57:368,1,161.999995056153
248,244,88515,2,0,P|181:250|148:346,1,161.999995056153,8|0,0:0|0:0,0:0:0:0:
367,305,88965,5,0,0:0:0:0:
234,159,89115,1,8,0:0:0:0:
206,322,89265,5,0,0:0:0:0:
313,146,89415,1,8,0:0:0:0:
154,171,89565,5,0,0:0:0:0:
288,315,89715,1,8,0:0:0:0:
392,132,89865,1,0,0:0:0:0:
284,235,90015,6,0,P|279:273|301:339,1,80.9999975280763,4|0,0:0|0:0,0:0:0:0:
435,202,90315,1,8,0:0:0:0:
347,55,90465,2,0,L|161:70,1,161.999995056153
72,171,90915,2,0,L|257:155,1,161.999995056153,8|0,0:0|0:0,0:0:0:0:
321,242,91365,6,0,P|328:280|314:341,1,80.9999975280763,0|12,0:0|0:0,0:0:0:0:
202,272,91665,1,0,0:0:0:0:
346,135,91815,1,8,0:0:0:0:
408,281,91965,5,0,0:0:0:0:
257,101,92115,1,8,0:0:0:0:
431,160,92265,5,0,0:0:0:0:
237,352,92415,2,0,P|195:360|146:341,1,80.9999975280763,4|0,0:0|0:0,0:0:0:0:
81,246,92715,1,8,0:0:0:0:
204,111,92865,2,0,B|229:159|229:159|202:282,1,161.999995056153
115,151,93315,2,0,P|106:97|188:18,1,161.999995056153,8|0,0:0|0:0,0:0:0:0:
318,174,93765,5,0,0:0:0:0:
418,276,93915,1,12,0:0:0:0:
182,249,94065,5,0,0:0:0:0:
204,111,94215,1,8,0:0:0:0:
297,322,94365,5,0,0:0:0:0:
164,380,94515,1,12,0:0:0:0:
236,180,94665,1,0,0:0:0:0:
418,276,94815,6,0,P|437:321|428:372,1,80.9999975280763
318,174,95115,1,8,0:0:0:0:
473,166,95265,6,0,B|432:145|384:172|384:172|340:190|305:167,1,161.999995056153
194,91,95715,1,4,0:0:0:0:
