osu file format v14

[General]
AudioFilename: audio.mp3
AudioLeadIn: 0
PreviewTime: 49155
Countdown: 0
SampleSet: None
StackLeniency: 0.2
Mode: 0
LetterboxInBreaks: 0
WidescreenStoryboard: 0

[Editor]
Bookmarks: 6615,34830,85230
DistanceSpacing: 1
BeatDivisor: 4
GridSize: 32
TimelineZoom: 2.5

[Metadata]
Title:Super Driver
TitleUnicode:Super Driver
Artist:Hirano Aya
ArtistUnicode:Hirano Aya
Creator:stq
Version:Ferdeza
Source:
Tags:
BeatmapID:1690198
BeatmapSetID:805150

[Difficulty]
HPDrainRate:5.5
CircleSize:4
OverallDifficulty:8.5
ApproachRate:9.5
SliderMultiplier:2
SliderTickRate:1

[Events]
//Background and Video events
0,0,"BG.jpg",0,0
//Break Periods
//Storyboard Layer 0 (Background)
//Storyboard Layer 1 (Fail)
//Storyboard Layer 2 (Pass)
//Storyboard Layer 3 (Foreground)
//Storyboard Sound Samples

[TimingPoints]
1215,300,4,3,1,52,1,0
3015,-100,4,3,1,52,0,0
3240,-100,4,3,1,5,0,0
3315,-100,4,3,1,52,0,0
5415,-83.3333333333333,4,3,1,52,0,0
5640,-83.3333333333333,4,3,1,5,0,0
5715,-83.3333333333333,4,3,1,52,0,0
6465,-111.111111111111,4,3,1,52,0,0
15015,-83.3333333333333,4,3,1,52,0,0
15240,-83.3333333333333,4,3,1,5,0,0
15315,-83.3333333333333,4,3,1,52,0,0
15540,-83.3333333333333,4,3,1,5,0,0
15615,-83.3333333333333,4,3,1,52,0,0
15840,-83.3333333333333,4,3,1,5,0,0
15915,-105.263157894737,4,3,1,52,0,0
20415,-80,4,3,1,52,0,0
22815,-125,4,3,1,52,0,0
23040,-125,4,3,1,5,0,0
23115,-125,4,3,1,52,0,0
24690,-125,4,3,1,5,0,0
24765,-125,4,3,1,52,0,0
24990,-125,4,3,1,5,0,0
25065,-125,4,3,1,52,0,0
25215,-105.263157894737,4,3,1,52,0,0
30015,-80,4,3,1,52,0,0
32415,-125,4,3,1,52,0,0
32640,-125,4,3,1,5,0,0
32715,-125,4,3,1,52,0,0
34290,-125,4,3,1,5,0,0
34365,-125,4,3,1,52,0,0
34590,-125,4,3,1,5,0,0
34665,-125,4,3,1,52,0,0
36015,-90.9090909090909,4,3,1,52,0,0
45615,-76.9230769230769,4,3,1,52,0,0
46815,-71.4285714285714,4,3,1,52,0,0
48315,-90.9090909090909,4,3,1,52,0,0
48390,-90.9090909090909,4,3,1,37,0,0
48465,-90.9090909090909,4,3,1,42,0,0
48540,-90.9090909090909,4,3,1,47,0,0
48615,-90.9090909090909,4,3,1,52,0,0
48690,-90.9090909090909,4,3,1,37,0,0
48765,-90.9090909090909,4,3,1,42,0,0
48840,-90.9090909090909,4,3,1,47,0,0
48915,-90.9090909090909,4,3,1,52,0,0
48990,-90.9090909090909,4,3,1,37,0,0
49065,-90.9090909090909,4,3,1,42,0,0
49140,-90.9090909090909,4,3,1,47,0,0
49215,-83.3333333333333,4,3,1,52,0,1
54015,-111.111111111111,4,3,1,52,0,1
54315,-76.9230769230769,4,3,1,52,0,1
54615,-111.111111111111,4,3,1,52,0,1
54915,-76.9230769230769,4,3,1,52,0,1
55215,-83.3333333333333,4,3,1,52,0,1
63615,-111.111111111111,4,3,1,52,0,1
63915,-76.9230769230769,4,3,1,52,0,1
64215,-111.111111111111,4,3,1,52,0,1
64515,-76.9230769230769,4,3,1,52,0,1
64815,-83.3333333333333,4,3,1,52,0,1
67440,-83.3333333333333,4,3,1,5,0,1
67515,-83.3333333333333,4,3,1,52,0,1
67740,-83.3333333333333,4,3,1,5,0,1
67815,-83.3333333333333,4,3,1,52,0,1
68115,-74.0740740740741,4,3,1,52,0,1
72165,-83.3333333333333,4,3,1,52,0,1
72240,-83.3333333333333,4,3,1,5,0,1
72315,-83.3333333333333,4,3,1,52,0,1
72540,-83.3333333333333,4,3,1,5,0,1
72615,-83.3333333333333,4,3,1,52,0,1
72915,-74.0740740740741,4,3,1,52,0,1
85215,-74.0740740740741,4,3,1,52,0,0
88065,-111.111111111111,4,3,1,52,0,0
100440,-111.111111111111,4,3,1,5,0,0
100515,-111.111111111111,4,3,1,52,0,0

[Colours]
Combo1 : 239,120,138
Combo2 : 230,115,0
Combo3 : 167,64,58
Combo4 : 250,230,46
SliderBorder : 230,115,0
SliderTrackOverride : 255,207,159

[HitObjects]
199,267,1215,5,0,3:0:0:0:
250,76,1365,1,0,3:0:0:0:
312,237,1515,1,0,3:0:0:0:
149,113,1665,1,0,3:0:0:0:
123,298,1815,1,0,3:0:0:0:
147,158,2115,5,0,3:0:0:0:
345,57,2265,1,0,3:0:0:0:
267,239,2415,1,0,3:0:0:0:
214,28,2565,1,0,3:0:0:0:
392,143,2715,1,0,3:0:0:0:
355,295,3015,6,0,L|338:125,1,150,8|0,3:0|3:0,3:0:0:0:
334,94,3315,1,8,3:0:0:0:
198,235,3615,5,0,3:0:0:0:
120,76,3765,1,0,3:0:0:0:
93,317,3915,1,0,3:0:0:0:
295,189,4065,1,0,3:0:0:0:
85,167,4215,1,0,3:0:0:0:
225,233,4515,5,0,3:0:0:0:
320,94,4665,1,0,3:0:0:0:
324,291,4815,1,0,3:0:0:0:
130,214,4965,1,0,3:0:0:0:
363,168,5115,1,0,3:0:0:0:
259,292,5415,6,4,P|188:322|142:236,1,179.999994506836,4|0,3:0|3:0,3:0:0:0:
134,164,5715,1,4,2:0:0:0:
134,164,6015,5,4,2:0:0:0:
316,260,6165,1,0,3:0:0:0:
122,247,6315,1,0,3:0:0:0:
282,72,6465,2,0,P|310:112|337:166,1,89.9999972534181,0|0,3:0|3:0,3:0:0:0:
272,226,6765,1,0,3:0:0:0:
338,319,6915,2,0,B|400:253|369:203|422:156,1,179.999994506836,0|0,3:0|3:0,3:0:0:0:
429,46,7365,5,0,3:0:0:0:
301,183,7515,1,0,3:0:0:0:
292,29,7665,1,0,3:0:0:0:
230,227,7815,2,0,P|195:177|172:132,1,89.9999972534181,2|0,2:0|3:0,3:0:0:0:
397,139,8115,2,0,P|352:142|308:151,1,89.9999972534181,2|0,2:0|3:0,3:0:0:0:
122,188,8415,5,4,2:0:0:0:
328,289,8565,1,0,3:0:0:0:
282,133,8715,1,0,3:0:0:0:
168,318,8865,2,0,P|148:267|144:210,1,89.9999972534181,0|0,2:0|3:0,3:0:0:0:
209,121,9165,1,0,3:0:0:0:
118,46,9315,2,0,B|120:126|50:160|69:253,1,179.999994506836,0|0,2:0|3:0,3:0:0:0:
88,317,9765,5,0,3:0:0:0:
289,214,9915,1,4,2:0:0:0:
171,315,10065,1,0,3:0:0:0:
228,114,10215,2,0,L|254:162,1,44.999998626709,2|0,2:0|3:0,3:0:0:0:
345,314,10365,1,8,2:0:0:0:
136,179,10515,2,0,P|155:108|160:51,1,89.9999972534181,8|0,2:0|3:0,3:0:0:0:
288,65,10815,5,0,3:0:0:0:
196,305,10965,1,0,3:0:0:0:
172,113,11115,1,0,3:0:0:0:
388,173,11265,2,0,P|357:224|319:254,1,89.9999972534181,0|0,3:0|3:0,3:0:0:0:
243,279,11565,1,0,3:0:0:0:
119,242,11715,2,0,B|177:168|244:231|296:159,1,179.999994506836,0|0,3:0|3:0,3:0:0:0:
365,130,12165,5,0,3:0:0:0:
286,293,12315,1,0,3:0:0:0:
253,84,12465,1,0,3:0:0:0:
383,265,12615,2,0,P|333:225|289:210,1,89.9999972534181,2|0,2:0|3:0,3:0:0:0:
177,309,12915,2,0,P|239:296|279:272,1,89.9999972534181,4|0,2:0|3:0,3:0:0:0:
184,154,13215,5,0,3:0:0:0:
368,209,13365,1,0,3:0:0:0:
260,39,13515,1,0,3:0:0:0:
187,271,13665,1,0,3:0:0:0:
187,271,13815,1,0,3:0:0:0:
106,85,13965,1,0,3:0:0:0:
311,168,14115,1,4,2:0:0:0:
184,236,14415,5,4,2:0:0:0:
184,236,14715,5,4,2:0:0:0:
184,236,15015,6,0,P|261:288|301:220,1,179.999994506836,8|0,3:0|3:0,3:0:0:0:
265,204,15315,2,0,B|316:149|383:182|423:127,1,179.999994506836,8|0,3:0|3:0,3:0:0:0:
445,73,15615,2,0,P|448:186|426:250,1,179.999994506836,4|0,3:0|3:0,3:0:0:0:
339,307,15915,6,0,P|336:247|323:202,1,94.9999974632264,0|0,3:0|3:0,3:0:0:0:
264,124,16215,1,0,3:0:0:0:
196,251,16365,1,0,3:0:0:0:
76,148,16515,2,0,P|138:134|181:147,1,94.9999974632264,0|0,3:0|3:0,3:0:0:0:
167,312,16815,6,0,P|159:255|182:208,1,94.9999974632264,0|0,3:0|3:0,3:0:0:0:
277,84,17115,2,0,L|246:178,1,94.9999974632264,0|0,3:0|3:0,3:0:0:0:
280,281,17415,2,0,P|326:271|367:246,1,94.9999974632264,0|0,3:0|3:0,3:0:0:0:
473,202,17715,2,0,P|422:163|363:149,1,94.9999974632264,0|0,3:0|3:0,3:0:0:0:
248,99,18015,6,0,B|344:89|344:89|424:26,2,189.999994926453
168,109,18765,1,0,3:0:0:0:
59,34,18915,1,0,3:0:0:0:
68,160,19065,2,0,P|38:205|33:252,2,94.9999974632264,0|0|0,3:0|3:0|3:0,3:0:0:0:
179,298,19515,6,0,P|158:253|117:224,1,94.9999974632264,0|0,3:0|3:0,3:0:0:0:
200,67,19815,2,0,L|156:161,1,94.9999974632264,0|0,3:0|3:0,3:0:0:0:
301,243,20115,2,0,P|275:182|250:143,1,94.9999974632264,0|0,3:0|3:0,3:0:0:0:
171,54,20415,6,0,P|271:65|323:96,1,125,2|0,1:0|3:0,3:0:0:0:
424,286,20715,2,0,P|395:230|351:186,1,125,2|0,1:0|3:0,3:0:0:0:
233,133,21015,5,2,1:0:0:0:
301,295,21165,1,0,3:0:0:0:
183,274,21315,2,0,L|298:200,1,125,2|0,1:0|3:0,3:0:0:0:
421,104,21615,6,0,P|350:86|277:97,1,125,2|0,1:0|3:0,3:0:0:0:
101,281,21915,2,0,P|129:225|175:183,1,125,2|0,1:0|3:0,3:0:0:0:
436,250,22215,6,0,P|391:206|335:179,1,125,2|0,1:0|3:0,3:0:0:0:
210,44,22515,2,0,P|191:103|194:165,1,125,2|0,1:0|3:0,3:0:0:0:
87,275,22815,6,0,P|151:298|235:290,1,120,4|0,2:0|3:0,3:0:0:0:
241,292,23115,1,0,3:0:0:0:
224,97,23265,1,0,3:0:0:0:
321,235,23415,5,0,3:0:0:0:
118,162,23565,1,0,3:0:0:0:
319,106,23715,5,0,3:0:0:0:
200,265,23865,2,0,P|137:254|107:254,2,80,0|0|0,3:0|3:0|3:0,3:0:0:0:
345,323,24315,6,0,P|302:270|286:232,1,80,0|0,3:0|3:0,3:0:0:0:
264,156,24615,2,0,L|224:120,1,40,0|0,3:0|3:0,3:0:0:0:
152,48,24765,1,0,3:0:0:0:
152,48,24840,1,0,3:0:0:0:
152,48,24915,2,0,L|138:115,1,40,0|0,3:0|3:0,3:0:0:0:
114,188,25065,1,0,3:0:0:0:
114,188,25140,1,0,3:0:0:0:
114,188,25215,6,0,P|138:249|181:274,1,94.9999974632264,0|0,3:0|3:0,3:0:0:0:
341,116,25515,2,0,P|285:128|238:156,1,94.9999974632264,4|0,2:0|3:0,3:0:0:0:
321,231,25815,1,0,3:0:0:0:
241,325,25965,1,0,3:0:0:0:
176,221,26115,2,0,P|118:221|63:187,1,94.9999974632264,0|0,3:0|3:0,3:0:0:0:
195,42,26415,6,0,L|144:146,1,94.9999974632264,0|0,3:0|3:0,3:0:0:0:
279,265,26715,2,0,P|264:201|231:162,1,94.9999974632264,0|0,3:0|3:0,3:0:0:0:
120,324,27015,2,0,P|154:279|207:253,1,94.9999974632264,0|0,3:0|3:0,3:0:0:0:
367,259,27315,2,0,L|268:297,1,94.9999974632264,0|0,3:0|3:0,3:0:0:0:
149,169,27615,6,0,B|238:208|238:208|364:194,2,189.999994926453,0|0|0,3:0|3:0|3:0,3:0:0:0:
85,152,28365,1,0,3:0:0:0:
46,23,28515,1,0,3:0:0:0:
169,66,28665,2,0,P|152:116|153:162,2,94.9999974632264,0|0|0,3:0|3:0|3:0,3:0:0:0:
347,38,29115,6,0,P|286:77|236:89,1,94.9999974632264,0|0,3:0|3:0,3:0:0:0:
222,171,29415,1,0,3:0:0:0:
344,223,29565,1,0,3:0:0:0:
200,321,29715,2,0,P|254:301|318:298,1,94.9999974632264,0|0,3:0|3:0,3:0:0:0:
444,275,30015,6,0,P|406:208|325:154,1,125,2|0,1:0|3:0,3:0:0:0:
91,99,30315,2,0,P|152:109|206:139,1,125,2|0,1:0|3:0,3:0:0:0:
302,256,30615,5,2,1:0:0:0:
109,224,30765,1,0,3:0:0:0:
286,329,30915,2,0,L|236:208,1,125,2|0,1:0|3:0,3:0:0:0:
188,42,31215,6,0,P|296:95|322:147,1,125,2|0,1:0|3:0,3:0:0:0:
438,285,31515,2,0,P|444:223|423:165,1,125,2|0,1:0|3:0,3:0:0:0:
358,48,31815,6,0,P|289:116|225:146,1,125,2|0,1:0|3:0,3:0:0:0:
90,114,32115,2,0,P|125:199|177:257,1,125,2|0,1:0|3:0,3:0:0:0:
219,346,32415,6,0,P|273:279|289:230,1,120,0|0,3:0|3:0,3:0:0:0:
298,193,32715,1,0,3:0:0:0:
129,217,32865,2,0,P|148:145|168:118,1,80,0|0,3:0|3:0,3:0:0:0:
304,138,33165,2,0,P|259:167|221:172,1,80,0|0,3:0|3:0,3:0:0:0:
227,44,33465,1,0,3:0:0:0:
374,160,33615,5,0,3:0:0:0:
326,53,33765,1,0,3:0:0:0:
290,262,33915,2,0,P|265:201|244:182,1,80,4|0,2:0|3:0,3:0:0:0:
154,84,34215,2,0,L|150:136,1,40,0|0,3:0|3:0,3:0:0:0:
155,269,34365,1,0,3:0:0:0:
155,269,34440,1,0,3:0:0:0:
155,269,34515,2,0,L|186:243,1,40,0|0,3:0|3:0,3:0:0:0:
289,162,34665,1,0,3:0:0:0:
289,162,34740,1,0,3:0:0:0:
289,162,34815,5,0,3:0:0:0:
347,338,34965,1,0,3:0:0:0:
383,179,35115,5,0,3:0:0:0:
198,261,35265,1,0,3:0:0:0:
363,270,35415,5,0,3:0:0:0:
285,82,35565,1,0,3:0:0:0:
277,234,35715,5,0,3:0:0:0:
466,152,35865,1,0,3:0:0:0:
303,148,36015,6,0,P|355:201|366:262,1,110.000003356934,0|0,3:0|3:0,3:0:0:0:
236,350,36315,2,0,L|276:239,1,110.000003356934,0|0,3:0|3:0,3:0:0:0:
160,144,36615,2,0,P|169:216|203:264,1,110.000003356934,0|0,3:0|3:0,3:0:0:0:
294,302,36915,1,0,3:0:0:0:
288,129,37065,1,0,3:0:0:0:
410,252,37215,6,0,P|421:180|404:139,1,110.000003356934,0|0,3:0|3:0,3:0:0:0:
280,48,37515,2,0,L|340:158,1,110.000003356934,0|0,3:0|3:0,3:0:0:0:
388,247,37815,1,0,3:0:0:0:
195,146,37965,1,0,3:0:0:0:
228,280,38115,5,0,3:0:0:0:
360,92,38265,1,0,3:0:0:0:
356,281,38415,5,0,3:0:0:0:
291,139,38565,1,0,3:0:0:0:
238,254,38715,5,0,3:0:0:0:
443,202,38865,1,0,3:0:0:0:
248,133,39015,5,0,3:0:0:0:
347,336,39165,1,0,3:0:0:0:
369,128,39315,5,0,3:0:0:0:
155,254,39465,1,0,3:0:0:0:
232,100,39615,5,0,3:0:0:0:
207,279,39765,1,0,3:0:0:0:
321,89,39915,5,0,3:0:0:0:
298,279,40065,1,0,3:0:0:0:
189,91,40215,5,0,3:0:0:0:
115,269,40365,1,0,3:0:0:0:
93,120,40515,5,0,3:0:0:0:
213,288,40665,1,0,3:0:0:0:
276,101,40815,5,0,3:0:0:0:
303,292,40965,1,0,3:0:0:0:
360,91,41115,2,0,P|340:156|304:190,1,110.000003356934,0|0,3:0|3:0,3:0:0:0:
114,272,41415,2,0,P|167:283|219:268,1,110.000003356934,0|0,3:0|3:0,3:0:0:0:
266,163,41715,1,0,3:0:0:0:
422,307,41865,1,0,3:0:0:0:
432,149,42015,6,0,L|312:186,1,110.000003356934,4|0,2:0|3:0,3:0:0:0:
211,63,42315,2,0,P|293:72|330:96,1,110.000003356934,0|0,3:0|3:0,3:0:0:0:
417,132,42615,1,0,3:0:0:0:
309,323,42765,1,0,3:0:0:0:
288,121,42915,5,0,3:0:0:0:
443,282,43065,1,0,3:0:0:0:
182,289,43215,2,0,P|199:224|231:183,1,110.000003356934,4|0,2:0|3:0,3:0:0:0:
292,97,43515,5,0,3:0:0:0:
260,278,43665,1,0,3:0:0:0:
172,120,43815,5,0,3:0:0:0:
400,171,43965,1,0,3:0:0:0:
209,238,44115,5,0,3:0:0:0:
299,26,44265,1,0,3:0:0:0:
341,200,44415,6,0,P|272:180|237:154,1,110.000003356934,4|0,2:0|3:0,3:0:0:0:
106,85,44715,2,0,L|160:197,1,110.000003356934,4|0,2:0|3:0,3:0:0:0:
208,303,45015,5,0,3:0:0:0:
403,196,45165,1,0,3:0:0:0:
170,167,45315,5,0,3:0:0:0:
382,284,45465,1,0,3:0:0:0:
336,48,45615,6,0,P|302:146|267:188,1,129.999994049073,0|0,3:0|3:0,3:0:0:0:
163,274,45915,2,0,P|184:199|150:115,1,129.999994049073,0|0,3:0|3:0,3:0:0:0:
148,47,46215,5,0,3:0:0:0:
286,222,46365,1,0,3:0:0:0:
84,130,46515,5,0,3:0:0:0:
320,154,46665,1,0,3:0:0:0:
81,265,46815,6,0,B|165:228|178:303|259:246,1,139.999995727539,4|0,2:0|3:0,3:0:0:0:
383,264,47115,2,0,L|260:196,1,139.999995727539,4|0,2:0|3:0,3:0:0:0:
152,123,47415,6,0,B|208:59|247:116|295:50,1,139.999995727539,4|0,2:0|3:0,3:0:0:0:
441,65,47715,2,0,L|308:154,1,139.999995727539,4|0,2:0|3:0,3:0:0:0:
133,220,48015,6,0,P|245:234|296:283,1,139.999995727539,4|0,2:0|3:0,3:0:0:0:
116,323,48315,2,0,L|86:264,1,55.0000016784668,0|0,3:0|3:0,3:0:0:0:
52,162,48465,1,0,3:0:0:0:
68,131,48540,1,0,3:0:0:0:
90,103,48615,1,0,3:0:0:0:
117,81,48690,1,0,3:0:0:0:
148,65,48765,1,0,3:0:0:0:
182,56,48840,1,0,3:0:0:0:
216,54,48915,1,0,3:0:0:0:
251,59,48990,1,0,3:0:0:0:
284,71,49065,1,0,3:0:0:0:
314,89,49140,1,0,3:0:0:0:
339,113,49215,6,0,P|309:178|243:200,1,119.999996337891,4|0,2:0|3:0,3:0:0:0:
105,244,49515,2,0,L|214:162,1,119.999996337891,4|0,2:0|3:0,3:0:0:0:
290,96,49815,5,0,3:0:0:0:
370,250,49965,1,0,3:0:0:0:
390,40,50115,5,0,3:0:0:0:
325,214,50265,1,0,3:0:0:0:
455,118,50415,5,0,3:0:0:0:
221,191,50565,1,0,3:0:0:0:
450,207,50715,5,0,3:0:0:0:
219,70,50865,1,0,3:0:0:0:
345,297,51015,5,0,3:0:0:0:
295,120,51165,1,0,3:0:0:0:
215,301,51315,5,0,3:0:0:0:
326,170,51465,1,0,3:0:0:0:
154,224,51615,6,0,P|121:165|111:83,1,119.999996337891,0|0,3:0|3:0,3:0:0:0:
344,110,51915,6,0,P|276:110|201:143,1,119.999996337891,0|0,3:0|3:0,3:0:0:0:
152,311,52215,5,0,3:0:0:0:
108,160,52365,1,0,3:0:0:0:
269,224,52515,5,0,3:0:0:0:
74,145,52665,1,0,3:0:0:0:
320,101,52815,5,0,3:0:0:0:
30,153,52965,1,0,3:0:0:0:
254,55,53115,5,0,3:0:0:0:
231,297,53265,1,0,3:0:0:0:
362,138,53415,5,0,3:0:0:0:
197,254,53565,1,0,3:0:0:0:
347,271,53715,5,0,3:0:0:0:
190,204,53865,1,0,3:0:0:0:
290,348,54015,6,0,P|271:295|272:241,1,89.9999972534181,4|0,2:0|3:0,3:0:0:0:
378,198,54315,2,0,L|242:172,1,129.999994049073,0|0,3:0|3:0,3:0:0:0:
204,73,54615,6,0,P|172:128|165:171,1,89.9999972534181,0|0,3:0|3:0,3:0:0:0:
82,230,54915,2,0,L|209:254,1,129.999994049073,0|0,3:0|3:0,3:0:0:0:
287,128,55215,5,0,3:0:0:0:
331,306,55365,1,0,3:0:0:0:
367,148,55515,5,0,3:0:0:0:
160,207,55665,1,0,3:0:0:0:
358,224,55815,5,0,3:0:0:0:
258,32,55965,1,0,3:0:0:0:
250,190,56115,5,0,3:0:0:0:
453,116,56265,1,0,3:0:0:0:
298,62,56415,6,0,P|319:135|318:205,1,119.999996337891,4|0,3:0|3:0,3:0:0:0:
103,149,56715,2,0,P|174:131|239:139,1,119.999996337891,4|0,3:0|3:0,3:0:0:0:
186,271,57015,5,0,3:0:0:0:
290,135,57165,1,0,3:0:0:0:
364,251,57315,5,0,3:0:0:0:
366,92,57465,1,0,3:0:0:0:
269,244,57615,5,0,3:0:0:0:
442,132,57765,1,0,3:0:0:0:
381,283,57915,5,0,3:0:0:0:
321,88,58065,1,0,3:0:0:0:
243,286,58215,5,0,3:0:0:0:
400,109,58365,1,0,3:0:0:0:
348,305,58515,5,0,3:0:0:0:
219,102,58665,1,0,3:0:0:0:
196,303,58815,6,0,P|261:269|294:220,1,119.999996337891,4|0,2:0|3:0,3:0:0:0:
360,106,59115,2,0,L|412:236,1,119.999996337891,0|0,3:0|3:0,3:0:0:0:
346,332,59415,5,0,3:0:0:0:
200,189,59565,1,0,3:0:0:0:
234,326,59715,5,0,3:0:0:0:
303,120,59865,1,0,3:0:0:0:
293,274,60015,5,0,3:0:0:0:
201,74,60165,1,0,3:0:0:0:
176,241,60315,5,0,3:0:0:0:
382,189,60465,1,0,3:0:0:0:
200,157,60615,5,0,3:0:0:0:
312,341,60765,1,0,3:0:0:0:
313,183,60915,5,0,3:0:0:0:
89,283,61065,1,0,3:0:0:0:
273,292,61215,5,4,2:0:0:0:
192,78,61365,1,0,3:0:0:0:
139,237,61515,2,0,P|216:195|262:189,1,119.999996337891,0|0,3:0|3:0,3:0:0:0:
388,204,61815,5,0,3:0:0:0:
325,45,61965,1,0,3:0:0:0:
303,244,62115,5,0,3:0:0:0:
416,100,62265,1,0,3:0:0:0:
408,270,62415,5,0,3:0:0:0:
286,88,62565,1,0,3:0:0:0:
281,313,62715,2,0,P|254:256|221:202,1,119.999996337891,0|0,3:0|3:0,3:0:0:0:
138,97,63015,5,0,3:0:0:0:
346,151,63165,1,0,3:0:0:0:
99,166,63315,5,0,3:0:0:0:
341,70,63465,1,0,3:0:0:0:
94,219,63615,6,0,P|166:223|216:251,1,89.9999972534181,4|0,2:0|3:0,3:0:0:0:
345,310,63915,2,0,L|207:275,1,129.999994049073,0|0,3:0|3:0,3:0:0:0:
248,62,64215,6,0,P|299:126|304:167,1,89.9999972534181,4|0,2:0|3:0,3:0:0:0:
288,320,64515,2,0,L|256:184,1,129.999994049073,0|0,3:0|3:0,3:0:0:0:
231,76,64815,5,0,3:0:0:0:
153,246,64965,1,0,3:0:0:0:
152,73,65115,5,0,3:0:0:0:
271,284,65265,1,0,3:0:0:0:
89,175,65415,5,0,3:0:0:0:
369,195,65565,1,0,3:0:0:0:
117,271,65715,5,0,3:0:0:0:
332,95,65865,1,0,3:0:0:0:
291,298,66015,6,0,P|300:234|281:171,1,119.999996337891,4|0,2:0|3:0,3:0:0:0:
249,63,66315,1,0,3:0:0:0:
188,222,66465,1,0,3:0:0:0:
153,80,66615,5,0,3:0:0:0:
299,263,66765,1,0,3:0:0:0:
243,87,66915,5,0,3:0:0:0:
108,287,67065,1,0,3:0:0:0:
85,115,67215,5,4,3:0:0:0:
85,115,67290,1,4,3:0:0:0:
85,115,67365,2,0,L|137:163,1,59.9999981689454,4|0,3:0|3:0,3:0:0:0:
276,256,67515,5,4,3:0:0:0:
276,256,67590,1,4,3:0:0:0:
276,256,67665,2,0,L|277:188,1,59.9999981689454,4|0,3:0|3:0,3:0:0:0:
271,43,67815,5,4,3:0:0:0:
251,65,67890,1,4,3:0:0:0:
232,88,67965,1,4,3:0:0:0:
212,111,68040,1,4,3:0:0:0:
193,134,68115,2,0,P|263:187|320:207,1,135.000000514984,4|0,3:0|3:0,3:0:0:0:
359,91,68415,5,4,2:0:0:0:
374,305,68565,1,0,3:0:0:0:
437,150,68715,5,0,3:0:0:0:
202,166,68865,1,0,3:0:0:0:
399,233,69015,5,0,3:0:0:0:
334,33,69165,1,0,3:0:0:0:
300,222,69315,5,0,3:0:0:0:
500,152,69465,1,0,3:0:0:0:
308,63,69615,5,0,3:0:0:0:
386,262,69765,1,0,3:0:0:0:
355,103,69915,5,0,3:0:0:0:
243,290,70065,1,0,3:0:0:0:
189,88,70215,5,0,3:0:0:0:
298,265,70365,1,0,3:0:0:0:
260,41,70515,5,0,3:0:0:0:
166,241,70665,1,0,3:0:0:0:
89,57,70815,6,0,P|166:90|203:150,1,135.000000514984,4|0,1:0|3:0,3:0:0:0:
92,294,71115,2,0,P|86:212|115:155,1,135.000000514984,4|0,2:0|3:0,3:0:0:0:
212,243,71415,5,0,3:0:0:0:
428,123,71565,1,0,3:0:0:0:
246,145,71715,5,0,3:0:0:0:
479,238,71865,1,0,3:0:0:0:
305,291,72015,5,4,3:0:0:0:
305,291,72090,1,4,3:0:0:0:
305,291,72165,2,0,L|314:227,1,59.9999981689454,4|0,3:0|3:0,3:0:0:0:
331,59,72315,5,0,3:0:0:0:
331,59,72390,1,0,3:0:0:0:
331,59,72465,2,0,L|259:94,1,59.9999981689454,0|0,3:0|3:0,3:0:0:0:
150,170,72615,5,0,3:0:0:0:
170,191,72690,1,0,3:0:0:0:
197,205,72765,1,0,3:0:0:0:
226,211,72840,1,0,3:0:0:0:
256,207,72915,2,0,P|255:136|229:65,1,135.000000514984,4|0,2:0|3:0,3:0:0:0:
124,125,73215,5,0,3:0:0:0:
347,163,73365,1,0,3:0:0:0:
170,253,73515,2,0,P|235:292|296:292,1,135.000000514984,0|0,3:0|3:0,3:0:0:0:
291,119,73815,5,0,3:0:0:0:
374,293,73965,1,0,3:0:0:0:
387,94,74115,5,0,3:0:0:0:
226,237,74265,1,0,3:0:0:0:
417,197,74415,5,0,3:0:0:0:
286,33,74565,1,0,3:0:0:0:
295,256,74715,5,0,3:0:0:0:
380,76,74865,1,0,3:0:0:0:
405,281,75015,5,0,3:0:0:0:
275,93,75165,1,0,3:0:0:0:
238,296,75315,5,0,3:0:0:0:
373,124,75465,1,0,3:0:0:0:
341,314,75615,6,0,P|291:252|267:189,1,135.000000514984,4|0,2:0|3:0,3:0:0:0:
77,187,75915,2,0,P|161:211|207:250,1,135.000000514984,0|0,3:0|3:0,3:0:0:0:
133,309,76215,5,0,3:0:0:0:
320,157,76365,1,0,3:0:0:0:
146,144,76515,5,0,3:0:0:0:
385,254,76665,1,0,3:0:0:0:
200,287,76815,2,0,P|250:223|333:175,1,135.000000514984,0|0,3:0|3:0,3:0:0:0:
470,70,77115,5,0,3:0:0:0:
436,73,77190,1,0,3:0:0:0:
402,77,77265,1,0,3:0:0:0:
369,80,77340,1,0,3:0:0:0:
337,124,77415,5,4,3:0:0:0:
303,127,77490,1,4,3:0:0:0:
269,131,77565,1,4,3:0:0:0:
236,134,77640,1,4,3:0:0:0:
193,101,77715,5,0,3:0:0:0:
159,104,77790,1,0,3:0:0:0:
125,108,77865,1,0,3:0:0:0:
92,111,77940,1,0,3:0:0:0:
59,114,78015,5,4,2:0:0:0:
77,316,78165,1,0,3:0:0:0:
212,124,78315,5,0,3:0:0:0:
139,320,78465,1,0,3:0:0:0:
153,82,78615,5,0,3:0:0:0:
236,263,78765,1,0,3:0:0:0:
349,59,78915,5,0,3:0:0:0:
184,222,79065,1,0,3:0:0:0:
241,31,79215,5,0,3:0:0:0:
326,244,79365,1,0,3:0:0:0:
325,81,79515,5,0,3:0:0:0:
135,159,79665,1,0,3:0:0:0:
340,154,79815,5,0,3:0:0:0:
139,44,79965,1,0,3:0:0:0:
219,241,80115,5,0,3:0:0:0:
299,25,80265,1,0,3:0:0:0:
333,234,80415,5,4,2:0:0:0:
236,63,80565,1,0,3:0:0:0:
213,226,80715,5,0,3:0:0:0:
406,102,80865,1,0,3:0:0:0:
228,134,81015,5,0,3:0:0:0:
374,315,81165,1,0,3:0:0:0:
349,158,81315,5,0,3:0:0:0:
153,237,81465,1,0,3:0:0:0:
390,260,81615,5,0,3:0:0:0:
199,119,81765,1,0,3:0:0:0:
194,311,81915,5,0,3:0:0:0:
268,113,82065,1,0,3:0:0:0:
350,296,82215,5,0,3:0:0:0:
419,126,82365,1,0,3:0:0:0:
385,129,82440,1,0,3:0:0:0:
351,128,82515,1,0,3:0:0:0:
318,122,82590,1,0,3:0:0:0:
286,113,82665,1,0,3:0:0:0:
255,99,82740,1,0,3:0:0:0:
226,82,82815,5,4,2:0:0:0:
314,267,82965,1,0,3:0:0:0:
113,165,83115,5,0,3:0:0:0:
338,184,83265,1,0,3:0:0:0:
154,277,83415,5,0,3:0:0:0:
190,47,83565,1,0,3:0:0:0:
272,190,83715,5,0,3:0:0:0:
46,150,83865,1,0,3:0:0:0:
200,85,84015,5,0,3:0:0:0:
206,296,84165,1,0,3:0:0:0:
288,127,84315,5,0,3:0:0:0:
119,256,84465,1,0,3:0:0:0:
156,77,84615,5,0,3:0:0:0:
254,291,84765,1,0,3:0:0:0:
280,95,84915,5,0,3:0:0:0:
56,243,85065,1,0,3:0:0:0:
319,197,85215,5,4,2:0:0:0:
265,226,85815,5,4,2:0:0:0:
160,257,86265,6,0,P|173:196|236:120,1,135.000000514984,0|0,3:0|3:0,3:0:0:0:
335,58,86565,1,0,3:0:0:0:
271,231,86715,1,0,3:0:0:0:
175,89,86865,1,0,3:0:0:0:
406,184,87015,1,0,3:0:0:0:
268,321,87165,5,0,3:0:0:0:
224,308,87240,1,0,3:0:0:0:
185,286,87315,1,0,3:0:0:0:
153,255,87390,1,0,3:0:0:0:
128,218,87465,1,0,3:0:0:0:
113,175,87540,1,0,3:0:0:0:
107,131,87615,5,4,2:0:0:0:
330,153,87765,1,0,3:0:0:0:
244,43,87915,1,0,3:0:0:0:
203,247,88065,2,0,P|211:171|228:125,1,89.9999972534181,4|0,2:0|3:0,3:0:0:0:
298,54,88365,1,0,3:0:0:0:
420,39,88515,2,0,B|387:114|340:98|310:180,1,179.999994506836,0|0,3:0|3:0,3:0:0:0:
256,288,88965,5,0,3:0:0:0:
175,112,89115,1,0,3:0:0:0:
119,294,89265,1,0,3:0:0:0:
283,148,89415,2,0,L|316:252,1,89.9999972534181,2|0,2:0|3:0,3:0:0:0:
115,181,89715,2,0,P|192:212|234:204,1,89.9999972534181,2|0,2:0|3:0,3:0:0:0:
287,63,90015,5,4,2:0:0:0:
332,263,90165,1,0,3:0:0:0:
367,109,90315,1,0,3:0:0:0:
261,284,90465,2,0,P|235:236|224:199,1,89.9999972534181,0|0,3:0|3:0,3:0:0:0:
239,92,90765,1,0,3:0:0:0:
147,36,90915,2,0,B|123:123|166:150|144:225,1,179.999994506836,0|0,3:0|3:0,3:0:0:0:
132,326,91365,5,0,3:0:0:0:
299,131,91515,1,4,2:0:0:0:
239,281,91665,1,0,3:0:0:0:
166,115,91815,2,0,L|211:169,1,44.999998626709,2|0,2:0|3:0,3:0:0:0:
319,321,91965,1,8,2:0:0:0:
388,192,92115,2,0,P|330:171|309:142,1,89.9999972534181,8|0,2:0|3:0,3:0:0:0:
239,38,92415,5,4,2:0:0:0:
162,261,92565,1,0,3:0:0:0:
149,114,92715,1,4,2:0:0:0:
302,286,92865,2,0,P|313:212|326:183,1,89.9999972534181,0|0,3:0|3:0,3:0:0:0:
336,104,93165,1,0,3:0:0:0:
436,45,93315,2,0,B|397:125|434:159|402:219,1,179.999994506836,0|0,3:0|3:0,3:0:0:0:
330,307,93765,5,0,3:0:0:0:
258,123,93915,1,4,2:0:0:0:
207,277,94065,1,0,3:0:0:0:
386,191,94215,2,0,P|373:142|335:100,1,89.9999972534181,2|0,2:0|3:0,3:0:0:0:
165,169,94515,2,0,P|241:188|274:183,1,89.9999972534181,4|0,2:0|3:0,3:0:0:0:
245,44,94815,5,0,3:0:0:0:
438,182,94965,1,0,3:0:0:0:
243,253,95115,1,0,3:0:0:0:
389,72,95265,1,0,3:0:0:0:
389,72,95415,1,0,3:0:0:0:
380,272,95565,1,0,3:0:0:0:
260,82,95715,1,0,3:0:0:0:
256,192,95865,12,0,100440,3:0:0:0:
129,241,100590,5,0,3:0:0:0:
129,241,100665,1,0,3:0:0:0:
129,241,100740,1,0,3:0:0:0:
231,77,100890,1,8,2:0:0:0:
248,269,101040,1,8,2:0:0:0:
