osu file format v14

[General]
AudioFilename: audio.mp3
AudioLeadIn: 0
PreviewTime: 49155
Countdown: 0
SampleSet: None
StackLeniency: 0.7
Mode: 0
LetterboxInBreaks: 0
WidescreenStoryboard: 0

[Editor]
Bookmarks: 34830,85230
DistanceSpacing: 1
BeatDivisor: 4
GridSize: 4
TimelineZoom: 2.5

[Metadata]
Title:Super Driver
TitleUnicode:Super Driver
Artist:Hirano Aya
ArtistUnicode:Hirano Aya
Creator:stq
Version:Agent James
Source:
Tags:
BeatmapID:1690191
BeatmapSetID:805150

[Difficulty]
HPDrainRate:5
CircleSize:4.2
OverallDifficulty:9
ApproachRate:9.2
SliderMultiplier:1.7
SliderTickRate:1

[Events]
//Background and Video events
0,0,"BG.jpg",0,0
//Break Periods
//Storyboard Layer 0 (Background)
//Storyboard Layer 1 (Fail)
//Storyboard Layer 2 (Pass)
//Storyboard Layer 3 (Foreground)
//Storyboard Sound Samples

[TimingPoints]
1215,300,4,3,0,52,1,0
1215,-83.3333333333333,4,3,0,52,0,0
5415,-100,4,3,0,52,0,0
5715,-83.3333333333333,4,3,0,52,0,0
6015,-100,4,3,0,52,0,0
15615,-111.111111111111,4,3,0,52,0,0
48015,-181.818181818181,4,3,0,52,0,0
48315,-111.111111111111,4,3,0,52,0,0
49215,-90.9090909090908,4,3,0,52,0,1
68115,-51.2820512820513,4,3,0,52,0,0
68415,-90.9090909090909,4,3,0,52,0,1
68565,-90.9090909090909,4,3,0,52,0,0
73215,-90.9090909090909,4,3,0,52,0,1
73365,-90.9090909090909,4,3,0,52,0,0
78015,-90.9090909090909,4,3,0,52,0,1
87615,-100,4,3,0,52,0,0

[HitObjects]
96,76,1215,6,0,L|100:188,3,101.999996887207,4|4|4|4,0:3|0:3|0:3|0:3,0:3:0:0:
92,0,1815,1,0,1:0:0:0:
412,293,2115,6,0,L|416:181,3,101.999996887207,4|4|4|4,0:3|0:3|0:3|0:3,0:0:0:0:
412,376,2715,1,0,1:0:0:0:
96,192,3015,5,4,1:0:0:0:
416,192,3315,5,4,1:0:0:0:
40,304,3615,5,4,0:3:0:0:
156,304,3765,1,4,0:3:0:0:
40,304,3915,1,4,0:3:0:0:
156,304,4065,1,4,0:3:0:0:
40,304,4215,1,0,1:0:0:0:
476,92,4515,5,4,0:3:0:0:
360,92,4665,1,4,0:3:0:0:
476,92,4815,1,4,0:3:0:0:
360,92,4965,1,4,0:3:0:0:
476,92,5115,1,0,1:0:0:0:
416,176,5415,5,4,0:3:0:0:
416,176,5490,1,4,0:3:0:0:
416,176,5565,2,0,L|360:176,1,42.5,4|0,0:3|0:0,0:0:0:0:
296,164,5715,6,0,P|328:228|296:312,1,152.999995330811,0|0,1:0|0:0,0:0:0:0:
152,248,6015,6,0,L|256:232,1,85,4|0,0:3|0:0,0:0:0:0:
216,328,6315,1,0,1:0:0:0:
208,148,6465,2,0,B|88:168|88:168|44:216,1,170,4|0,0:3|0:0,0:0:0:0:
128,84,6915,2,0,B|248:64|248:64|292:16,1,170,0|4,1:0|0:3,0:0:0:0:
208,0,7365,1,4,0:3:0:0:
328,104,7515,2,0,L|452:100,1,85,0|0,1:0|0:0,0:0:0:0:
280,28,7815,1,4,0:3:0:0:
247,222,7965,1,4,0:3:0:0:
412,101,8115,1,0,1:0:0:0:
208,148,8265,1,0,0:0:0:0:
296,304,8415,5,4,0:3:0:0:
247,222,8565,1,0,0:0:0:0:
204,304,8715,1,0,1:0:0:0:
417,217,8865,2,0,L|231:223,1,170,4|0,0:3|0:0,0:0:0:0:
296,148,9315,2,0,L|481:141,1,170,0|4,1:0|0:3,0:0:0:0:
417,217,9765,1,4,0:3:0:0:
408,72,9915,1,0,1:0:0:0:
296,148,10065,1,0,0:0:0:0:
286,13,10215,1,4,0:3:0:0:
297,288,10365,1,4,1:3:0:0:
408,72,10515,1,0,1:0:0:0:
175,229,10665,1,0,0:0:0:0:
427,301,10815,6,0,L|415:209,1,85,4|0,0:3|0:0,0:0:0:0:
464,144,11115,1,0,1:0:0:0:
297,288,11265,2,0,B|175:299|175:299|120:264,1,170,4|0,0:3|0:0,0:0:0:0:
125,131,11715,2,0,P|169:199|117:283,1,170,0|0,1:0|0:0,0:0:0:0:
80,208,12165,1,4,0:3:0:0:
216,124,12315,1,4,1:3:0:0:
80,52,12465,1,0,0:0:0:0:
269,39,12615,1,4,0:3:0:0:
125,131,12765,1,4,0:3:0:0:
269,195,12915,1,0,1:0:0:0:
125,131,13065,1,0,0:0:0:0:
397,297,13215,6,0,P|438:307|475:287,1,85,4|0,0:3|0:0,0:0:0:0:
424,220,13440,1,8,0:3:0:0:
424,220,13515,2,0,L|420:124,1,85,0|0,1:0|0:0,0:0:0:0:
352,80,13815,1,4,1:0:0:0:
269,195,13965,1,4,0:3:0:0:
436,52,14115,1,4,1:0:0:0:
120,104,15015,6,0,L|48:100,1,63.75,4|0,0:3|0:0,0:0:0:0:
269,195,15315,1,0,1:0:0:0:
268,196,15615,6,0,P|280:236|204:324,1,152.999995330811,4|0,0:3|1:0,0:0:0:0:
200,240,16065,1,0,0:0:0:0:
344,308,16215,2,0,P|381:314|417:303,1,76.4999976654053,4|4,0:3|0:3,0:0:0:0:
448,224,16515,2,0,P|410:217|374:228,1,76.4999976654053,0|0,1:0|0:0,0:0:0:0:
200,240,16815,2,0,L|208:156,1,76.4999976654053,4|0,0:3|0:0,0:0:0:0:
288,36,17115,2,0,L|280:120,1,76.4999976654053,0|0,1:0|0:0,0:0:0:0:
207,163,17415,1,4,0:3:0:0:
204,84,17565,1,4,0:3:0:0:
368,132,17715,2,0,L|456:120,1,76.4999976654053,0|0,1:0|0:0,0:0:0:0:
288,148,18015,6,0,B|268:196|268:196|288:296,1,152.999995330811,4|0,0:3|1:0,0:0:0:0:
356,352,18465,1,0,0:0:0:0:
444,268,18615,2,0,P|406:261|370:272,1,76.4999976654053,4|4,0:3|0:3,0:0:0:0:
276,376,18915,2,0,P|238:383|202:372,1,76.4999976654053,0|0,1:0|0:0,0:0:0:0:
92,280,19215,2,0,L|184:284,1,76.4999976654053,4|0,0:3|0:0,0:0:0:0:
204,164,19515,2,0,L|127:167,1,76.4999976654053,0|0,1:0|0:0,0:0:0:0:
92,280,19815,1,4,0:3:0:0:
44,200,19965,1,4,0:3:0:0:
288,148,20115,2,0,P|298:111|291:74,1,76.4999976654053,0|0,1:0|0:0,0:0:0:0:
160,88,20415,5,0,1:0:0:0:
248,240,20565,1,0,0:0:0:0:
224,32,20715,5,0,1:0:0:0:
156,241,20865,1,0,0:0:0:0:
152,4,21015,5,0,1:0:0:0:
328,196,21165,1,0,0:0:0:0:
291,74,21315,5,0,1:0:0:0:
156,241,21465,1,0,0:0:0:0:
84,53,21615,5,0,1:0:0:0:
248,148,21765,1,0,0:0:0:0:
224,32,21915,5,0,1:0:0:0:
248,240,22065,1,0,0:0:0:0:
360,28,22215,5,0,1:0:0:0:
248,148,22365,1,0,0:0:0:0:
364,235,22515,5,0,1:0:0:0:
291,74,22665,1,0,0:0:0:0:
288,228,22815,6,0,L|368:236,1,76.4999976654053,4|0,0:2|0:0,0:0:0:0:
408,156,23115,2,0,L|331:149,1,76.4999976654053,4|0,0:2|0:0,0:0:0:0:
132,220,23415,2,0,L|208:227,1,76.4999976654053,4|0,0:2|0:0,0:0:0:0:
248,148,23715,2,0,L|171:141,1,76.4999976654053,4|0,0:2|0:0,0:0:0:0:
331,149,24015,1,0,1:0:0:0:
288,228,24165,1,0,1:0:0:0:
248,148,24315,1,0,1:0:0:0:
372,232,24465,1,0,1:0:0:0:
237,297,24615,1,0,1:0:0:0:
331,149,24765,1,0,1:0:0:0:
463,277,24915,5,0,1:0:0:0:
471,259,24990,1,0,1:0:0:0:
475,241,25065,1,0,1:0:0:0:
475,222,25140,1,0,1:0:0:0:
470,203,25215,6,0,P|463:165|474:129,1,76.4999976654053,4|0,0:3|0:0,0:0:0:0:
396,16,25515,2,0,P|403:54|392:90,1,76.4999976654053,0|0,1:0|0:0,0:0:0:0:
331,149,25815,1,4,0:3:0:0:
316,64,25965,1,4,0:3:0:0:
172,120,26115,2,0,P|208:130|245:123,1,76.4999976654053,0|0,1:0|0:0,0:0:0:0:
128,48,26415,2,0,P|100:74|87:109,1,76.4999976654053,4|0,0:3|0:0,0:0:0:0:
212,181,26715,2,0,P|199:145|171:119,1,76.4999976654053,0|0,1:0|0:0,0:0:0:0:
124,192,27015,1,4,0:3:0:0:
171,119,27165,1,4,0:3:0:0:
176,268,27315,2,0,L|96:276,1,76.4999976654053,0|0,1:0|0:0,0:0:0:0:
339,295,27615,6,0,B|371:223|304:220|331:147,1,152.999995330811,4|0,0:3|1:0,0:0:0:0:
392,92,28065,1,0,0:0:0:0:
480,180,28215,2,0,P|442:187|406:176,1,76.4999976654053,4|4,0:3|0:3,0:0:0:0:
240,72,28515,2,0,P|276:61|313:68,1,76.4999976654053,0|0,1:0|0:0,0:0:0:0:
124,192,28815,2,0,B|104:144|104:144|124:44,1,152.999995330811,4|0,0:3|1:0,0:0:0:0:
204,152,29265,1,0,0:0:0:0:
152,272,29415,2,0,P|114:279|78:268,1,76.4999976654053,4|0,0:3|0:0,0:0:0:0:
248,236,29715,1,0,1:0:0:0:
246,45,30015,5,0,1:0:0:0:
152,272,30165,1,0,0:0:0:0:
152,84,30315,5,0,1:0:0:0:
246,310,30465,1,0,0:0:0:0:
246,45,30615,5,0,1:0:0:0:
113,178,30765,1,0,0:0:0:0:
296,176,30915,5,0,1:0:0:0:
152,84,31065,1,0,0:0:0:0:
344,88,31215,5,0,1:0:0:0:
246,310,31365,1,0,0:0:0:0:
246,45,31515,5,0,1:0:0:0:
340,272,31665,1,0,0:0:0:0:
344,88,31815,5,0,1:0:0:0:
208,184,31965,1,0,0:0:0:0:
340,272,32115,1,0,1:0:0:0:
340,272,32415,6,0,L|432:276,1,76.4999976654053,4|0,0:3|0:0,0:0:0:0:
464,176,32715,2,0,L|387:179,1,76.4999976654053,0|0,1:0|0:0,0:0:0:0:
416,275,33015,1,4,0:3:0:0:
496,256,33165,1,4,0:3:0:0:
256,296,33315,2,0,P|248:258|259:222,1,76.4999976654053,0|0,1:0|0:0,0:0:0:0:
364,100,33615,1,4,0:3:0:0:
308,160,33765,1,4,0:3:0:0:
284,81,33915,1,0,1:0:0:0:
388,180,34065,1,0,0:0:0:0:
224,144,34215,2,0,P|187:133|150:140,1,76.4999976654053,4|0,0:3|1:0,0:0:0:0:
150,139,34440,1,0,1:0:0:0:
150,139,34515,1,0,1:0:0:0:
64,192,34665,1,0,1:0:0:0:
64,192,34740,1,0,1:0:0:0:
64,192,34815,6,0,P|53:155|61:118,1,76.4999976654053,0|0,1:0|0:0,0:0:0:0:
220,70,35115,2,0,P|231:107|223:144,1,76.4999976654053,0|0,1:0|0:0,0:0:0:0:
24,32,35415,2,0,P|61:24|97:35,1,76.4999976654053,0|0,1:0|0:0,0:0:0:0:
264,232,35715,2,0,P|227:242|190:235,1,76.4999976654053,0|0,1:0|0:0,0:0:0:0:
136,40,36015,5,0,1:0:0:0:
190,235,36165,1,0,0:0:0:0:
220,70,36315,5,0,1:0:0:0:
108,284,36465,1,0,0:0:0:0:
48,36,36615,5,0,1:0:0:0:
80,188,36765,1,0,0:0:0:0:
220,70,36915,5,0,1:0:0:0:
16,272,37065,1,0,0:0:0:0:
80,188,37215,6,0,P|117:180|153:191,1,76.4999976654053,0|0,1:0|0:0,0:0:0:0:
328,308,37515,2,0,P|290:314|254:303,1,76.4999976654053,0|0,1:0|0:0,0:0:0:0:
220,70,37814,5,0,1:0:0:0:
352,216,37965,1,0,0:0:0:0:
108,284,38115,5,0,1:0:0:0:
140,104,38265,1,0,0:0:0:0:
296,336,38415,5,0,1:0:0:0:
220,70,38565,1,0,0:0:0:0:
108,284,38715,5,0,1:0:0:0:
216,50,38865,1,0,0:0:0:0:
188,344,39015,5,0,1:0:0:0:
212,34,39165,1,0,0:0:0:0:
368,256,39315,5,0,1:0:0:0:
208,18,39465,1,0,0:0:0:0:
428,176,39615,6,0,P|455:201|467:237,1,76.4999976654053,0|0,1:0|0:0,0:0:0:0:
328,168,39915,2,0,P|336:131|361:103,1,76.4999976654053,0|0,1:0|0:0,0:0:0:0:
368,256,40215,2,0,P|331:267|294:259,1,76.4999976654053,0|0,1:0|0:0,0:0:0:0:
361,103,40515,5,0,1:0:0:0:
432,312,40665,1,0,0:0:0:0:
120,268,40815,6,0,P|128:231|153:203,1,76.4999976654053,0|0,1:0|0:0,0:0:0:0:
293,259,41115,2,0,P|257:270|220:262,1,76.4999976654053,0|0,1:0|0:0,0:0:0:0:
200,111,41416,2,0,P|227:137|239:173,1,76.4999976654053,0|0,1:0|0:0,0:0:0:0:
84,132,41715,5,0,1:0:0:0:
239,173,41865,1,0,0:0:0:0:
352,68,42015,5,0,1:0:0:0:
220,262,42165,1,0,0:0:0:0:
176,104,42315,5,0,1:0:0:0:
304,240,42465,1,0,0:0:0:0:
328,152,42615,5,0,1:0:0:0:
152,196,42765,1,0,0:0:0:0:
264,80,42915,5,0,1:0:0:0:
220,262,43065,1,0,0:0:0:0:
176,104,43215,5,0,1:0:0:0:
312,240,43365,1,0,0:0:0:0:
264,80,43515,5,0,1:0:0:0:
128,284,43665,1,0,0:0:0:0:
176,104,43815,5,0,1:0:0:0:
285,330,43965,1,0,0:0:0:0:
352,60,44115,5,0,1:0:0:0:
220,262,44265,1,0,0:0:0:0:
396,220,44415,6,0,L|396:112,1,76.4999976654053,0|0,1:0|0:0,0:0:0:0:
200,16,44715,5,0,1:0:0:0:
304,240,44865,1,0,0:0:0:0:
264,80,45015,5,0,1:0:0:0:
128,284,45165,1,0,0:0:0:0:
176,104,45315,5,0,1:0:0:0:
285,330,45465,1,0,0:0:0:0:
102,107,45615,6,0,P|138:96|175:103,1,76.4999976654053,0|0,1:0|0:0,0:0:0:0:
193,352,45915,5,0,1:0:0:0:
152,192,46065,1,0,0:0:0:0:
101,374,46215,5,0,1:0:0:0:
239,173,46365,1,0,0:0:0:0:
285,330,46515,5,0,1:0:0:0:
176,108,46665,1,0,0:0:0:0:
456,260,46815,6,0,P|476:204|440:136,1,114.749996498108,4|0,0:3|0:0,0:0:0:0:
408,100,47115,2,0,L|296:109,1,76.4999976654053,8|0,0:3|0:0,0:0:0:0:
176,108,47415,6,0,P|156:55|173:1,1,114.749996498108,4|0,0:3|0:0,0:0:0:0:
248,24,47714,2,0,L|356:36,1,76.4999976654053,8|0,0:3|0:0,0:0:0:0:
248,160,48015,6,0,L|240:212,1,46.7500014266968
112,296,48315,5,0,1:0:0:0:
131,283,48390,1,0,1:0:0:0:
154,280,48465,1,0,1:0:0:0:
177,285,48540,1,0,1:0:0:0:
200,296,48615,5,0,1:0:0:0:
236,315,48690,1,0,1:0:0:0:
277,316,48765,1,0,1:0:0:0:
315,298,48840,1,0,1:0:0:0:
332,280,48915,2,0,L|324:224,1,38.2499988327027,0|0,1:0|1:0,0:0:0:0:
240,206,49065,2,0,L|245:168,1,38.2499988327027,0|0,1:0|1:0,0:0:0:0:
288,80,49215,6,0,P|332:67|376:80,1,93.5000028533936,4|0,3:0|0:0,0:0:0:0:
420,160,49515,1,0,1:0:0:0:
332,156,49665,1,0,0:0:0:0:
468,8,49815,2,0,L|488:108,1,93.5000028533936,4|4,0:3|0:3,0:0:0:0:
376,80,50115,1,0,1:0:0:0:
504,192,50265,6,0,P|517:236|504:280,1,93.5000028533936,2|0,0:2|0:0,0:0:0:0:
292,239,50565,2,0,L|408:231,1,93.5000028533936,2|0,0:2|1:0,0:0:0:0:
183,140,50865,2,0,L|89:133,1,93.5000028533936,2|0,0:2|0:0,0:0:0:0:
180,56,51165,1,2,2:0:0:0:
292,239,51315,1,2,1:2:0:0:
384,44,51465,1,2,2:0:0:0:
184,248,51615,6,0,P|170:292|183:336,1,93.5000028533936,4|0,0:3|0:0,0:0:0:0:
292,239,51915,2,0,P|305:194|292:150,1,93.5000028533936,0|0,1:0|0:0,0:0:0:0:
184,144,52215,1,4,0:3:0:0:
184,248,52365,1,4,0:3:0:0:
292,150,52515,1,0,1:0:0:0:
96,196,52665,2,0,L|-1:184,1,93.5000028533936,2|0,0:2|0:0,0:0:0:0:
256,56,52965,2,0,L|349:52,1,93.5000028533936,2|0,0:2|1:0,0:0:0:0:
404,156,53265,1,0,0:0:0:0:
291,327,53415,6,0,P|277:282|291:238,1,93.5000028533936,4|4,0:3|0:3,0:0:0:0:
496,256,53715,2,0,P|464:289|419:299,1,93.5000028533936,0|0,1:0|0:0,0:0:0:0:
327,111,54015,2,0,P|371:121|403:155,1,93.5000028533936,4|0,0:3|0:0,0:0:0:0:
247,14,54315,5,0,1:0:0:0:
204,136,54465,1,0,0:0:0:0:
119,37,54615,5,0,1:0:0:0:
327,111,54765,1,0,0:0:0:0:
247,14,54915,5,0,1:0:0:0:
290,236,55065,1,0,0:0:0:0:
119,37,55215,5,0,1:0:0:0:
327,111,55365,2,0,P|372:125|416:111,1,93.5000028533936,2|0,0:2|0:0,0:0:0:0:
204,136,55665,2,0,P|169:167|159:213,1,93.5000028533936,2|0,0:2|0:0,0:0:0:0:
333,313,55965,2,0,P|322:267|288:235,1,93.5000028533936,2|0,0:2|0:0,0:0:0:0:
76,160,56265,1,0,0:0:0:0:
289,235,56415,5,0,1:0:0:0:
119,37,56565,1,0,0:0:0:0:
158,256,56715,5,0,1:0:0:0:
247,14,56865,1,0,0:0:0:0:
76,160,57015,5,0,1:0:0:0:
328,112,57165,1,0,0:0:0:0:
119,37,57315,5,0,1:0:0:0:
290,236,57465,1,0,0:0:0:0:
368,0,57615,5,0,1:0:0:0:
158,256,57765,1,0,0:0:0:0:
247,14,57915,5,0,1:0:0:0:
419,208,58065,1,0,0:0:0:0:
368,0,58215,5,0,1:0:0:0:
290,236,58365,1,0,0:0:0:0:
119,37,58515,5,0,1:0:0:0:
328,112,58665,1,0,0:0:0:0:
112,220,58815,6,0,P|99:176|112:132,1,93.5000028533936,4|0,0:3|0:0,0:0:0:0:
192,88,59115,1,0,1:0:0:0:
188,176,59265,1,0,0:0:0:0:
344,84,59415,2,0,P|299:94|267:128,1,93.5000028533936,4|4,0:3|0:3,0:0:0:0:
268,220,59715,1,0,1:0:0:0:
424,124,59865,6,0,P|437:79|423:36,1,93.5000028533936,2|0,0:2|0:0,0:0:0:0:
352,256,60165,2,0,P|338:211|352:167,1,93.5000028533936,2|0,0:2|1:0,0:0:0:0:
432,300,60465,2,0,P|445:255|432:211,1,93.5000028533936,2|0,0:2|0:0,0:0:0:0:
268,220,60765,1,2,0:2:0:0:
432,300,60915,1,2,1:2:0:0:
424,124,61065,1,2,0:2:0:0:
312,324,61215,6,0,L|208:316,1,93.5000028533936,4|2,0:3|0:2,0:0:0:0:
72,232,61515,2,0,L|165:224,1,93.5000028533936,0|0,1:0|0:0,0:0:0:0:
268,220,61815,1,4,0:3:0:0:
218,316,61965,1,4,0:3:0:0:
165,224,62115,1,2,1:2:0:0:
352,256,62265,2,0,P|361:210|344:167,1,93.5000028533936,2|0,0:2|0:0,0:0:0:0:
84,186,62565,2,0,P|118:216|164:223,1,93.5000028533936,2|0,0:2|1:0,0:0:0:0:
216,136,62865,1,0,0:0:0:0:
388,0,63015,6,0,L|380:108,1,93.5000028533936,4|0,3:0|0:0,0:0:0:0:
216,136,63315,2,0,L|300:95,1,93.5000028533936,0|0,1:0|0:0,0:0:0:0:
421,220,63615,2,0,L|344:168,1,93.5000028533936,4|0,0:3|0:0,0:0:0:0:
388,0,63915,5,0,1:0:0:0:
272,208,64065,1,0,0:0:0:0:
280,4,64215,5,0,1:0:0:0:
283,228,64365,1,0,0:0:0:0:
184,56,64515,5,0,1:0:0:0:
293,245,64665,1,0,0:0:0:0:
48,312,64815,5,0,1:0:0:0:
232,348,64965,2,0,L|332:336,1,93.5000028533936,2|0,0:2|0:0,0:0:0:0:
484,260,65265,2,0,L|384:248,1,93.5000028533936,2|0,0:2|0:0,0:0:0:0:
216,160,65565,2,0,L|308:148,1,93.5000028533936,2|0,0:2|0:0,0:0:0:0:
416,76,65865,1,0,0:0:0:0:
293,245,66015,5,0,1:0:0:0:
256,64,66165,1,0,0:0:0:0:
168,228,66315,5,0,1:0:0:0:
180,44,66465,1,0,0:0:0:0:
20,232,66615,5,0,1:0:0:0:
104,28,66765,1,0,0:0:0:0:
396,296,66915,6,0,L|408:188,1,93.5000028533936,0|0,1:0|0:0,0:0:0:0:
196,292,67215,2,0,P|225:327|268:342,1,93.5000028533936,8|0,0:3|0:0,0:0:0:0:
100,236,67515,2,0,P|83:279|92:324,1,93.5000028533936,8|0,0:3|0:0,0:0:0:0:
304,236,67815,2,0,P|270:204|227:189,1,93.5000028533936,8|0,0:3|0:3,0:3:0:0:
36,193,68115,6,0,P|28:257|100:225,1,165.750000632286,4|0,0:2|0:0,0:0:0:0:
76,36,68415,5,0,1:0:0:0:
100,236,68565,1,0,0:0:0:0:
188,28,68715,5,0,1:0:0:0:
196,292,68865,1,0,0:0:0:0:
280,64,69015,5,0,1:0:0:0:
308,240,69165,1,0,0:0:0:0:
380,32,69315,5,0,1:0:0:0:
400,272,69465,1,0,0:0:0:0:
296,72,69615,5,0,1:0:0:0:
496,216,69765,1,0,0:0:0:0:
272,156,69915,5,0,1:0:0:0:
512,132,70065,1,0,0:0:0:0:
296,248,70215,5,0,1:0:0:0:
464,60,70365,1,0,0:0:0:0:
400,272,70515,5,0,1:0:0:0:
380,32,70665,1,0,0:0:0:0:
268,248,70815,5,0,1:0:0:0:
296,72,70965,1,0,0:0:0:0:
196,292,71115,5,0,1:0:0:0:
188,28,71265,1,0,0:0:0:0:
104,268,71415,5,0,1:0:0:0:
80,68,71565,1,0,0:0:0:0:
268,248,71715,5,0,1:0:0:0:
296,72,71865,1,0,0:0:0:0:
48,256,72015,6,0,L|56:360,1,93.5000028533936,4|0,1:2|0:0,0:0:0:0:
180,121,72315,2,0,L|187:27,1,93.5000028533936,4|0,1:2|0:0,0:0:0:0:
268,248,72615,2,0,L|276:352,1,93.5000028533936,4|0,1:2|0:0,0:0:0:0:
372,125,72915,2,0,L|379:31,1,93.5000028533936,4|0,1:2|0:0,0:0:0:0:
260,220,73215,5,0,1:0:0:0:
512,316,73365,1,0,0:0:0:0:
267,313,73515,5,0,1:0:0:0:
496,228,73665,1,0,0:0:0:0:
180,272,73815,5,0,1:0:0:0:
428,284,73965,1,0,0:0:0:0:
176,180,74115,5,0,1:0:0:0:
356,348,74265,1,0,0:0:0:0:
96,236,74415,5,0,1:0:0:0:
412,196,74565,1,0,0:0:0:0:
92,144,74715,5,0,1:0:0:0:
428,284,74865,1,0,0:0:0:0:
104,328,75015,5,0,1:0:0:0:
404,112,75165,1,0,0:0:0:0:
168,88,75315,5,0,1:0:0:0:
267,313,75465,1,0,0:0:0:0:
404,112,75615,6,0,P|360:99|316:112,1,93.5000028533936,2|0,1:2|0:0,0:0:0:0:
111,248,75915,2,0,P|80:186|93:142,1,93.5000028533936,2|0,1:2|0:0,0:0:0:0:
248,40,76215,1,2,1:2:0:0:
267,313,76365,1,2,0:2:0:0:
404,112,76515,1,2,1:2:0:0:
176,180,76665,1,2,0:2:0:0:
440,328,76815,6,0,L|432:216,1,93.5000028533936,4|0,0:3|0:0,0:0:0:0:
404,112,77115,2,0,L|464:72,3,46.7500014266968,0|0|0|0,1:0|0:0|0:0|0:0,0:0:0:0:
334,168,77415,1,4,0:3:0:0:
321,198,77490,1,4,0:3:0:0:
318,230,77565,1,4,0:3:0:0:
324,262,77640,1,4,0:3:0:0:
339,291,77715,5,0,1:0:0:0:
298,260,77790,1,0,1:0:0:0:
249,245,77865,1,0,1:0:0:0:
198,247,77940,1,0,1:0:0:0:
152,260,78015,6,0,P|106:269|63:252,1,93.5000028533936,2|2,0:2|0:2,0:0:0:0:
64,88,78315,1,2,1:2:0:0:
112,168,78465,1,0,0:0:0:0:
16,172,78615,1,2,1:2:0:0:
160,88,78765,1,2,0:2:0:0:
216,168,78915,1,2,1:2:0:0:
64,88,79065,6,0,P|47:44|56:0,1,93.5000028533936,2|0,0:2|1:0,0:0:0:0:
160,88,79365,1,2,0:2:0:0:
112,168,79515,1,2,1:2:0:0:
256,84,79665,1,0,0:0:0:0:
164,248,79815,1,2,1:2:0:0:
112,168,79965,1,0,0:0:0:0:
216,168,80115,1,2,1:2:0:0:
44,284,80265,1,2,0:2:0:0:
216,320,80415,6,0,L|328:324,1,93.5000028533936,2|0,1:2|0:0,0:0:0:0:
364,248,80715,1,2,1:2:0:0:
312,324,80865,1,0,0:0:0:0:
312,164,81015,1,2,1:2:0:0:
408,168,81165,1,2,0:2:0:0:
268,244,81315,1,2,1:2:0:0:
256,84,81465,6,0,P|263:37|293:3,1,93.5000028533936,2|0,0:2|1:0,0:0:0:0:
463,80,81765,1,4,0:3:0:0:
360,76,81915,1,0,1:0:0:0:
364,248,82065,1,0,0:0:0:0:
408,168,82215,1,0,1:0:0:0:
216,168,82365,5,0,1:0:0:0:
184,175,82440,1,0,1:0:0:0:
151,172,82515,1,0,1:0:0:0:
121,161,82590,1,0,1:0:0:0:
89,155,82665,1,0,1:0:0:0:
57,162,82740,1,0,1:0:0:0:
36,176,82815,6,0,L|36:280,1,93.5000028533936,2|2,0:2|0:2,0:0:0:0:
120,316,83115,1,2,1:2:0:0:
120,220,83265,1,2,0:2:0:0:
40,360,83415,1,2,1:2:0:0:
200,267,83565,1,2,0:2:0:0:
36,269,83715,1,2,1:2:0:0:
283,308,83865,6,0,P|292:262|276:220,1,93.5000028533936,2|0,0:2|1:0,0:0:0:0:
120,220,84165,1,2,0:2:0:0:
200,267,84315,1,2,1:2:0:0:
292,116,84465,1,0,0:0:0:0:
204,168,84615,1,2,1:2:0:0:
380,164,84765,1,0,0:0:0:0:
202,65,84915,1,2,1:2:0:0:
200,267,85065,1,2,0:2:0:0:
380,64,85215,5,4,0:1:0:0:
120,316,85815,1,0,1:0:0:0:
476,224,86265,6,0,B|460:188|476:144|476:144|460:116|460:116|484:80|468:32,1,187.000005706787,0|0,1:0|1:0,0:0:0:0:
292,116,86715,1,0,1:0:0:0:
380,164,86865,1,0,1:0:0:0:
380,64,87015,1,0,1:0:0:0:
296,216,87165,2,0,L|300:268,5,46.7500014266968,0|0|0|0|0|0,1:0|1:0|1:0|1:0|1:0|1:0,0:0:0:0:
292,116,87615,6,0,L|200:116,1,85,4|0,0:3|0:0,0:0:0:0:
212,208,87915,1,0,1:0:0:0:
19,116,88065,2,0,P|43:193|122:214,1,170,4|0,0:3|0:0,0:0:0:0:
220,27,88515,2,0,P|140:43|116:128,1,170,0|4,1:0|0:3,0:0:0:0:
212,208,88965,1,4,0:3:0:0:
208,116,89115,1,0,1:0:0:0:
122,214,89265,1,0,0:0:0:0:
288,160,89415,1,4,0:3:0:0:
296,336,89565,1,4,0:3:0:0:
212,208,89715,1,0,1:0:0:0:
368,196,89865,1,0,0:0:0:0:
172,292,90015,5,4,0:3:0:0:
208,116,90165,1,4,0:3:0:0:
39,203,90315,1,0,1:0:0:0:
212,208,90465,2,0,P|264:270|239:347,1,170,4|0,0:3|0:0,0:0:0:0:
39,203,90915,2,0,P|14:126|67:64,1,170,0|4,1:0|0:3,0:0:0:0:
152,68,91365,1,4,0:3:0:0:
104,140,91515,1,0,1:0:0:0:
66,64,91665,1,0,0:0:0:0:
66,286,91815,1,4,0:3:0:0:
259,175,91965,1,4,1:3:0:0:
39,203,92115,1,0,1:0:0:0:
144,300,92265,1,0,0:0:0:0:
404,96,92415,6,0,L|304:96,1,85,4|0,0:3|0:0,0:0:0:0:
259,175,92715,1,0,1:0:0:0:
247,36,92865,2,0,B|286:6|286:6|408:8,1,170,4|0,0:3|0:0,0:0:0:0:
512,160,93315,2,0,B|473:189|473:189|351:188,1,170,0|4,1:0|0:3,0:0:0:0:
259,175,93765,1,4,0:3:0:0:
320,96,93915,1,0,1:0:0:0:
352,188,94065,1,0,0:0:0:0:
228,84,94215,1,4,0:3:0:0:
292,264,94365,1,4,0:3:0:0:
416,112,94515,1,0,1:0:0:0:
292,284,94665,1,0,0:0:0:0:
168,148,94815,6,0,P|131:128|90:138,1,85,4|8,0:3|0:3,0:0:0:0:
90,137,95040,1,8,0:3:0:0:
90,137,95115,1,8,0:3:0:0:
44,344,95265,1,4,3:0:0:0:
128,256,95415,1,4,0:3:0:0:
4,232,95565,1,0,1:0:0:0:
416,336,95715,5,4,0:1:0:0:
256,192,95790,12,0,101115,0:0:0:0:
