osu file format v14

[General]
AudioFilename: audio.mp3
AudioLeadIn: 0
PreviewTime: 51989
Countdown: 0
SampleSet: Soft
StackLeniency: 0.5
Mode: 0
LetterboxInBreaks: 0
WidescreenStoryboard: 0

[Editor]
Bookmarks: 18774
DistanceSpacing: 1
BeatDivisor: 4
GridSize: 32
TimelineZoom: 1.1

[Metadata]
Title:Hajimari no Kaze (TV Size)
TitleUnicode:はじまりの風 (TV Size)
Artist:Hirahara Ayaka
ArtistUnicode:平原綾香
Creator:soundlovely
Version:Easy
Source:彩雲国物語
Tags:anime japanese jpop 路川 ひまり YANAGIMAN opening theme pop Saiunkoku Monogatari The Story of Saiunkoku
BeatmapID:2631543
BeatmapSetID:1266172

[Difficulty]
HPDrainRate:2
CircleSize:3
OverallDifficulty:1.5
ApproachRate:3
SliderMultiplier:1
SliderTickRate:1

[Events]
//Background and Video events
0,0,"bg2.jpg",0,0
//Break Periods
//Storyboard Layer 0 (Background)
//Storyboard Layer 1 (Fail)
//Storyboard Layer 2 (Pass)
//Storyboard Layer 3 (Foreground)
//Storyboard Layer 4 (Overlay)
//Storyboard Sound Samples

[TimingPoints]
1633,535.714285714286,4,2,1,40,1,0
16633,-100,4,2,1,40,0,0
17168,-100,4,2,1,45,0,0
17704,-100,4,2,1,50,0,0
17972,-100,4,2,1,55,0,0
18775,-100,4,2,1,60,0,0
35918,-100,4,2,1,70,0,0
51990,-100,4,2,1,75,0,0
53061,-100,4,2,1,80,0,1
85204,-100,4,2,1,70,0,0
85740,-100,4,2,1,60,0,0
86275,-100,4,2,1,50,0,0
86811,-100,4,2,1,40,0,0
87347,-100,4,2,1,30,0,0

[Colours]
Combo1 : 140,255,255
Combo2 : 255,128,255
Combo3 : 128,128,255
Combo4 : 128,255,128

[HitObjects]
82,145,18775,6,0,P|104:189|93:247,1,100,4|8,1:2|0:0,0:0:0:0:
72,334,19847,2,0,P|114:358|166:355,1,100,2|0,0:0|0:0,0:0:0:0:
239,289,20918,1,0,1:2:0:0:
326,337,21454,2,0,P|422:347|493:271,1,200,10|0,0:0|0:0,0:0:0:0:
465,181,23061,5,2,1:2:0:0:
389,248,23597,1,10,0:0:0:0:
298,205,24133,2,0,P|290:152|310:101,1,100,2|0,0:0|0:0,0:0:0:0:
387,52,25204,2,0,P|351:19|295:10,1,100,2|8,1:2|0:0,0:0:0:0:
213,55,26275,2,0,P|162:139|57:145,1,200,2|0,0:0|1:2,0:0:0:0:
29,241,27883,6,0,L|38:345,2,100,10|0|0,0:0|0:0|0:0,0:0:0:0:
67,149,29490,1,0,1:2:0:0:
134,222,30025,2,0,P|204:290|306:289,1,200,10|0,0:0|0:0,0:0:0:0:
398,265,31633,1,2,1:2:0:0:
451,180,32168,2,0,P|485:216|496:275,2,100,10|0|2,0:0|0:0|0:0,0:0:0:0:
373,116,33775,2,0,B|325:132|325:132|222:108,1,150,2|0,1:2|1:2,0:0:0:0:
228,109,35918,5,6,1:2:0:0:
239,9,36454,2,0,P|190:15|144:53,1,100,10|0,0:0|0:0,0:0:0:0:
133,143,37525,1,2,0:0:0:0:
33,155,38061,2,0,P|88:235|191:226,1,200,2|0,1:2|0:0,0:0:0:0:
269,182,39668,6,0,P|321:177|379:202,1,100,2|0,0:0|1:2,0:0:0:0:
462,168,40740,2,0,B|473:219|473:219|458:369,1,200,10|0,0:0|0:0,0:0:0:0:
361,348,42347,2,0,B|311:353|311:353|259:335,1,100,2|8,1:2|0:0,0:0:0:0:
169,304,43418,1,2,0:0:0:0:
105,381,43954,6,0,P|74:338|70:289,1,100,2|4,0:0|1:2,0:0:0:0:
99,196,45025,2,0,P|116:148|108:98,1,100,10|0,0:0|0:0,0:0:0:0:
53,17,46097,1,2,0:0:0:0:
157,15,46633,2,0,B|180:50|236:52|236:52|262:28|342:23,1,200,2|0,1:2|0:0,0:0:0:0:
437,4,48240,6,0,P|458:51|445:106,1,100,2|0,0:0|1:2,0:0:0:0:
376,165,49311,2,0,P|325:200|334:336,1,200,10|0,0:0|0:0,0:0:0:0:
421,356,50918,1,2,1:2:0:0:
467,267,51454,2,0,L|463:205,1,50,8|0,0:0|1:2,0:0:0:0:
481,170,51990,2,0,P|484:121|466:69,1,100,2|0,1:2|0:0,0:0:0:0:
382,20,53061,5,6,1:2:0:0:
292,65,53597,2,0,P|243:68|193:52,1,100,10|0,0:0|0:0,0:0:0:0:
101,16,54668,1,2,0:0:0:0:
25,82,55204,2,0,P|13:129|34:186,1,100,2|8,1:2|0:0,0:0:0:0:
62,270,56275,1,2,0:0:0:0:
127,194,56811,1,2,0:0:0:0:
226,182,57347,6,0,B|271:211|271:211|430:187,1,200,6|0,1:2|0:0,0:0:0:0:
506,231,58954,1,2,0:0:0:0:
476,326,59490,2,0,L|374:320,1,100,2|8,1:2|0:0,0:0:0:0:
292,374,60561,2,0,P|247:357|210:308,1,100,2|0,0:0|0:0,0:0:0:0:
234,219,61633,5,6,1:2:0:0:
333,224,62168,2,0,P|381:210|415:174,1,100,10|0,0:0|0:0,0:0:0:0:
329,122,63240,1,2,0:0:0:0:
391,44,63775,2,0,P|342:23|283:35,1,100,2|8,1:2|0:0,0:0:0:0:
215,87,64847,1,2,0:0:0:0:
237,184,65383,1,2,0:0:0:0:
175,264,65918,6,0,P|94:335|2:304,1,200,6|0,1:2|0:0,0:0:0:0:
76,230,67525,1,2,0:0:0:0:
16,149,68061,2,0,P|1:100|4:47,1,100,2|8,1:2|0:0,0:0:0:0:
100,29,69133,1,2,0:0:0:0:
190,71,69668,1,2,0:0:0:0:
266,6,70204,5,6,1:2:0:0:
361,35,70740,2,0,P|418:47|471:39,1,100,10|0,0:0|0:0,0:0:0:0:
488,138,71811,1,2,0:0:0:0:
395,176,72347,2,0,P|381:225|378:292,1,100,2|8,1:2|0:0,0:0:0:0:
434,355,73418,2,0,P|389:373|337:377,1,100,2|0,0:0|0:0,0:0:0:0:
242,347,74490,5,6,1:2:0:0:
266,250,75025,2,0,P|273:201|261:129,1,100,10|0,0:0|0:0,0:0:0:0:
225,59,76097,1,2,0:0:0:0:
125,48,76633,2,0,P|130:93|173:145,1,100,2|8,1:2|0:0,0:0:0:0:
254,171,77704,1,2,0:0:0:0:
215,263,78240,1,2,0:0:0:0:
255,354,78775,6,0,B|114:368|114:368|43:331,1,200,6|0,1:2|0:0,0:0:0:0:
24,248,80383,1,2,0:0:0:0:
66,157,80918,2,0,P|69:104|46:53,1,100,2|8,1:2|0:0,0:0:0:0:
144,23,81990,1,2,0:0:0:0:
229,74,82525,1,2,0:0:0:0:
236,173,83061,5,6,1:2:0:0:
319,118,83597,2,0,P|413:114|451:204,1,200,10|0,0:0|0:0,0:0:0:0:
419,294,85204,6,0,B|349:320|296:276|296:276|269:289|269:289|213:241|149:236|83:279|70:333,1,400,2|0,1:2|0:0,0:0:0:0:
