osu file format v14

[General]
AudioFilename: audio.mp3
AudioLeadIn: 0
PreviewTime: 74599
Countdown: 0
SampleSet: Soft
StackLeniency: 0.7
Mode: 0
LetterboxInBreaks: 0
WidescreenStoryboard: 0

[Editor]
Bookmarks: 75068,102068,123068,138443,153068,177068
DistanceSpacing: 0.4
BeatDivisor: 8
GridSize: 32
TimelineZoom: 1.4

[Metadata]
Title:Semi Pro
TitleUnicode:Semi Pro
Artist:Hippo Campus
ArtistUnicode:Hippo Campus
Creator:FuJu
Version:Insane
Source:
Tags:lp3 english pop indie airincat kyouren kittyadventure gokugohan12468
BeatmapID:4182488
BeatmapSetID:2010117

[Difficulty]
HPDrainRate:6
CircleSize:3.8
OverallDifficulty:7.8
ApproachRate:8.6
SliderMultiplier:3.2
SliderTickRate:1

[Events]
//Background and Video events
0,0,"ismail-inceoglu-dear-wishes.jpg",0,0
//Break Periods
2,114643,122409
//Storyboard Layer 0 (Background)
//Storyboard Layer 1 (Fail)
//Storyboard Layer 2 (Pass)
//Storyboard Layer 3 (Foreground)
//Storyboard Layer 4 (Overlay)
//Storyboard Sound Samples

[TimingPoints]
68,750,4,2,1,60,1,0
3068,-105.263157894737,4,2,1,60,0,0
15068,-117.64705882353,4,2,1,50,0,0
21068,-117.64705882353,4,2,1,60,0,0
39068,-117.64705882353,4,2,2,50,0,0
49943,-153.846153846155,4,2,1,60,0,0
51068,-105.263157894737,4,2,1,60,0,0
51443,-117.64705882353,4,2,1,60,0,0
63068,-117.64705882353,4,2,1,50,0,0
72068,-153.846153846155,4,2,1,60,0,0
75068,-153.846153846155,4,2,1,70,0,0
75818,-105.263157894737,4,2,1,70,0,0
82568,-86.9565217391304,4,2,1,70,0,0
82943,-153.846153846155,4,2,1,70,0,0
84068,-117.64705882353,4,2,1,70,0,0
87068,-153.846153846155,4,2,1,70,0,0
87818,-105.263157894737,4,2,1,70,0,0
113693,-285.714285714287,4,2,1,40,0,0
126068,-133.333333333334,4,2,3,50,0,0
132068,-222.222222222224,4,2,3,50,0,0
133380,-133.333333333334,4,2,3,50,0,0
137318,-133.333333333334,4,2,1,60,0,0
138443,-86.9565217391307,4,2,1,70,0,0
138818,-105.263157894737,4,2,1,70,0,0
143318,-222.222222222223,4,2,1,50,0,0
144443,-222.222222222223,4,2,1,60,0,0
144818,-86.9565217391306,4,2,1,70,0,0
145193,-105.263157894737,4,2,1,70,0,0
153068,-153.846153846154,4,2,1,70,0,0
153818,-105.263157894737,4,2,1,70,0,0

[Colours]
Combo1 : 240,140,140
Combo2 : 200,180,220
Combo3 : 240,200,155
Combo4 : 150,185,220

[HitObjects]
477,352,3068,6,0,P|438:311|383:302,1,113.999996955872,6|0,1:1|0:2,0:2:0:0:
365,323,3443,2,0,P|330:307|297:289,1,75.9999979705811,2|0,3:2|3:2,3:2:0:0:
401,227,3818,2,0,P|387:191|377:155,1,75.9999979705811,10|0,3:2|3:2,3:2:0:0:
382,149,4099,1,0,3:2:0:0:
387,143,4193,1,2,3:2:0:0:
497,257,4380,2,0,P|504:239|512:222,1,37.9999989852906,4|4,3:3|3:3,3:2:0:0:
344,47,4568,6,0,B|297:80|280:125|280:125|286:174,2,151.999995941162,0|2|10,1:2|1:2|0:2,0:2:0:0:
202,3,5568,5,4,0:3:0:0:
231,0,5693,2,0,P|216:35|206:71,1,75.9999979705811,2|0,3:2|0:2,0:2:0:0:
387,143,6068,5,2,1:2:0:0:
337,26,6255,1,2,0:2:0:0:
197,190,6443,2,0,P|233:179|267:163,1,75.9999979705811,2|0,0:2|0:2,0:2:0:0:
442,343,6818,2,0,P|369:330|324:271,1,151.999995941162,8|0,0:2|0:2,0:2:0:0:
300,267,7380,2,0,P|303:248|309:230,1,37.9999989852906,4|4,3:3|3:3,0:2:0:0:
420,214,7568,5,2,1:2:0:0:
291,368,7755,1,2,0:2:0:0:
199,223,7943,2,0,B|152:207|152:207|102:215|102:215|54:196,1,151.999995941162,2|8,1:2|0:2,0:2:0:0:
272,285,8568,5,4,0:3:0:0:
205,329,8693,2,0,P|169:342|134:356,1,75.9999979705811,0|0,3:2|0:2,0:2:0:0:
300,153,9068,6,0,P|293:96|289:39,1,113.999996955872,6|0,1:2|0:2,0:2:0:0:
266,48,9443,2,0,P|230:35|195:21,1,75.9999979705811,2|0,0:2|0:2,0:2:0:0:
295,297,9818,2,0,P|307:261|322:225,1,75.9999979705811,10|0,0:2|3:2,0:2:0:0:
329,222,10099,1,0,3:2:0:0:
336,219,10193,1,2,3:2:0:0:
228,380,10380,2,0,P|220:362|213:344,1,37.9999989852906,4|4,3:3|3:3,0:2:0:0:
0,309,10568,6,0,B|75:271|77:310|145:271,1,151.999995941162,0|2,1:2|1:2,0:2:0:0:
103,63,11130,1,2,0:2:0:0:
173,169,11318,2,0,P|188:120|215:77,1,101.333330627441,10|4,0:2|0:3,0:2:0:0:
213,64,11693,1,2,3:2:0:0:
49,179,11880,1,0,3:2:0:0:
255,222,12068,6,0,P|290:234|320:257,1,75.9999979705811,2|2,1:2|0:2,0:2:0:0:
389,206,12443,2,0,P|377:130|368:55,1,151.999995941162,2|8,0:2|0:2,0:2:0:0:
466,244,13005,1,8,0:2:0:0:
316,341,13193,2,0,P|279:353|245:370,1,75.9999979705811,0|0,1:2|0:2,0:2:0:0:
255,222,13568,5,2,1:2:0:0:
255,222,13755,1,2,0:2:0:0:
185,88,13943,2,0,P|192:51|196:14,1,75.9999979705811,2|0,1:2|0:2,0:2:0:0:
165,279,14318,5,10,0:2:0:0:
257,144,14505,1,8,0:2:0:0:
257,144,14599,1,0,1:2:0:0:
257,144,14693,1,2,1:2:0:0:
413,139,14880,5,2,0:2:0:0:
413,139,15068,2,0,P|444:154|476:166,1,68.0000012969971,2|0,3:2|0:2,0:2:0:0:
336,47,15443,2,0,P|278:80|256:143,1,136.000002593994,2|2,0:2|0:2,0:2:0:0:
413,139,16193,6,0,P|444:127|475:112,1,68.0000012969971,2|0,0:2|0:2,0:2:0:0:
501,239,16568,1,2,0:2:0:0:
501,239,16755,2,0,P|451:282|384:287,1,136.000002593994,2|0,0:2|0:2,0:2:0:0:
265,384,17318,2,0,P|273:350|280:317,1,68.0000012969971,2|0,0:2|0:2,0:2:0:0:
354,362,17693,1,2,0:2:0:0:
354,362,17880,1,2,0:2:0:0:
132,291,18068,6,0,B|211:278|179:261|259:246,1,136.000002593994,2|0,3:2|3:2,0:2:0:0:
246,241,18818,2,0,P|249:207|254:173,1,68.0000012969971,2|0,0:2|0:2,0:2:0:0:
186,33,19193,2,0,P|182:66|177:100,1,68.0000012969971,2|0,3:2|0:2,0:2:0:0:
347,203,19568,2,0,P|350:169|355:135,2,68.0000012969971,2|0|0,3:2|0:2|3:3,0:2:0:0:
59,121,20318,5,10,0:2:0:0:
142,194,20505,1,0,3:2:0:0:
142,194,20599,1,0,3:2:0:0:
142,194,20693,1,0,3:2:0:0:
14,130,20880,1,4,0:3:0:0:
133,306,21068,6,0,B|176:287|176:287|219:289|219:289|261:271,1,136.000002593994,4|0,1:3|0:2,0:2:0:0:
63,340,21630,1,0,0:2:0:0:
266,384,21818,1,8,0:2:0:0:
266,384,21911,1,0,3:2:0:0:
266,384,22005,1,0,3:2:0:0:
355,212,22193,2,0,P|347:179|343:146,1,68.0000012969971,2|0,1:2|0:2,0:2:0:0:
441,224,22568,5,2,3:2:0:0:
260,173,22755,2,0,P|277:109|324:61,1,136.000002593994,2|0,0:2|0:0,0:2:0:0:
390,284,23318,2,0,P|382:316|367:347,1,68.0000012969971,10|0,0:2|0:2,0:2:0:0:
214,274,23693,2,0,P|244:258|277:250,1,68.0000012969971,2|0,1:2|0:2,0:2:0:0:
490,384,24068,6,0,B|483:301|471:341|465:251,1,136.000002593994,2|0,3:2|1:2,0:2:0:0:
458,259,24818,1,10,0:2:0:0:
507,179,25005,1,0,0:2:0:0:
366,84,25193,5,2,1:2:0:0:
512,195,25380,1,0,0:2:0:0:
501,6,25568,6,0,P|489:38|481:70,1,68.0000012969971,2|0,3:2|0:2,0:2:0:0:
351,255,25943,2,0,P|342:222|331:190,1,68.0000012969971,0|0,1:2|0:2,0:2:0:0:
189,85,26318,2,0,P|221:93|253:104,1,68.0000012969971,10|0,0:2|0:2,0:2:0:0:
449,266,26693,1,8,0:3:0:0:
355,384,26880,5,8,0:3:0:0:
348,376,26974,1,8,0:3:0:0:
341,368,27068,2,0,B|295:356|295:356|252:359|252:359|208:344,1,136.000002593994,4|2,1:3|0:2,0:2:0:0:
106,384,27630,1,2,0:2:0:0:
260,214,27818,2,0,P|230:228|198:239,1,68.0000012969971,10|0,0:2|0:2,0:2:0:0:
103,282,28193,2,0,P|109:248|111:214,1,68.0000012969971,2|0,1:2|0:2,0:2:0:0:
208,344,28568,5,2,3:2:0:0:
208,344,28755,1,2,0:2:0:0:
0,171,28943,2,0,P|64:148|124:118,1,136.000002593994,2|8,1:2|0:2,0:2:0:0:
124,118,29693,5,2,1:2:0:0:
270,138,29880,1,2,0:2:0:0:
300,283,30068,1,2,3:2:0:0:
512,208,30443,6,0,P|479:198|448:185,1,68.0000012969971,2|0,1:2|0:2,0:2:0:0:
392,253,30818,2,0,P|414:316|425:384,1,136.000002593994,10|2,0:2|1:2,0:2:0:0:
498,288,31380,1,2,0:2:0:0:
326,209,31568,2,0,P|314:177|307:143,1,68.0000012969971,2|0,3:2|0:2,0:2:0:0:
226,278,31943,2,0,P|214:309|207:343,1,68.0000012969971,2|0,1:2|0:2,0:2:0:0:
0,205,32318,6,0,P|33:198|65:186,1,68.0000012969971,10|0,0:2|0:2,0:2:0:0:
111,257,32693,2,0,P|120:243|128:228,1,34.0000006484985,8|0,0:3|3:2,0:2:0:0:
0,81,32880,2,0,P|7:95|17:109,1,34.0000006484985,8|0,0:3|3:2,0:2:0:0:
204,192,33068,6,0,B|209:134|179:91|179:91|150:81,1,136.000002593994,4|2,1:3|0:2,0:2:0:0:
137,81,33818,2,0,P|169:72|201:60,1,68.0000012969971,10|0,0:2|0:2,0:2:0:0:
218,207,34193,1,2,1:2:0:0:
312,73,34380,1,0,3:2:0:0:
312,73,34474,1,0,3:2:0:0:
312,73,34568,2,0,P|304:105|293:138,1,68.0000012969971,2|0,3:2|0:2,0:2:0:0:
464,135,34943,2,0,P|431:143|400:158,1,68.0000012969971,2|0,1:2|0:2,0:2:0:0:
277,291,35318,1,10,0:2:0:0:
277,291,35693,6,0,P|326:278|373:259,1,102.000001945496,2|0,1:2|0:2,0:2:0:0:
403,271,36068,2,0,P|412:303|426:334,1,68.0000012969971,2|0,3:2|0:2,0:2:0:0:
210,221,36443,2,0,P|148:197|96:153,1,136.000002593994,2|8,1:2|3:2,3:2:0:0:
400,39,37193,5,2,1:2:0:0:
400,39,37286,1,0,3:2:0:0:
400,39,37380,1,0,3:2:0:0:
294,202,37568,2,0,P|293:168|290:134,1,68.0000012969971,2|0,3:2|0:2,0:2:0:0:
462,117,37943,2,0,P|429:127|398:140,1,68.0000012969971,2|0,1:2|0:2,0:2:0:0:
211,0,38318,5,8,0:2:0:0:
310,129,38505,1,8,0:2:0:0:
87,87,38693,5,8,0:2:0:0:
319,136,38880,1,8,0:2:0:0:
36,273,39068,6,0,B|112:260|80:241|160:222,1,136.000002593994,4|0,1:2|0:2,0:2:0:0:
180,384,39818,2,0,B|224:321|188:330|232:260,1,136.000002593994,10|0,1:2|0:2,0:2:0:0:
161,139,40568,5,0,1:2:0:0:
161,139,40755,1,0,3:2:0:0:
332,308,40943,2,0,P|320:276|313:243,1,68.0000012969971,0|0,3:2|3:2,0:2:0:0:
287,51,41318,2,0,P|261:113|247:180,1,136.000002593994,10|0,1:2|0:2,0:2:0:0:
247,180,41880,2,0,L|280:174,1,34.0000006484985,0|0,3:2|3:2,0:2:0:0:
157,384,42068,6,0,P|139:286|57:229,1,204.000003890991,0|0,1:2|0:2,0:2:0:0:
324,325,42818,2,0,P|357:331|390:340,1,68.0000012969971,10|0,1:2|0:2,0:2:0:0:
246,180,43193,1,0,3:2:0:0:
246,180,43380,1,0,3:2:0:0:
234,384,43568,6,0,P|242:351|249:317,1,68.0000012969971,0|0,1:2|0:2,0:2:0:0:
391,229,43943,2,0,P|378:162|342:104,1,136.000002593994,0|10,3:2|1:2,0:2:0:0:
342,104,44693,1,8,0:3:0:0:
206,55,44880,1,8,0:3:0:0:
98,152,45068,2,0,P|88:184|84:218,1,68.0000012969971,0|0,1:2|0:2,0:2:0:0:
165,227,45443,2,0,P|168:260|179:293,1,68.0000012969971,0|0,3:2|0:2,0:2:0:0:
0,116,45818,6,0,P|48:69|125:62,1,136.000002593994,10|0,1:2|3:2,0:2:0:0:
220,41,46380,1,0,3:2:0:0:
220,41,46568,2,0,P|267:89|273:166,1,136.000002593994,0|0,1:2|3:2,0:2:0:0:
58,272,47130,1,0,3:2:0:0:
58,272,47318,2,0,P|58:204|108:145,1,136.000002593994,10|0,1:2|0:2,0:2:0:0:
255,295,47880,5,0,3:2:0:0:
170,357,48068,2,0,P|163:323|156:290,1,68.0000012969971,0|0,1:2|0:2,0:2:0:0:
208,232,48443,1,0,3:2:0:0:
208,232,48630,1,0,3:2:0:0:
337,360,48818,2,0,P|401:341|441:287,1,136.000002593994,10|0,1:2|0:2,0:2:0:0:
255,295,49380,1,0,3:2:0:0:
324,237,49568,2,0,P|333:204|336:170,1,68.0000012969971,4|0,1:3|0:2,0:2:0:0:
49,292,49943,6,0,L|0:306,1,51.999997619629,8|0,0:2|0:2,0:2:0:0:
56,300,50318,1,8,0:2:0:0:
246,152,50505,2,0,L|260:102,1,51.999997619629,4|0,0:3|3:2,0:2:0:0:
184,291,50880,1,8,0:2:0:0:
104,162,51068,6,0,B|70:114|88:116|48:62,1,113.999996955872,4|0,1:2|0:2,0:2:0:0:
60,46,51443,2,0,P|92:36|123:23,1,68.0000012969971,2|0,0:2|0:2,0:2:0:0:
339,183,51818,2,0,P|307:169|275:160,1,68.0000012969971,10|0,0:2|0:2,0:2:0:0:
439,21,52193,2,0,P|395:71|329:77,1,136.000002593994,2|2,1:2|3:2,0:2:0:0:
191,172,52755,5,2,0:2:0:0:
373,258,52943,2,0,P|381:290|388:324,1,68.0000012969971,0|0,1:2|0:2,0:2:0:0:
358,170,53318,1,10,0:2:0:0:
270,287,53505,1,2,0:2:0:0:
130,241,53693,2,0,B|52:255|78:271|1:281,1,136.000002593994,2|0,1:2|3:2,0:2:0:0:
197,111,54255,5,0,0:2:0:0:
197,111,54443,2,0,B|231:114|231:114|261:129,1,68.0000012969971,2|0,1:2|0:2,0:2:0:0:
243,366,54818,2,0,B|212:381|212:381|178:384,1,68.0000012969971,10|0,0:2|0:2,0:2:0:0:
209,190,55193,1,2,1:2:0:0:
249,252,55380,1,0,0:2:0:0:
192,301,55568,1,2,3:2:0:0:
147,241,55755,1,0,1:2:0:0:
71,295,55943,5,2,1:2:0:0:
71,295,56130,1,2,0:2:0:0:
253,372,56318,1,10,0:2:0:0:
345,184,56506,1,8,0:2:0:0:
512,295,56693,6,0,P|480:307|449:321,1,68.0000012969971,2|0,1:2|0:2,0:2:0:0:
198,176,57068,6,0,P|203:108|236:46,1,136.000002593994,2|0,1:2|0:2,0:2:0:0:
291,104,57630,1,2,0:2:0:0:
129,256,57818,2,0,P|99:270|67:281,1,68.0000012969971,10|0,0:2|0:2,0:2:0:0:
62,161,58193,2,0,P|29:149|0:134,1,68.0000012969971,2|0,1:2|0:2,0:2:0:0:
34,350,58568,5,2,3:2:0:0:
133,225,58755,1,2,3:2:0:0:
291,270,58943,2,0,B|334:255|334:255|376:257|376:257|420:237,1,136.000002593994,0|8,1:2|3:2,3:2:0:0:
428,244,59411,1,0,3:2:0:0:
435,251,59505,1,0,3:2:0:0:
282,185,59693,1,2,1:2:0:0:
413,332,59880,1,2,0:2:0:0:
355,137,60068,6,0,P|358:103|364:69,1,68.0000012969971,2|0,3:2|0:2,0:2:0:0:
212,235,60443,2,0,P|206:302|194:369,1,136.000002593994,2|8,1:2|0:2,0:2:0:0:
440,152,61193,2,0,P|466:130|494:111,1,68.0000012969971,2|0,1:2|0:2,0:2:0:0:
278,107,61568,5,2,3:2:0:0:
361,206,61755,1,0,1:2:0:0:
191,142,61943,2,0,B|112:125|132:153|57:131,1,136.000002593994,0|10,1:2|0:2,0:2:0:0:
211,63,62505,1,10,0:2:0:0:
4,213,62693,6,0,L|36:221,1,34.0000006484985,8|0,0:3|0:2,0:2:0:0:
93,272,62880,2,0,L|125:263,1,34.0000006484985,8|0,0:3|0:2,0:2:0:0:
274,384,63068,6,0,P|271:316|239:256,1,136.000002593994,4|0,1:3|3:2,0:2:0:0:
88,97,63630,1,0,3:2:0:0:
164,186,63818,2,0,P|172:119|210:62,1,136.000002593994,2|0,1:2|3:2,0:2:0:0:
93,272,64380,5,0,3:2:0:0:
93,272,64568,2,0,P|62:287|30:297,1,68.0000012969971,4|0,1:3|0:2,0:2:0:0:
205,384,64943,2,0,P|190:354|180:322,1,68.0000012969971,0|0,3:2|0:2,0:2:0:0:
247,163,65318,6,0,P|289:111|353:89,1,136.000002593994,2|0,1:2|3:2,0:2:0:0:
364,169,65880,1,0,3:2:0:0:
364,169,66068,2,0,P|395:182|422:202,2,68.0000012969971,4|0|0,1:3|3:2|3:2,0:2:0:0:
467,38,66818,6,0,P|453:69|433:96,1,68.0000012969971,2|0,1:2|0:2,0:2:0:0:
305,219,67193,1,0,3:2:0:0:
247,163,67380,1,0,3:2:0:0:
271,87,67568,1,0,3:2:0:0:
316,384,69068,6,0,P|326:317|372:268,1,136.000002593994,6|0,1:2|3:2,0:2:0:0:
399,341,69630,1,0,3:2:0:0:
284,232,69818,2,0,B|216:207|225:242|150:212,1,136.000002593994,10|0,0:2|3:2,0:2:0:0:
37,311,70380,5,0,3:2:0:0:
37,311,70568,2,0,P|67:296|99:283,1,68.0000012969971,0|0,1:2|0:2,0:2:0:0:
158,68,70943,2,0,P|171:100|186:131,1,68.0000012969971,0|0,3:2|0:2,0:2:0:0:
264,383,71318,2,0,P|276:316|294:250,1,136.000002593994,10|0,0:2|3:2,0:2:0:0:
359,176,71880,1,0,3:2:0:0:
207,227,72068,6,0,P|181:221|156:213,1,51.999997619629,2|0,1:2|0:2,0:2:0:0:
267,101,72443,2,0,P|272:75|280:50,1,51.999997619629,2|0,1:2|0:2,0:2:0:0:
201,307,72818,1,8,0:2:0:0:
357,188,73005,2,0,P|382:193|407:201,1,51.999997619629,0|0,1:2|3:2,0:2:0:0:
407,201,73380,1,2,0:2:0:0:
359,86,73568,5,10,0:2:0:0:
394,288,73755,1,10,0:2:0:0:
480,263,73943,5,2,0:2:0:0:
480,263,74130,1,8,0:2:0:0:
290,378,74318,1,8,0:2:0:0:
140,233,74505,5,8,0:3:0:0:
305,364,74693,1,12,0:3:0:0:
357,188,74880,5,4,0:3:0:0:
78,353,75068,2,0,B|128:335|128:335|178:338|178:338|225:315,1,155.999992858887,6|0,1:1|0:2,0:2:0:0:
470,317,75818,2,0,P|432:309|396:297,1,75.9999979705811,10|0,0:2|0:2,0:2:0:0:
214,118,76193,2,0,P|221:155|233:191,1,75.9999979705811,2|0,1:2|0:2,0:2:0:0:
290,378,76568,5,2,3:2:0:0:
344,202,76755,1,0,3:2:0:0:
511,142,76943,1,0,1:2:0:0:
511,142,77318,2,0,P|475:132|440:116,1,75.9999979705811,10|0,0:2|0:2,0:2:0:0:
363,61,77693,1,2,3:2:0:0:
433,206,77880,1,0,3:2:0:0:
255,179,78068,6,0,P|201:197|152:227,1,113.999996955872,2|0,1:2|0:2,0:2:0:0:
131,215,78443,2,0,P|114:248|104:285,1,75.9999979705811,0|0,1:2|0:2,0:2:0:0:
344,384,78818,2,0,B|328:303|353:327|331:233,1,151.999995941162,10|0,0:2|1:2,0:2:0:0:
129,195,79380,1,0,0:2:0:0:
260,279,79568,5,2,0:2:0:0:
404,112,79755,1,0,1:2:0:0:
258,192,79943,2,0,B|251:122|276:80|276:80|303:56,1,151.999995941162,2|8,1:2|0:2,0:2:0:0:
312,63,80411,1,0,3:2:0:0:
319,71,80505,1,0,3:2:0:0:
437,213,80693,1,2,0:2:0:0:
309,365,80880,1,10,0:2:0:0:
226,213,81068,6,0,P|171:198|115:191,1,113.999996955872,4|0,1:3|0:2,0:2:0:0:
89,176,81443,2,0,P|73:209|61:246,1,75.9999979705811,2|0,0:2|0:2,0:2:0:0:
335,156,81818,2,0,P|371:143|405:128,1,75.9999979705811,10|0,0:2|0:2,0:2:0:0:
176,0,82193,2,0,P|191:34|203:70,1,75.9999979705811,2|0,1:2|0:2,0:2:0:0:
185,353,82568,2,0,P|196:286|234:229,1,138.000002632141,2|0,0:2|0:2,0:2:0:0:
245,245,82943,2,0,P|269:237|293:227,1,51.999997619629,0|0,1:2|0:2,0:2:0:0:
407,303,83318,5,8,0:2:0:0:
407,303,83693,1,2,3:2:0:0:
283,146,83880,1,0,3:2:0:0:
512,167,84068,6,0,P|446:150|383:125,1,136.000002593994,2|0,1:2|1:2,0:2:0:0:
373,129,84536,1,0,3:2:0:0:
364,134,84630,1,0,3:2:0:0:
267,0,84818,2,0,P|276:32|284:65,1,68.0000012969971,10|0,0:2|0:2,0:2:0:0:
117,197,85193,2,0,P|145:179|176:163,1,68.0000012969971,2|0,1:2|0:2,0:2:0:0:
266,157,85568,5,2,3:2:0:0:
59,77,85755,1,2,1:2:0:0:
137,22,85943,2,0,P|138:55|136:89,1,68.0000012969971,2|0,1:2|3:2,3:2:0:0:
215,239,86318,5,8,0:2:0:0:
358,141,86505,1,4,0:3:0:0:
475,323,86693,5,8,0:2:0:0:
298,232,86880,1,8,0:2:0:0:
124,384,87068,6,0,P|182:333|256:312,1,155.999992858887,4|0,1:3|0:2,0:2:0:0:
440,199,87818,2,0,P|474:215|511:227,1,75.9999979705811,10|0,0:2|0:2,0:2:0:0:
412,384,88193,2,0,P|394:350|381:314,1,75.9999979705811,2|0,1:2|0:2,0:2:0:0:
215,239,88568,5,2,3:2:0:0:
288,83,88755,1,0,3:2:0:0:
452,73,88943,1,0,1:2:0:0:
452,73,89318,2,0,P|438:37|432:0,1,75.9999979705811,10|0,0:2|0:2,0:2:0:0:
329,169,89693,2,0,P|315:203|310:241,1,75.9999979705811,2|0,0:2|0:2,0:2:0:0:
110,91,90068,6,0,P|154:56|210:48,1,113.999996955872,0|0,1:2|0:2,0:2:0:0:
226,32,90443,2,0,P|261:45|297:56,1,75.9999979705811,2|0,1:2|0:2,0:2:0:0:
187,318,90818,2,0,P|147:255|157:181,1,151.999995941162,10|0,0:2|1:2,0:2:0:0:
157,181,91568,1,2,3:2:0:0:
312,255,91755,1,0,1:2:0:0:
436,152,91943,2,0,P|426:95|419:39,1,113.999996955872,2|0,1:2|0:2,0:2:0:0:
492,15,92318,1,10,0:2:0:0:
492,15,92505,1,2,0:2:0:0:
341,102,92693,2,0,P|323:95|304:90,1,37.9999989852906,4|0,3:3|3:2,0:2:0:0:
512,95,92880,5,8,0:2:0:0:
297,14,93068,2,0,P|241:24|197:59,1,113.999996955872,4|0,1:3|0:2,0:2:0:0:
170,54,93443,2,0,P|164:91|155:128,1,75.9999979705811,2|0,0:2|0:2,0:2:0:0:
0,91,93818,2,0,P|35:77|71:66,1,75.9999979705811,10|0,0:2|0:2,0:2:0:0:
112,221,94193,2,0,P|82:197|55:171,1,75.9999979705811,2|0,1:2|0:2,0:2:0:0:
264,156,94568,5,2,3:2:0:0:
264,156,94755,1,0,3:2:0:0:
140,319,94943,2,0,P|146:244|188:181,1,151.999995941162,2|8,1:2|0:2,0:2:0:0:
200,104,95505,1,2,0:2:0:0:
219,302,95693,2,0,P|253:283|289:271,1,75.9999979705811,2|0,3:2|3:2,0:2:0:0:
491,166,96068,6,0,B|406:136|423:175|342:141,1,151.999995941162,2|2,1:2|1:2,0:2:0:0:
201,102,96630,1,2,0:2:0:0:
382,76,96818,1,10,0:2:0:0:
129,134,97005,1,2,0:2:0:0:
303,238,97193,5,2,1:2:0:0:
303,238,97286,1,0,3:2:0:0:
303,238,97380,1,0,3:2:0:0:
220,80,97568,2,0,P|225:42|230:4,1,75.9999979705811,2|0,3:2|1:2,0:2:0:0:
17,277,97943,2,0,P|73:227|146:208,1,151.999995941162,2|8,1:2|0:2,0:2:0:0:
153,214,98411,1,0,3:2:0:0:
158,219,98505,1,0,3:2:0:0:
26,127,98693,2,0,L|6:94,1,37.9999989852906,4|0,3:3|3:2,0:2:0:0:
77,59,98880,2,0,L|86:22,1,37.9999989852906,4|0,3:3|3:2,0:2:0:0:
231,82,99068,6,0,B|278:67|278:67|331:70|331:70|378:54,1,151.999995941162,2|2,1:2|1:2,0:2:0:0:
299,248,99630,1,2,0:2:0:0:
425,203,99818,1,8,0:2:0:0:
425,203,99911,1,0,1:2:0:0:
425,203,100005,1,8,0:2:0:0:
273,367,100193,2,0,P|235:359|198:354,1,75.9999979705811,2|0,1:2|0:2,0:2:0:0:
222,164,100568,5,2,3:2:0:0:
349,322,100755,1,2,1:2:0:0:
98,236,100943,2,0,P|111:161|120:85,1,151.999995941162,0|8,1:2|0:2,0:2:0:0:
120,85,101693,1,8,0:2:0:0:
233,0,101880,1,8,0:2:0:0:
383,8,102068,6,0,P|401:61|426:113,1,113.999996955872,6|0,1:1|0:2,0:2:0:0:
426,137,102443,2,0,P|390:146|355:162,1,75.9999979705811,2|0,0:2|0:2,0:2:0:0:
480,210,102818,2,0,P|461:242|447:278,1,75.9999979705811,10|0,0:2|3:2,0:2:0:0:
452,284,103099,1,0,3:2:0:0:
457,289,103193,1,0,3:2:0:0:
432,47,103380,2,0,P|415:37|398:29,1,37.9999989852906,4|4,3:3|3:3,0:2:0:0:
268,188,103568,6,0,B|183:168|205:198|118:175,2,151.999995941162,2|2|10,1:2|1:2|0:2,0:2:0:0:
389,360,104568,1,4,3:3:0:0:
319,326,104693,2,0,P|327:289|330:251,1,75.9999979705811,2|0,3:2|0:2,0:2:0:0:
156,257,105068,5,2,1:2:0:0:
269,384,105255,1,2,0:2:0:0:
429,289,105443,2,0,P|418:252|403:217,1,75.9999979705811,2|0,0:2|0:2,0:2:0:0:
259,18,105818,2,0,P|206:71|197:145,1,151.999995941162,8|0,0:2|0:2,0:2:0:0:
128,34,106380,5,4,3:3:0:0:
128,34,106474,1,4,3:3:0:0:
128,34,106568,1,2,1:2:0:0:
333,111,106755,1,2,0:2:0:0:
61,264,106943,2,0,B|103:228|164:220|164:220|202:224,1,151.999995941162,2|8,1:2|0:2,0:2:0:0:
423,125,107568,1,4,3:3:0:0:
383,188,107693,2,0,P|368:223|360:260,1,75.9999979705811,0|0,3:2|0:2,0:2:0:0:
168,371,108068,6,0,P|222:356|266:316,1,113.999996955872,6|0,1:2|0:2,0:2:0:0:
259,286,108443,2,0,P|250:248|236:214,1,75.9999979705811,2|0,0:2|0:2,0:2:0:0:
343,363,108818,2,0,P|363:331|377:295,1,75.9999979705811,10|0,0:2|3:2,0:2:0:0:
371,291,109099,1,0,3:2:0:0:
364,286,109193,1,2,3:2:0:0:
152,295,109380,2,0,P|136:284|119:275,1,37.9999989852906,4|4,3:3|3:3,3:2:0:0:
0,272,109568,6,0,P|45:213|118:201,2,151.999995941162,2|2|10,1:2|1:2|3:2,3:2:0:0:
113,125,110568,1,4,3:3:0:0:
184,107,110693,2,0,P|218:122|244:149,1,75.9999979705811,2|0,3:2|0:2,0:2:0:0:
119,275,111068,5,2,1:2:0:0:
50,84,111255,1,2,0:2:0:0:
270,232,111443,2,0,P|338:200|382:140,1,151.999995941162,2|8,0:2|0:2,0:2:0:0:
203,291,112005,1,8,0:2:0:0:
303,109,112193,2,0,P|311:72|312:34,1,75.9999979705811,0|0,1:2|0:2,0:2:0:0:
194,214,112568,5,2,1:2:0:0:
351,360,112755,1,2,0:2:0:0:
512,182,112943,2,0,B|464:169|464:169|415:180|415:180|363:169,1,151.999995941162,2|8,1:2|0:2,0:2:0:0:
203,361,113505,1,8,0:2:0:0:
302,233,113693,2,0,L|311:289,1,55.9999982910157,0|0,1:2|0:2,0:2:0:0:
0,181,123068,6,0,P|47:168|94:155,1,97.9999970092774,2|0,0:2|0:2,0:2:0:0:
94,155,123818,6,0,B|97:165|97:165|97:170|97:170|101:182,1,27.9999991455078,2|0,0:2|0:2,0:2:0:0:
121,226,124380,5,2,0:2:0:0:
141,190,124568,5,2,0:2:0:0:
205,217,124755,5,2,0:2:0:0:
232,146,124943,5,2,0:2:0:0:
340,230,125130,5,2,0:2:0:0:
415,48,125318,5,2,0:2:0:0:
415,48,125693,2,0,L|417:34,2,13.9999995727539,2|0|0,3:2|3:2|3:2,0:2:0:0:
458,112,126068,2,0,L|447:232,1,120.000004577637,10|0,0:2|0:2,0:2:0:0:
388,297,126630,1,0,0:2:0:0:
387,297,126818,2,0,P|357:291|328:283,1,60.0000022888184,8|0,0:1|0:2,0:2:0:0:
232,146,127193,2,0,P|242:174|249:203,1,60.0000022888184,10|0,0:2|0:2,0:2:0:0:
249,203,127474,5,0,0:2:0:0:
249,203,127568,1,2,0:2:0:0:
290,308,127755,1,0,0:2:0:0:
214,384,127943,1,2,0:2:0:0:
62,241,128318,6,0,P|63:211|67:181,1,60.0000022888184,8|0,0:1|0:2,0:2:0:0:
35,110,128693,1,10,0:2:0:0:
155,176,128880,1,0,0:2:0:0:
256,74,129068,2,0,L|315:60,1,60.0000022888184,2|0,3:2|0:2,0:2:0:0:
376,145,129443,2,0,L|435:159,1,60.0000022888184,10|0,0:2|0:2,0:2:0:0:
512,82,129818,1,8,0:1:0:0:
323,240,130193,5,10,0:2:0:0:
323,240,130380,1,0,0:2:0:0:
376,299,130568,2,0,L|385:358,1,60.0000022888184,2|0,0:2|0:2,0:2:0:0:
263,175,130943,2,0,L|272:115,1,60.0000022888184,10|0,0:2|0:2,0:2:0:0:
262,92,131318,5,8,0:1:0:0:
251,97,131505,1,2,0:2:0:0:
186,61,131693,1,2,0:2:0:0:
116,136,131880,1,8,0:2:0:0:
55,0,132068,6,0,P|49:35|37:69,1,71.9999978027344,10|0,3:2|0:2,0:2:0:0:
184,192,132630,1,0,0:2:0:0:
184,192,132818,2,0,P|190:227|202:261,1,71.9999978027344,8|10,0:1|0:2,0:2:0:0:
157,327,133380,1,0,0:2:0:0:
157,327,133568,2,0,P|129:316|100:309,1,60.0000022888184,2|0,3:2|0:2,0:2:0:0:
298,215,133943,2,0,P|287:243|280:272,1,60.0000022888184,2|0,0:2|0:2,0:2:0:0:
116,136,134318,2,0,P|160:96|218:84,1,120.000004577637,8|10,0:1|0:2,0:2:0:0:
463,117,134880,5,0,0:2:0:0:
463,117,135068,2,0,P|419:157|361:169,1,120.000004577637,2|8,0:2|0:2,0:2:0:0:
300,0,135630,1,0,0:2:0:0:
300,0,135818,2,0,P|292:29|288:58,1,60.0000022888184,8|0,0:1|0:2,0:2:0:0:
129,156,136193,2,0,P|158:148|187:144,1,60.0000022888184,10|0,0:2|0:2,0:2:0:0:
349,157,136568,5,2,3:2:0:0:
244,303,136755,1,2,0:2:0:0:
262,212,136943,1,10,0:2:0:0:
262,212,137318,5,8,0:2:0:0:
262,212,137693,5,8,0:2:0:0:
361,281,137880,1,8,0:2:0:0:
482,201,138068,5,2,3:2:0:0:
313,384,138255,1,8,0:2:0:0:
178,188,138443,2,0,B|128:173|128:173|93:178|93:178|44:165,1,138.000002632141,4|0,1:2|0:2,0:2:0:0:
54,182,138818,2,0,P|69:148|80:111,1,75.9999979705811,10|0,0:2|0:2,0:2:0:0:
202,308,139193,2,0,P|165:318|130:333,1,75.9999979705811,2|0,1:2|0:2,0:2:0:0:
51,334,139568,5,2,3:1:0:0:
181,179,139755,1,0,3:2:0:0:
372,188,139943,1,0,1:2:0:0:
372,188,140318,2,0,P|359:153|351:116,1,75.9999979705811,10|0,0:2|0:2,0:2:0:0:
472,162,140693,5,2,1:1:0:0:
327,266,140880,1,0,3:2:0:0:
273,102,141068,2,0,P|281:46|320:6,1,113.999996955872,2|0,1:2|0:2,0:2:0:0:
355,27,141443,2,0,P|392:19|427:5,1,75.9999979705811,2|0,1:2|0:2,0:2:0:0:
309,237,141818,2,0,P|285:309|277:384,1,151.999995941162,10|0,0:2|1:2,0:2:0:0:
276,384,142380,1,0,3:2:0:0:
360,183,142568,5,2,3:2:0:0:
128,308,142755,1,0,1:2:0:0:
163,68,142943,1,0,1:2:0:0:
163,68,143318,6,0,L|172:102,1,35.9999989013672,2|0,0:2|0:2,0:2:0:0:
235,153,143693,1,2,0:2:0:0:
235,153,143880,1,2,0:2:0:0:
64,131,144068,2,0,L|113:153,1,53.9999983520508,2|0,3:1|0:2,0:2:0:0:
116,186,144443,2,0,L|93:235,1,53.9999983520508,4|0,1:3|0:2,0:2:0:0:
29,325,144818,6,0,B|101:295|91:324|161:291,1,138.000002632141,14|0,0:2|0:2,0:2:0:0:
165,280,145193,2,0,P|202:285|238:296,1,75.9999979705811,2|0,1:2|0:2,0:2:0:0:
322,375,145568,5,2,3:1:0:0:
354,199,145755,1,0,3:2:0:0:
220,103,145943,1,0,1:2:0:0:
220,103,146318,2,0,P|229:67|234:29,1,75.9999979705811,8|2,0:2|0:2,0:2:0:0:
120,101,146693,1,2,1:2:0:0:
232,257,146880,1,0,3:2:0:0:
18,232,147068,6,0,B|64:211|64:211|113:212|113:212|161:192,1,151.999995941162,2|2,1:2|1:2,0:2:0:0:
158,276,147630,1,2,0:2:0:0:
319,136,147818,2,0,P|355:147|392:155,1,75.9999979705811,10|0,0:2|0:2,0:2:0:0:
234,29,148193,1,2,1:2:0:0:
343,235,148380,5,0,3:2:0:0:
343,235,148474,1,0,3:2:0:0:
343,235,148568,1,2,3:1:0:0:
467,116,148755,1,2,1:2:0:0:
251,182,148943,2,0,P|176:182|116:138,1,151.999995941162,0|8,1:2|0:2,0:2:0:0:
295,333,149505,1,2,0:2:0:0:
307,117,149693,2,0,P|311:79|330:46,1,75.9999979705811,2|0,0:2|0:2,0:2:0:0:
200,291,150068,6,0,P|127:313|67:359,1,151.999995941162,2|2,1:2|1:2,0:2:0:0:
295,288,150630,1,2,0:2:0:0:
64,228,150818,1,10,0:2:0:0:
228,81,151005,1,8,0:2:0:0:
130,153,151193,2,0,P|133:115|143:78,1,75.9999979705811,2|0,1:2|0:2,0:2:0:0:
82,32,151568,5,2,1:1:0:0:
192,208,151755,2,0,P|252:163|323:134,1,151.999995941162,8|0,0:2|1:2,0:2:0:0:
475,270,152318,5,6,0:3:0:0:
345,217,152505,1,6,0:3:0:0:
461,131,152693,5,10,0:3:0:0:
359,359,152880,1,10,0:3:0:0:
216,137,153068,6,0,B|134:109|151:146|63:113,1,155.999992858887,6|0,1:1|0:2,0:2:0:0:
249,264,153818,2,0,P|259:300|264:338,1,75.9999979705811,10|0,0:2|0:2,0:2:0:0:
340,85,154193,2,0,P|377:79|414:70,1,75.9999979705811,2|4,0:2|3:3,0:2:0:0:
420,74,154474,5,4,3:3:0:0:
424,80,154568,2,0,P|413:116|409:154,1,75.9999979705811,2|0,1:2|0:2,0:2:0:0:
125,329,154943,2,0,P|138:255|196:209,1,151.999995941162,0|8,1:2|0:2,0:2:0:0:
336,313,155568,5,4,3:3:0:0:
409,255,155693,2,0,P|371:247|334:241,1,75.9999979705811,2|0,3:2|0:2,0:2:0:0:
129,29,156068,6,0,P|198:53|233:119,1,151.999995941162,2|2,1:2|0:2,0:2:0:0:
97,274,156630,1,2,0:2:0:0:
156,200,156818,2,0,P|153:162|136:129,1,75.9999979705811,10|0,0:2|0:2,0:2:0:0:
305,39,157193,1,2,0:2:0:0:
262,282,157380,5,4,3:3:0:0:
262,282,157474,1,4,3:3:0:0:
262,281,157568,2,0,P|297:266|333:257,1,75.9999979705811,2|0,1:2|0:2,0:2:0:0:
512,187,157943,2,0,P|454:139|380:133,1,151.999995941162,2|8,1:2|0:2,0:2:0:0:
207,218,158568,5,4,0:3:0:0:
262,281,158693,2,0,P|276:245|285:209,1,75.9999979705811,2|0,3:2|0:2,0:2:0:0:
250,0,159068,6,0,P|220:69|209:144,1,151.999995941162,2|2,1:2|0:2,0:2:0:0:
471,109,159630,1,2,0:2:0:0:
364,286,159818,2,0,P|374:249|377:211,1,75.9999979705811,10|0,0:2|0:2,0:2:0:0:
156,210,160193,2,0,P|118:212|81:223,1,75.9999979705811,2|4,0:2|3:3,0:2:0:0:
74,220,160474,5,4,3:3:0:0:
67,216,160568,2,0,P|73:253|75:291,1,75.9999979705811,2|0,1:2|0:2,0:2:0:0:
150,384,160943,2,0,P|152:346|158:308,1,75.9999979705811,2|0,1:2|0:2,0:2:0:0:
0,139,161318,2,0,P|50:134|97:115,1,101.333330627441,8|4,0:2|3:3,0:2:0:0:
142,54,161693,2,0,P|170:80|183:115,1,75.9999979705811,2|0,3:2|0:2,0:2:0:0:
238,357,162068,6,0,P|284:298|271:223,1,151.999995941162,2|2,1:2|0:2,0:2:0:0:
200,195,162630,1,2,0:2:0:0:
308,103,162818,2,0,P|345:94|380:80,1,75.9999979705811,10|0,0:2|0:2,0:2:0:0:
463,173,163193,2,0,P|448:208|440:245,1,75.9999979705811,2|4,0:2|3:3,0:2:0:0:
446,250,163474,5,4,3:3:0:0:
451,255,163568,1,2,1:2:0:0:
285,330,163755,1,2,0:2:0:0:
206,187,163943,2,0,B|159:175|159:175|107:185|107:185|58:173,1,151.999995941162,2|8,1:2|0:2,0:2:0:0:
55,165,164411,2,0,L|60:202,1,37.9999989852906,2|0,3:1|3:2,0:2:0:0:
125,257,164599,1,2,1:1:0:0:
118,261,164693,2,0,P|115:298|107:335,1,75.9999979705811,2|0,3:2|0:2,0:2:0:0:
229,110,165068,6,0,P|304:101|373:70,1,151.999995941162,2|2,1:2|0:2,0:2:0:0:
119,92,165630,1,2,0:2:0:0:
300,192,165818,2,0,B|325:221|325:221|336:256,1,75.9999979705811,10|0,0:2|0:2,0:2:0:0:
202,384,166193,2,0,B|191:347|191:347|196:309,1,75.9999979705811,2|4,3:2|3:3,0:2:0:0:
204,308,166474,5,4,3:3:0:0:
211,306,166568,2,0,P|248:313|284:324,1,75.9999979705811,2|0,1:2|0:2,0:2:0:0:
512,117,166943,2,0,P|439:140|365:154,1,151.999995941162,0|8,1:2|0:2,0:2:0:0:
160,98,167568,5,4,3:3:0:0:
216,23,167693,2,0,P|225:60|233:97,1,75.9999979705811,2|0,3:2|0:2,0:2:0:0:
102,347,168068,6,0,P|82:273|66:199,1,151.999995941162,2|2,1:2|0:2,0:2:0:0:
216,23,168630,1,2,0:2:0:0:
263,184,168818,2,0,P|225:177|189:167,1,75.9999979705811,10|0,0:2|0:2,0:2:0:0:
134,79,169193,1,2,0:2:0:0:
219,276,169380,5,4,3:3:0:0:
219,276,169474,1,4,3:3:0:0:
219,276,169568,2,0,P|229:312|236:349,1,75.9999979705811,2|0,1:2|0:2,0:2:0:0:
373,135,169943,2,0,P|408:121|443:105,1,75.9999979705811,2|0,1:2|0:2,0:2:0:0:
134,237,170318,2,0,P|84:229|48:195,1,101.333330627441,8|4,0:2|3:3,0:2:0:0:
25,198,170693,2,0,P|29:160|30:122,1,75.9999979705811,2|0,3:2|0:2,0:2:0:0:
316,287,171068,6,0,B|395:252|388:290|462:250,1,151.999995941162,2|0,1:2|0:2,0:2:0:0:
344,358,171630,1,2,0:2:0:0:
221,256,171818,1,10,0:2:0:0:
328,156,172005,5,2,0:2:0:0:
248,335,172193,1,2,0:2:0:0:
64,259,172380,5,4,3:3:0:0:
64,259,172474,1,4,3:3:0:0:
64,259,172568,2,0,B|95:238|95:238|133:236,1,75.9999979705811,2|0,3:2|3:2,3:2:0:0:
272,26,172943,2,0,P|209:64|196:137,1,151.999995941162,2|8,1:2|0:2,0:2:0:0:
50,334,173568,1,4,3:3:0:0:
150,384,173693,2,0,P|139:346|122:313,1,75.9999979705811,2|0,3:2|0:2,0:2:0:0:
316,166,174068,5,2,1:2:0:0:
209,216,174255,2,0,P|245:224|279:241,1,75.9999979705811,8|0,0:2|0:2,0:2:0:0:
398,175,174630,1,0,1:2:0:0:
252,384,174818,2,0,P|247:346|237:309,1,75.9999979705811,8|8,0:2|0:3,0:2:0:0:
406,101,175193,2,0,P|408:138|418:175,1,75.9999979705811,2|4,3:2|3:3,3:2:0:0:
454,355,175568,5,8,3:2:0:0:
358,243,175755,1,8,3:3:0:0:
252,384,175943,5,4,0:3:0:0:
324,157,176130,1,8,0:3:0:0:
64,259,176318,6,8,L|17:278,2,50.6666653137207,8|8|8,0:3|0:3|0:3,0:3:0:0:
114,184,176693,5,12,0:3:0:0:
133,188,176818,5,12,0:3:0:0:
140,206,176943,5,12,0:3:0:0:
159,211,177068,5,2,0:2:0:0:
