osu file format v14

[General]
AudioFilename: KUMAMIKO DANCINGTV size.mp3
AudioLeadIn: 0
PreviewTime: 64239
Countdown: 0
SampleSet: Soft
StackLeniency: 0.7
Mode: 0
LetterboxInBreaks: 0
WidescreenStoryboard: 1

[Editor]
DistanceSpacing: 1.5
BeatDivisor: 4
GridSize: 4
TimelineZoom: 1.7

[Metadata]
Title:KUMAMIKO DANCING
TitleUnicode:KUMAMIKO DANCING
Artist:Hioka Natsumi & Yasumoto Hiroki feat.Kumaide-mura no Minasan
ArtistUnicode:日岡なつみ&安元洋貴 feat.熊出村のみなさん
Creator:09kami
Version:wkyik's Insane
Source:くまみこ
Tags:kumamiko anime ending TV size Girl Meets Bear Lily Bread Narcissu TT Mouse kawaiwkyik wkyik rizia
BeatmapID:1024212
BeatmapSetID:440388

[Difficulty]
HPDrainRate:7
CircleSize:4
OverallDifficulty:7
ApproachRate:9
SliderMultiplier:2
SliderTickRate:1

[Events]
//Background and Video events
0,0,"1.jpg",0,0
//Break Periods
//Storyboard Layer 0 (Background)
//Storyboard Layer 1 (Fail)
//Storyboard Layer 2 (Pass)
//Storyboard Layer 3 (Foreground)
//Storyboard Sound Samples

[TimingPoints]
330,363.636363636364,4,2,1,50,1,0
4602,-100,4,3,1,50,0,0
4784,-100,4,3,9,50,0,0
4966,-100,4,3,3,50,0,0
5148,-100,4,3,4,50,0,0
5330,-100,4,3,5,60,0,0
5511,-100,4,3,6,60,0,0
5693,-100,4,3,7,60,0,0
5875,-100,4,3,8,60,0,0
6148,-100,4,2,2,45,0,0
12239,-100,4,2,2,20,0,0
12330,-100,4,2,2,45,0,0
16239,-100,4,3,1,60,0,0
16420,-100,4,3,9,60,0,0
16602,-100,4,3,3,60,0,0
16784,-100,4,3,4,60,0,0
16966,-100,4,3,5,60,0,0
17148,-100,4,3,6,60,0,0
17330,-100,4,3,7,60,0,0
17511,-100,4,3,8,60,0,0
17784,-100,4,1,2,20,0,0
27875,-100,4,3,1,45,0,0
28057,-100,4,3,9,45,0,0
28239,-100,4,3,3,45,0,0
28420,-100,4,3,4,45,0,0
28602,-100,4,3,5,45,0,0
28784,-100,4,3,6,70,0,0
28966,-100,4,3,7,70,0,0
29148,-100,4,3,8,70,0,0
29420,-100,4,2,2,80,0,0
35148,-100,4,2,2,80,0,0
40966,-100,4,2,2,80,0,0
45420,-100,4,2,2,80,0,0
51148,-100,4,3,1,80,0,0
51239,-100,4,3,1,80,0,0
51330,-100,4,3,9,80,0,0
51511,-100,4,3,3,80,0,0
51693,-100,4,3,4,80,0,0
51875,-100,4,3,5,80,0,0
51966,-100,4,3,5,80,0,0
52057,-100,4,3,6,80,0,0
52239,-100,4,3,7,80,0,0
52420,-100,4,3,8,80,0,0
52693,-100,4,2,2,80,0,0
64330,-100,4,2,2,80,0,1
84693,-100,4,2,2,80,0,0
87966,-100,4,2,2,60,0,0
88148,-100,4,2,2,80,0,0
88693,-100,4,2,2,10,0,0

[Colours]
Combo1 : 255,53,154
Combo2 : 132,120,74
Combo3 : 72,166,227
Combo4 : 249,209,74

[HitObjects]
256,192,330,12,8,4330,0:0:0:0:
197,288,4693,5,2,0:0:0:0:
101,257,4875,1,2,0:0:0:0:
101,157,5057,1,2,0:0:0:0:
197,126,5239,1,2,0:0:0:0:
255,207,5420,5,2,0:0:0:0:
351,178,5602,1,2,0:0:0:0:
351,77,5784,1,2,0:0:0:0:
258,45,5966,1,2,0:0:0:0:
197,126,6148,5,8,0:0:0:0:
255,207,6329,1,0,0:0:0:0:
200,292,6511,2,0,L|72:308,1,100,0|8,3:0|0:0,0:0:0:0:
312,292,6875,2,0,L|440:308,1,100,8|0,0:0|0:0,0:0:0:0:
255,207,7239,1,0,3:0:0:0:
328,140,7420,6,0,P|384:152|440:20,1,200,8|8,0:0|0:0,0:0:0:0:
256,60,7966,1,0,3:0:0:0:
255,207,8148,1,8,0:0:0:0:
184,140,8330,2,0,P|128:152|72:20,1,200,8|0,0:0|3:0,0:0:0:0:
304,296,9057,6,0,P|256:308|208:296,1,100,8|0,0:0|0:0,0:0:0:0:
256,108,9420,1,0,3:0:0:0:
255,207,9602,1,8,0:0:0:0:
255,207,9784,1,8,0:0:0:0:
255,207,10148,1,0,3:0:0:0:
136,164,10330,1,8,0:0:0:0:
140,352,10511,5,0,0:0:0:0:
176,240,10693,1,8,0:0:0:0:
372,352,10875,1,0,3:0:0:0:
336,240,11057,1,8,0:0:0:0:
204,312,11239,2,0,L|308:312,1,100,8|0,0:0|0:0,0:0:0:0:
512,240,11602,2,0,L|412:240,1,100,0|0,3:0|0:0,0:0:0:0:
276,192,11966,6,0,P|264:144|376:64,2,200,8|0|8,0:0|3:0|0:0,0:0:0:0:
472,352,13057,1,0,3:0:0:0:
460,244,13239,2,0,B|404:256|380:300|380:300|360:352|272:356,1,200,8|8,0:0|0:0,0:0:0:0:
212,264,13784,1,0,3:0:0:0:
300,264,13966,1,8,0:0:0:0:
52,244,14148,2,0,B|108:256|132:300|132:300|152:352|240:356,1,200,8|0,0:0|3:0,0:0:0:0:
492,128,14875,5,8,0:0:0:0:
348,181,15057,1,0,0:0:0:0:
393,83,15239,1,0,3:0:0:0:
446,226,15420,1,8,0:0:0:0:
256,156,15602,1,8,0:0:0:0:
256,156,15966,5,0,3:0:0:0:
66,226,16148,1,8,0:0:0:0:
119,83,16329,1,2,0:0:0:0:
164,181,16511,1,2,0:0:0:0:
20,128,16693,5,2,0:0:0:0:
188,88,16875,1,2,0:0:0:0:
412,240,17057,5,2,0:0:0:0:
210,288,17239,1,2,0:0:0:0:
66,226,17420,5,2,0:0:0:0:
308,168,17602,1,2,0:0:0:0:
172,368,17784,6,0,P|128:320|188:200,1,200,6|2,0:1|3:1,0:0:0:0:
256,288,18330,1,0,0:0:0:0:
340,368,18511,2,0,L|444:360,1,100,6|8,0:0|0:0,0:0:0:0:
256,288,18875,1,8,3:1:0:0:
343,214,19057,6,0,P|256:171|169:213,1,200,4|12,0:0|0:0,0:0:0:0:
48,196,19602,2,0,P|57:260|86:310,1,100,2|12,3:1|0:0,0:0:0:0:
128,104,19966,2,0,P|119:40|90:-10,1,100,6|0,0:0|0:0,0:0:0:0:
12,88,20330,1,0,3:1:0:0:
169,213,20511,1,0,0:0:0:0:
228,144,20693,6,0,L|340:136,1,100,6|8,0:0|0:0,0:0:0:0:
284,240,21057,2,0,L|172:248,1,100,2|0,3:1|0:0,0:0:0:0:
8,260,21420,1,6,0:0:0:0:
88,180,21602,1,8,0:0:0:0:
164,336,21784,1,8,3:1:0:0:
96,272,21966,2,0,P|72:316|76:372,1,100,12|0,0:0|0:0,0:0:0:0:
188,236,22330,5,12,0:0:0:0:
348,336,22511,1,2,3:1:0:0:
324,236,22693,1,12,0:0:0:0:
164,336,22875,2,0,P|116:312|96:264,1,100,6|0,0:0|0:0,0:0:0:0:
415,271,23239,2,0,P|392:315|348:336,1,100,0|0,3:1|0:0,0:0:0:0:
340,136,23602,6,0,L|448:148,1,100,6|8,0:0|0:0,0:0:0:0:
439,147,23966,1,2,3:1:0:0:
400,56,24148,1,12,0:0:0:0:
280,220,24330,1,6,0:0:0:0:
378,231,24512,1,8,0:0:0:0:
296,40,24693,1,8,3:1:0:0:
237,119,24875,1,4,0:0:0:0:
237,119,25239,5,12,0:0:0:0:
439,147,25420,1,6,3:1:0:0:
296,40,25602,1,12,0:0:0:0:
280,220,25784,1,2,0:0:0:0:
439,147,25966,1,0,0:0:0:0:
400,56,26148,1,2,3:1:0:0:
237,119,26330,1,0,0:0:0:0:
378,231,26511,5,8,0:0:0:0:
208,180,27966,5,2,0:0:0:0:
304,204,28148,1,2,0:0:0:0:
200,138,28330,5,2,0:0:0:0:
311,244,28512,1,2,0:0:0:0:
254,83,28693,5,2,0:0:0:0:
258,299,28875,1,2,0:0:0:0:
368,124,29057,5,2,0:0:0:0:
146,259,29239,1,2,0:0:0:0:
353,319,29420,6,0,P|307:299|258:298,1,100,8|0,0:0|0:0,0:0:0:0:
160,348,29784,1,0,3:0:0:0:
451,340,29966,6,0,P|444:290|421:246,2,100,8|8|0,0:0|0:0|0:0,0:0:0:0:
353,319,30511,1,0,3:0:0:0:
483,168,30693,1,0,0:0:0:0:
391,153,30875,2,0,P|397:202|420:246,2,100,8|0|0,0:0|0:0|3:0,0:0:0:0:
304,188,31420,6,0,P|248:192|196:164,1,100,8|0,0:0|0:0,0:0:0:0:
272,88,31784,1,0,0:0:0:0:
336,272,31966,2,0,P|264:280|132:228,1,200,0|8,3:0|0:0,0:0:0:0:
145,238,32511,1,0,0:0:0:0:
92,76,32693,6,0,B|112:124|112:124|92:180,1,100,0|8,3:0|0:0,0:0:0:0:
64,340,33057,2,0,B|44:292|44:292|64:236,1,100,8|0,0:0|0:0,0:0:0:0:
95,169,33420,1,0,3:0:0:0:
156,332,33602,6,0,L|380:308,1,200,8|8,0:0|0:0,0:0:0:0:
145,238,34148,1,0,3:0:0:0:
256,284,34330,1,8,0:0:0:0:
136,144,34511,5,2,0:0:0:0:
354,310,34693,1,2,0:0:0:0:
128,48,34875,1,2,3:0:0:0:
284,380,35057,1,2,0:0:0:0:
88,359,35239,6,0,L|188:356,1,100,8|0,0:0|0:0,0:0:0:0:
256,216,35602,1,0,3:0:0:0:
164,268,35784,2,0,P|152:220|160:156,1,100,8|8,0:0|0:0,0:0:0:0:
356,170,36148,2,0,P|360:219|348:268,1,100,0|0,0:0|3:0,0:0:0:0:
256,96,36511,1,0,0:0:0:0:
84,104,36693,5,8,0:0:0:0:
256,12,36875,1,0,0:0:0:0:
428,104,37057,1,0,3:0:0:0:
256,196,37239,2,0,L|256:96,1,100,8|8,0:0|0:0,0:0:0:0:
380,264,37602,1,0,0:0:0:0:
132,264,37784,1,0,3:0:0:0:
256,196,37966,1,0,0:0:0:0:
256,360,38148,5,8,0:0:0:0:
256,196,38330,1,0,0:0:0:0:
256,360,38511,2,0,L|132:356,1,100,0|8,3:0|0:0,0:0:0:0:
380,264,38875,2,0,L|504:268,1,100,8|0,0:0|0:0,0:0:0:0:
224,192,39239,1,0,3:0:0:0:
384,84,39420,2,0,P|383:133|360:177,1,100,8|2,0:0|0:0,0:0:0:0:
264,104,39784,1,2,0:0:0:0:
248,308,39966,5,2,0:0:0:0:
359,177,40148,1,2,0:0:0:0:
244,60,40330,1,2,0:0:0:0:
276,232,40511,1,2,0:0:0:0:
104,188,40693,1,2,0:0:0:0:
376,256,40875,1,2,0:0:0:0:
44,324,41057,6,0,L|144:312,1,100,8|0,0:0|0:0,0:0:0:0:
280,292,41420,1,0,3:0:0:0:
143,312,41602,1,8,0:0:0:0:
192,192,41784,1,8,0:0:0:0:
300,312,41966,1,0,0:0:0:0:
88,228,42148,1,0,3:0:0:0:
264,100,42330,1,0,0:0:0:0:
143,312,42511,6,0,P|92:328|40:316,1,100,8|0,0:0|0:0,0:0:0:0:
324,108,42875,1,0,3:0:0:0:
176,212,43057,1,8,0:0:0:0:
336,212,43239,1,8,0:0:0:0:
188,108,43420,1,0,0:0:0:0:
352,16,43602,1,0,3:0:0:0:
256,212,43784,1,0,0:0:0:0:
108,96,43966,6,0,L|-4:84,1,100,8|0,0:0|0:0,0:0:0:0:
0,260,44330,1,0,3:0:0:0:
180,264,44511,2,0,B|200:216|200:216|184:152,1,100,8|0,0:0|0:0,0:0:0:0:
140,368,44875,2,0,L|252:356,1,100,0|0,0:0|3:0,0:0:0:0:
368,304,45239,1,8,0:0:0:0:
200,280,45420,5,0,0:0:0:0:
168,136,45602,1,0,0:0:0:0:
312,104,45784,1,0,3:0:0:0:
344,248,45966,1,8,0:0:0:0:
192,69,46148,5,8,0:0:0:0:
133,254,46330,1,0,0:0:0:0:
318,313,46512,1,0,3:0:0:0:
377,128,46694,1,0,0:0:0:0:
176,172,46875,5,8,0:0:0:0:
404,348,47239,1,8,0:0:0:0:
108,348,47602,1,8,0:0:0:0:
336,172,47966,1,8,0:0:0:0:
152,268,48330,5,8,0:0:0:0:
360,268,48693,1,8,0:0:0:0:
88,88,49057,1,8,0:0:0:0:
424,88,49420,1,8,0:0:0:0:
256,344,49784,1,8,0:0:0:0:
100,108,51239,5,2,0:0:0:0:
224,132,51420,1,2,0:0:0:0:
104,128,51602,1,2,0:0:0:0:
228,152,51784,1,2,0:0:0:0:
108,148,51966,5,2,0:0:0:0:
232,172,52147,1,2,0:0:0:0:
112,168,52329,1,2,0:0:0:0:
236,192,52511,1,2,0:0:0:0:
260,308,52693,5,8,0:0:0:0:
260,308,52875,1,0,0:0:0:0:
348,228,53057,2,0,P|372:264|372:344,1,100,0|8,3:0|0:0,0:0:0:0:
260,308,53420,1,8,0:0:0:0:
260,308,53602,1,0,0:0:0:0:
324,112,53784,2,0,P|367:109|436:149,1,100,0|0,3:0|0:0,0:0:0:0:
152,272,54148,5,8,0:0:0:0:
204,72,54330,1,2,0:0:0:0:
204,72,54420,1,2,0:0:0:0:
204,72,54511,1,2,3:0:0:0:
348,228,54693,1,10,0:0:0:0:
348,228,54784,1,2,0:0:0:0:
348,228,54875,1,10,0:0:0:0:
68,144,55057,1,0,0:0:0:0:
108,380,55239,1,0,3:0:0:0:
108,380,55602,5,8,0:0:0:0:
152,272,55784,2,0,L|192:164,1,100,0|0,0:0|3:0,0:0:0:0:
108,380,56148,1,8,0:0:0:0:
36,288,56330,5,8,0:0:0:0:
264,256,56511,2,0,L|377:236,1,100,0|0,0:0|3:0,0:0:0:0:
36,288,56875,1,0,0:0:0:0:
196,168,57057,5,8,0:0:0:0:
220,364,57239,1,2,0:0:0:0:
220,364,57330,1,2,0:0:0:0:
220,364,57420,1,2,3:0:0:0:
384,236,57602,1,8,0:0:0:0:
384,236,57693,1,0,0:0:0:0:
384,236,57784,1,8,0:0:0:0:
152,272,57966,1,0,0:0:0:0:
368,28,58148,1,0,3:0:0:0:
368,28,58511,5,8,0:0:0:0:
320,160,58693,1,0,0:0:0:0:
228,56,58875,1,0,3:0:0:0:
320,160,59057,1,8,0:0:0:0:
228,56,59239,5,8,0:0:0:0:
180,188,59421,1,0,0:0:0:0:
88,84,59603,1,0,3:0:0:0:
180,188,59785,1,0,0:0:0:0:
88,84,59966,5,8,0:0:0:0:
40,216,60148,1,2,0:0:0:0:
40,216,60239,1,2,0:0:0:0:
40,216,60330,1,2,3:0:0:0:
88,84,60512,1,8,0:0:0:0:
132,320,60693,1,8,0:0:0:0:
320,160,60875,1,0,0:0:0:0:
88,84,61057,1,0,3:0:0:0:
180,188,61239,1,0,0:0:0:0:
276,96,61420,5,8,0:0:0:0:
236,288,61602,1,0,0:0:0:0:
196,100,61784,5,8,3:2:0:0:
314,282,61966,1,0,0:0:0:0:
140,168,62148,5,8,0:0:0:0:
371,216,62330,1,0,0:0:0:0:
139,266,62512,5,8,3:2:0:0:
370,116,62694,1,0,0:0:0:0:
175,349,62875,5,0,0:0:0:0:
337,35,63057,1,0,0:0:0:0:
256,292,63239,1,0,0:0:0:0:
256,92,63420,1,0,0:0:0:0:
404,304,63602,1,0,0:0:0:0:
108,80,63784,1,0,0:0:0:0:
432,192,63966,1,0,0:0:0:0:
201,24,64330,6,0,P|216:88|256:144,1,100,12|0,0:0|0:0,0:0:0:0:
304,44,64693,1,0,3:0:0:0:
263,210,64875,2,0,P|254:161|232:117,1,100,8|8,0:0|0:0,0:0:0:0:
200,308,65239,1,0,0:0:0:0:
152,200,65420,1,0,3:0:0:0:
376,224,65602,1,0,0:0:0:0:
200,308,65784,5,8,0:0:0:0:
40,188,65966,1,0,0:0:0:0:
224,104,66148,1,0,3:0:0:0:
80,300,66330,1,8,0:0:0:0:
108,92,66511,1,8,0:0:0:0:
200,308,66693,1,0,0:0:0:0:
40,188,66875,1,0,3:0:0:0:
263,210,67057,1,0,0:0:0:0:
400,36,67239,6,0,P|416:96|416:160,1,100,8|0,0:0|0:0,0:0:0:0:
388,264,67602,1,0,3:0:0:0:
263,210,67784,2,0,P|247:150|247:86,1,100,8|8,0:0|0:0,0:0:0:0:
388,264,68148,2,0,P|384:313|369:361,1,100,0|0,0:0|3:0,0:0:0:0:
208,280,68511,1,0,0:0:0:0:
324,164,68693,6,0,P|371:149|421:145,1,100,8|0,0:0|0:0,0:0:0:0:
296,300,69057,1,0,3:0:0:0:
172,196,69239,2,0,P|157:148|153:98,1,100,8|8,0:0|0:0,0:0:0:0:
296,300,69602,1,0,0:0:0:0:
108,364,69784,1,0,3:0:0:0:
44,176,69966,1,0,0:0:0:0:
232,112,70148,6,0,L|348:132,2,100,12|0|0,0:0|0:0|3:0,0:0:0:0:
136,92,70693,1,8,0:0:0:0:
172,196,70875,1,8,0:0:0:0:
212,300,71057,1,0,0:0:0:0:
72,220,71239,1,0,3:0:0:0:
316,272,71420,1,0,0:0:0:0:
96,368,71602,6,0,P|104:320|148:264,1,100,8|0,0:0|0:0,0:0:0:0:
280,184,71966,1,0,3:0:0:0:
200,356,72148,1,8,0:0:0:0:
36,256,72330,1,8,0:0:0:0:
112,80,72511,1,0,0:0:0:0:
220,256,72693,1,0,3:0:0:0:
404,192,72875,1,0,0:0:0:0:
335,370,73057,6,0,L|316:272,1,100,8|0,0:0|0:0,0:0:0:0:
276,76,73420,1,0,3:0:0:0:
316,272,73602,1,8,0:0:0:0:
124,220,73784,1,8,0:0:0:0:
344,280,73966,1,0,0:0:0:0:
160,112,74148,1,0,3:0:0:0:
136,344,74330,1,0,0:0:0:0:
408,148,74511,6,0,P|360:176|308:168,1,100,8|0,0:0|0:0,0:0:0:0:
160,112,74875,2,0,L|188:0,1,100,0|8,3:0|0:0,0:0:0:0:
344,280,75239,2,0,L|316:392,1,100,0|8,0:0|0:0,0:0:0:0:
24,304,75602,1,0,3:0:0:0:
52,152,75784,1,8,0:0:0:0:
52,152,75966,6,0,B|104:132|148:144|148:144|200:184|272:164,1,200,12|0,0:0|3:0,0:0:0:0:
224,76,76511,1,8,0:0:0:0:
108,232,76693,1,8,0:0:0:0:
224,76,76875,1,0,0:0:0:0:
308,256,77057,1,0,3:0:0:0:
216,184,77239,1,0,0:0:0:0:
180,316,77420,6,0,L|64:340,2,100,8|0|0,0:0|0:0|3:0,0:0:0:0:
405,235,77966,2,0,L|308:256,1,100,8|0,0:0|0:0,0:0:0:0:
118,204,78330,2,0,L|216:184,1,100,8|8,0:0|3:0,0:0:0:0:
432,32,78693,1,0,0:0:0:0:
432,32,78875,6,0,P|388:80|256:72,1,200,12|0,0:0|3:0,0:0:0:0:
112,32,79420,1,8,0:0:0:0:
118,204,79602,1,8,0:0:0:0:
172,100,79784,1,0,0:0:0:0:
224,260,79966,1,0,3:0:0:0:
88,116,80148,1,0,0:0:0:0:
40,288,80330,5,8,0:0:0:0:
212,172,80511,1,0,0:0:0:0:
260,364,80693,1,0,3:0:0:0:
125,274,80875,2,0,L|224:260,1,100,8|0,0:0|0:0,0:0:0:0:
432,300,81239,2,0,L|333:285,1,100,8|0,0:0|3:0,0:0:0:0:
112,196,81602,1,8,0:0:0:0:
300,104,81784,6,0,P|324:156|316:220,1,100,12|0,0:0|0:0,0:0:0:0:
212,172,82148,1,0,3:0:0:0:
440,84,82330,1,8,0:0:0:0:
240,40,82511,1,8,0:0:0:0:
412,208,82693,1,0,0:0:0:0:
212,172,82875,1,0,3:0:0:0:
328,124,83057,1,8,0:0:0:0:
240,284,83239,6,0,L|226:383,1,100,8|0,0:0|0:0,0:0:0:0:
356,256,83602,1,8,3:0:0:0:
212,172,83784,1,0,0:0:0:0:
460,240,83966,1,8,0:0:0:0:
248,272,84148,1,2,0:0:0:0:
396,156,84330,1,8,3:0:0:0:
424,336,84511,1,2,0:0:0:0:
56,300,84693,5,4,0:0:0:0:
424,336,85057,1,0,0:0:0:0:
56,300,85420,5,4,0:0:0:0:
356,256,85602,1,0,0:0:0:0:
56,300,85784,1,0,0:0:0:0:
356,256,85966,1,0,0:0:0:0:
132,200,86148,5,4,0:0:0:0:
156,360,86330,1,0,0:0:0:0:
380,184,86511,1,4,0:0:0:0:
356,24,86693,1,0,0:0:0:0:
96,180,86875,5,4,0:0:0:0:
416,204,87057,1,0,0:0:0:0:
256,356,87239,5,4,0:0:0:0:
256,284,87330,1,0,0:0:0:0:
256,216,87420,1,0,0:0:0:0:
256,144,87511,1,0,0:0:0:0:
256,72,87602,1,0,0:0:0:0:
368,348,87966,5,4,0:0:0:0:
144,272,88148,2,0,P|124:142|256:144,1,300,4|0,0:0|0:0,0:0:0:0:
