osu file format v14

[General]
AudioFilename: KUMAMIKO DANCINGTV size.mp3
AudioLeadIn: 0
PreviewTime: 64239
Countdown: 0
SampleSet: Soft
StackLeniency: 0.3
Mode: 0
LetterboxInBreaks: 0
WidescreenStoryboard: 1

[Editor]
DistanceSpacing: 1
BeatDivisor: 4
GridSize: 4
TimelineZoom: 2.2

[Metadata]
Title:KUMAMIKO DANCING
TitleUnicode:KUMAMIKO DANCING
Artist:Hioka Natsumi & Yasumoto Hiroki feat.Kumaide-mura no Minasan
ArtistUnicode:日岡なつみ&安元洋貴 feat.熊出村のみなさん
Creator:09kami
Version:Lily Bread's Normal
Source:くまみこ
Tags:kumamiko anime ending TV size Girl Meets Bear Lily Bread Narcissu TT Mouse kawaiwkyik wkyik rizia
BeatmapID:947541
BeatmapSetID:440388

[Difficulty]
HPDrainRate:3
CircleSize:3
OverallDifficulty:3
ApproachRate:5
SliderMultiplier:1.1
SliderTickRate:1

[Events]
//Background and Video events
0,0,"1.jpg",0,0
//Break Periods
2,49984,51493
//Storyboard Layer 0 (Background)
//Storyboard Layer 1 (Fail)
//Storyboard Layer 2 (Pass)
//Storyboard Layer 3 (Foreground)
//Storyboard Sound Samples

[TimingPoints]
330,363.636363636364,4,2,1,50,1,0
6148,-100,4,2,2,45,0,0
11966,-100,4,2,2,45,0,0
12239,-100,4,2,2,20,0,0
12330,-100,4,2,2,45,0,0
12602,-100,4,2,2,20,0,0
12693,-100,4,2,2,45,0,0
16239,-100,4,3,1,60,0,0
16420,-100,4,3,9,60,0,0
16602,-100,4,3,3,60,0,0
16784,-100,4,3,4,60,0,0
16966,-100,4,3,5,60,0,0
17148,-100,4,3,6,60,0,0
17330,-100,4,3,7,60,0,0
17511,-100,4,3,8,60,0,0
17784,-100,4,1,2,20,0,0
26057,-100,4,1,2,20,0,0
26148,-100,4,1,2,20,0,0
27875,-100,4,3,1,45,0,0
27966,-100,4,3,1,45,0,0
28057,-100,4,3,9,45,0,0
28239,-100,4,3,3,45,0,0
28420,-100,4,3,4,45,0,0
28602,-100,4,3,5,45,0,0
28784,-100,4,3,7,70,0,0
29420,-100,4,2,2,80,0,0
34420,-100,4,3,1,80,0,0
34602,-100,4,3,9,80,0,0
34784,-100,4,3,7,80,0,0
34966,-100,4,3,4,80,0,0
35148,-100,4,2,2,80,0,0
39693,-100,4,3,9,80,0,0
39875,-100,4,3,3,80,0,0
40057,-100,4,3,4,80,0,0
40239,-100,4,3,5,80,0,0
40602,-100,4,3,7,80,0,0
40966,-100,4,2,2,80,0,0
45420,-100,4,2,2,80,0,0
52693,-100,4,2,2,80,0,0
64330,-100,4,2,2,80,0,1
84693,-100,4,2,2,80,0,0
87966,-100,4,2,2,60,0,0
88148,-100,4,2,2,80,0,0

[Colours]
Combo1 : 255,53,154
Combo2 : 132,120,74
Combo3 : 72,166,227
Combo4 : 249,209,74

[HitObjects]
84,72,6148,6,0,L|84:184,1,110,8|0,0:0|3:0,0:0:0:0:
100,236,6693,1,8,0:0:0:0:
100,236,6875,2,0,P|124:272|200:252,1,110,0|0,0:0|3:0,0:0:0:0:
228,236,7420,2,0,P|280:224|344:244,1,110,8|8,0:0|0:0,0:0:0:0:
364,284,7966,2,0,L|364:348,2,55,0|8|8,3:0|0:0|0:0,0:0:0:0:
444,208,8693,1,0,3:0:0:0:
508,120,9057,6,0,P|452:100|384:116,1,110,8|0,0:0|3:0,0:0:0:0:
360,144,9602,2,0,L|288:144,1,55,8|8,0:0|0:0,0:0:0:0:
216,76,10148,1,0,3:0:0:0:
216,76,10330,2,0,P|152:64|96:88,1,110,8|8,0:0|0:0,0:0:0:0:
64,104,10875,2,0,L|-4:104,2,55,0|8|8,3:0|0:0|0:0,0:0:0:0:
120,200,11602,1,0,3:0:0:0:
128,308,11966,6,0,P|192:280|220:236,1,110,8|0,0:0|3:0,0:0:0:0:
244,204,12511,1,8,0:0:0:0:
244,204,12693,2,0,P|292:188|348:212,1,110,8|0,0:0|3:0,0:0:0:0:
360,264,13239,2,0,P|409:285|461:269,1,110,8|8,0:0|0:0,0:0:0:0:
500,228,13784,2,0,L|508:160,2,55,0|8|8,3:0|0:0|0:0,0:0:0:0:
416,156,14511,1,0,3:0:0:0:
436,48,14875,6,0,P|360:56|328:84,1,110,8|0,0:0|3:0,0:0:0:0:
292,112,15420,2,0,L|216:112,1,55,8|8,0:0|0:0,0:0:0:0:
148,48,15966,1,0,3:0:0:0:
148,48,16148,2,0,P|108:64|60:120,1,110,8|2,0:0|0:0,0:0:0:0:
56,168,16693,2,0,L|56:240,1,55,2|2,0:0|0:0,0:0:0:0:
64,276,17057,2,0,P|98:317|148:340,1,110,2|2,0:0|0:0,0:0:0:0:
232,264,17784,6,0,L|344:256,1,110,6|2,0:1|3:1,0:0:0:0:
392,232,18330,2,0,L|456:228,1,55,12|6,0:0|0:0,0:0:0:0:
488,128,18875,1,8,3:1:0:0:
488,128,19057,2,0,P|440:100|368:104,1,110,4|12,0:0|0:0,0:0:0:0:
340,128,19602,2,0,L|304:196,2,55,2|12|6,3:1|0:0|0:0,0:0:0:0:
280,36,20330,1,0,3:1:0:0:
212,124,20693,5,6,0:0:0:0:
124,56,21057,2,0,L|68:32,2,55,2|12|6,3:1|0:0|0:0,0:0:0:0:
116,164,21784,1,8,3:1:0:0:
116,164,21966,2,0,L|120:288,1,110,12|12,0:0|0:0,0:0:0:0:
156,316,22511,2,0,L|160:376,2,55,2|12|6,3:1|0:0|0:0,0:0:0:0:
212,220,23239,1,0,3:1:0:0:
296,292,23602,6,0,P|320:240|312:180,1,110,6|2,0:0|3:1,0:0:0:0:
300,136,24148,2,0,L|308:80,1,55,12|6,0:0|0:0,0:0:0:0:
404,32,24693,1,8,3:1:0:0:
404,32,24875,2,0,P|464:56|484:104,1,110,4|12,0:0|0:0,0:0:0:0:
460,144,25420,2,0,L|456:212,1,55,6|12,3:1|0:0,0:0:0:0:
460,256,25784,2,0,P|440:312|392:340,1,110,2|0,0:0|3:1,0:0:0:0:
296,292,26511,5,8,0:0:0:0:
340,192,26875,2,0,L|220:136,1,110,0|0,0:0|0:0,0:0:0:0:
204,308,27784,2,0,L|96:244,1,110,0|2,0:0|0:0,0:0:0:0:
68,216,28330,2,0,L|4:176,1,55,2|2,0:0|0:0,0:0:0:0:
12,132,28693,2,0,P|68:108|128:136,1,110,2|10,0:0|0:0,0:0:0:0:
216,156,29420,6,0,P|264:152|324:120,1,110,8|0,0:0|3:0,0:0:0:0:
348,76,29966,2,0,P|396:50|450:44,1,110,8|0,0:0|0:0,0:0:0:0:
496,76,30511,1,0,3:0:0:0:
452,176,30875,2,0,L|448:288,1,110,8|0,0:0|3:0,0:0:0:0:
408,324,31420,2,0,P|364:352|288:336,1,110,8|0,0:0|0:0,0:0:0:0:
268,312,31966,2,0,P|220:292|152:292,1,110,0|8,3:0|0:0,0:0:0:0:
68,348,32693,5,0,3:0:0:0:
32,244,33057,2,0,L|32:112,1,110,8|0,0:0|3:0,0:0:0:0:
60,88,33602,2,0,P|112:76|168:92,1,110,8|8,0:0|0:0,0:0:0:0:
196,136,34148,2,0,L|196:192,2,55,0|8|8,3:0|0:0|0:0,0:0:0:0:
256,44,34875,1,2,3:0:0:0:
328,128,35239,6,0,L|328:256,1,110,8|0,0:0|3:0,0:0:0:0:
356,284,35784,2,0,P|384:308|464:320,1,110,8|0,0:0|0:0,0:0:0:0:
500,288,36330,1,0,3:0:0:0:
468,184,36693,2,0,L|448:76,1,110,8|0,0:0|3:0,0:0:0:0:
396,56,37239,2,0,P|340:40|284:60,1,110,8|0,0:0|0:0,0:0:0:0:
256,96,37784,1,0,3:0:0:0:
164,36,38148,5,8,0:0:0:0:
160,144,38511,2,0,L|140:264,1,110,0|8,3:0|0:0,0:0:0:0:
220,332,39239,1,0,3:0:0:0:
220,332,39420,2,0,P|276:316|348:340,1,110,8|2,0:0|0:0,0:0:0:0:
372,356,39966,2,0,L|448:356,1,55,2|2,0:0|0:0,0:0:0:0:
472,328,40330,2,0,P|488:272|468:220,1,110,2|2,0:0|0:0,0:0:0:0:
396,144,41057,6,0,L|272:140,1,110,8|0,0:0|3:0,0:0:0:0:
244,176,41602,2,0,P|192:192|128:184,1,110,8|0,0:0|0:0,0:0:0:0:
92,156,42148,1,0,3:0:0:0:
20,76,42511,2,0,P|72:52|148:64,1,110,8|0,0:0|3:0,0:0:0:0:
176,72,43057,2,0,L|288:56,1,110,8|0,0:0|0:0,0:0:0:0:
336,36,43602,1,0,3:0:0:0:
444,64,43966,6,0,L|464:180,1,110,8|0,0:0|3:0,0:0:0:0:
456,228,44511,1,8,0:0:0:0:
396,320,44875,2,0,L|336:324,1,55,0|0,0:0|3:0,0:0:0:0:
296,288,45239,2,0,L|160:280,1,110,8|0,0:0|0:0,0:0:0:0:
136,308,45784,2,0,L|56:316,2,55,0|8|8,3:0|0:0|0:0,0:0:0:0:
104,204,46511,1,0,3:0:0:0:
256,192,46875,12,8,49784,0:0:0:0:
32,100,52693,6,0,P|84:80|156:84,1,110,8|0,0:0|3:0,0:0:0:0:
108,184,53420,2,0,L|124:300,1,110,8|0,0:0|3:0,0:0:0:0:
204,220,54148,2,0,P|255:203|307:220,1,110,8|2,0:0|3:0,0:0:0:0:
388,292,54875,2,0,L|404:184,1,110,8|0,0:0|3:0,0:0:0:0:
480,100,55602,6,0,P|429:80|374:79,1,110,8|0,0:0|3:0,0:0:0:0:
312,172,56330,2,0,P|256:176|196:172,1,110,8|0,0:0|3:0,0:0:0:0:
137,79,57057,2,0,P|82:76|29:92,1,110,8|0,0:0|3:0,0:0:0:0:
80,196,57784,2,0,P|100:260|96:320,1,110,8|0,0:0|3:0,0:0:0:0:
200,352,58511,6,0,P|256:364|328:340,1,110,8|0,0:0|3:0,0:0:0:0:
412,302,59239,2,0,P|403:247|413:194,1,110,8|0,0:0|3:0,0:0:0:0:
480,100,59966,2,0,P|429:80|374:79,1,110,8|0,0:0|3:0,0:0:0:0:
280,136,60693,1,8,0:0:0:0:
168,136,61057,1,0,3:0:0:0:
168,244,61420,6,0,L|168:356,1,110,8|8,0:0|3:2,0:0:0:0:
280,354,62148,2,0,L|280:234,1,110,8|8,0:0|3:2,0:0:0:0:
224,148,62875,1,0,0:0:0:0:
55,127,64330,6,0,P|103:99|163:99,1,110,12|0,0:0|3:0,0:0:0:0:
199,135,64875,2,0,P|253:137|302:114,1,110,8|0,0:0|0:0,0:0:0:0:
332,68,65420,1,0,3:0:0:0:
431,114,65784,2,0,P|467:146|471:218,1,110,8|0,0:0|3:0,0:0:0:0:
447,250,66330,2,0,L|327:274,1,110,8|0,0:0|0:0,0:0:0:0:
291,246,66875,1,0,3:0:0:0:
188,286,67239,6,0,P|126:299|67:285,1,110,8|0,0:0|3:0,0:0:0:0:
39,255,67784,2,0,L|43:138,1,110,8|0,0:0|0:0,0:0:0:0:
40,90,68330,1,0,3:0:0:0:
126,22,68693,1,8,0:0:0:0:
195,107,69057,1,0,3:0:0:0:
232,68,69239,2,0,P|276:48|340:72,1,110,8|0,0:0|0:0,0:0:0:0:
372,104,69784,1,0,3:0:0:0:
452,180,70148,6,0,P|456:232|392:272,1,110,12|0,0:0|3:0,0:0:0:0:
364,256,70693,2,0,P|314:236|267:261,1,110,8|0,0:0|0:0,0:0:0:0:
228,300,71239,1,0,3:0:0:0:
120,284,71602,2,0,P|89:242|122:174,1,110,8|0,0:0|3:0,0:0:0:0:
154,172,72147,2,0,P|206:162|232:116,1,110,8|0,0:0|0:0,0:0:0:0:
240,60,72693,1,0,3:0:0:0:
348,48,73057,6,0,P|360:112|396:160,1,110,8|0,0:0|3:0,0:0:0:0:
440,160,73602,2,0,P|468:206|476:260,1,110,8|0,0:0|0:0,0:0:0:0:
464,316,74148,1,0,3:0:0:0:
352,308,74511,2,0,P|300:292|232:324,1,110,8|0,0:0|3:0,0:0:0:0:
204,340,75057,2,0,L|128:352,1,55,8|0,0:0|0:0,0:0:0:0:
116,304,75420,2,0,L|52:304,1,55,8|0,0:0|3:0,0:0:0:0:
64,248,75784,2,0,L|12:220,1,55,8|12,0:0|0:0,0:0:0:0:
72,128,76330,5,0,3:0:0:0:
104,84,76511,2,0,P|152:72|216:88,1,110,8|0,0:0|0:0,0:0:0:0:
244,128,77057,1,0,3:0:0:0:
352,144,77420,1,8,0:0:0:0:
404,48,77784,1,0,3:0:0:0:
456,68,77966,2,0,L|488:116,1,55,8|0,0:0|0:0,0:0:0:0:
492,168,78330,2,0,L|492:232,1,55,8|8,0:0|3:0,0:0:0:0:
484,276,78693,2,0,L|452:328,1,55,0|12,0:0|0:0,0:0:0:0:
360,268,79239,5,0,3:0:0:0:
316,236,79420,2,0,L|192:224,1,110,8|0,0:0|0:0,0:0:0:0:
164,260,79966,1,0,3:0:0:0:
64,216,80330,2,0,P|52:176|72:108,1,110,8|0,0:0|3:0,0:0:0:0:
116,80,80875,2,0,L|176:52,1,55,8|0,0:0|0:0,0:0:0:0:
204,96,81239,2,0,L|268:96,1,55,8|0,0:0|3:0,0:0:0:0:
292,52,81602,1,8,0:0:0:0:
348,60,81784,6,0,P|384:96|388:168,1,110,12|0,0:0|3:0,0:0:0:0:
360,196,82330,2,0,L|352:308,1,110,8|0,0:0|0:0,0:0:0:0:
312,344,82875,1,0,3:0:0:0:
204,320,83239,2,0,L|80:304,1,110,8|8,0:0|3:0,0:0:0:0:
60,264,83784,2,0,P|72:228|68:152,1,110,8|2,0:0|0:0,0:0:0:0:
52,104,84330,1,8,3:0:0:0:
140,40,84693,5,4,0:0:0:0:
348,108,85420,1,4,0:0:0:0:
308,324,86148,2,0,P|252:332|188:334,1,110,4|4,0:0|0:0,0:0:0:0:
140,240,86875,2,0,P|195:231|259:229,1,110,4|4,0:0|0:0,0:0:0:0:
360,232,87602,5,0,0:0:0:0:
420,324,87966,2,0,L|492:324,1,55,4|4,0:0|0:0,0:0:0:0:
