osu file format v14

[General]
AudioFilename: KUMAMIKO DANCINGTV size.mp3
AudioLeadIn: 0
PreviewTime: 64239
Countdown: 0
SampleSet: Soft
StackLeniency: 0.3
Mode: 0
LetterboxInBreaks: 0
WidescreenStoryboard: 1

[Editor]
DistanceSpacing: 0.9
BeatDivisor: 4
GridSize: 4
TimelineZoom: 1.7

[Metadata]
Title:KUMAMIKO DANCING
TitleUnicode:KUMAMIKO DANCING
Artist:Hioka Natsumi & Yasumoto Hiroki feat.Kumaide-mura no Minasan
ArtistUnicode:日岡なつみ&安元洋貴 feat.熊出村のみなさん
Creator:09kami
Version:Insane
Source:くまみこ
Tags:kumamiko anime ending TV size Girl Meets Bear Lily Bread Narcissu TT Mouse kawaiwkyik wkyik rizia
BeatmapID:947540
BeatmapSetID:440388

[Difficulty]
HPDrainRate:5
CircleSize:4
OverallDifficulty:7
ApproachRate:8.7
SliderMultiplier:1.8
SliderTickRate:1

[Events]
//Background and Video events
0,0,"1.jpg",0,0
//Break Periods
//Storyboard Layer 0 (Background)
//Storyboard Layer 1 (Fail)
//Storyboard Layer 2 (Pass)
//Storyboard Layer 3 (Foreground)
//Storyboard Sound Samples

[TimingPoints]
330,363.636363636364,4,2,1,50,1,0
4602,-100,4,3,1,50,0,0
4784,-100,4,3,9,50,0,0
4966,-100,4,3,3,50,0,0
5148,-100,4,3,4,50,0,0
5330,-100,4,3,5,60,0,0
5511,-100,4,3,6,60,0,0
5693,-100,4,3,7,60,0,0
5875,-100,4,3,8,60,0,0
6148,-100,4,2,2,45,0,0
11966,-200,4,2,2,45,0,0
12239,-200,4,2,2,20,0,0
12330,-100,4,2,2,45,0,0
16239,-100,4,3,1,60,0,0
16420,-100,4,3,9,60,0,0
16602,-100,4,3,3,60,0,0
16784,-100,4,3,4,60,0,0
16966,-100,4,3,5,60,0,0
17148,-100,4,3,6,60,0,0
17330,-100,4,3,7,60,0,0
17511,-100,4,3,8,60,0,0
17784,-100,4,1,2,20,0,0
27875,-100,4,3,1,45,0,0
28057,-100,4,3,9,45,0,0
28239,-100,4,3,3,45,0,0
28420,-100,4,3,4,45,0,0
28602,-100,4,3,5,45,0,0
28784,-100,4,3,6,70,0,0
28966,-100,4,3,7,70,0,0
29148,-100,4,3,8,70,0,0
29420,-80,4,2,2,80,0,0
34420,-80,4,3,1,80,0,0
34602,-80,4,3,9,80,0,0
34784,-80,4,3,3,80,0,0
34966,-80,4,3,4,80,0,0
35148,-80,4,2,2,80,0,0
39511,-80,4,3,1,80,0,0
39693,-80,4,3,9,80,0,0
39875,-80,4,3,3,80,0,0
40057,-80,4,3,4,80,0,0
40239,-80,4,3,5,80,0,0
40420,-80,4,3,6,80,0,0
40602,-80,4,3,7,80,0,0
40784,-80,4,3,8,80,0,0
40966,-80,4,2,2,80,0,0
45420,-133.333333333333,4,2,2,80,0,0
51148,-133.333333333333,4,3,1,80,0,0
51239,-133.333333333333,4,3,1,80,0,0
51330,-133.333333333333,4,3,9,80,0,0
51511,-133.333333333333,4,3,3,80,0,0
51693,-133.333333333333,4,3,4,80,0,0
51875,-133.333333333333,4,3,5,80,0,0
51966,-133.333333333333,4,3,5,80,0,0
52057,-133.333333333333,4,3,6,80,0,0
52239,-133.333333333333,4,3,7,80,0,0
52420,-133.333333333333,4,3,8,80,0,0
52693,-80,4,2,2,80,0,0
64330,-71.4285714285714,4,2,2,80,0,1
84693,-71.4285714285714,4,2,2,80,0,0
87966,-71.4285714285714,4,2,2,60,0,0
88148,-71.4285714285714,4,2,2,80,0,0

[Colours]
Combo1 : 255,53,154
Combo2 : 132,120,74
Combo3 : 72,166,227
Combo4 : 249,209,74

[HitObjects]
256,192,330,12,8,4330,0:0:0:0:
220,236,4693,5,2,0:0:0:0:
237,138,4875,1,2,0:0:0:0:
313,202,5057,1,2,0:0:0:0:
313,202,5239,1,2,0:0:0:0:
161,177,5420,5,2,0:0:0:0:
315,117,5602,1,2,0:0:0:0:
290,280,5784,1,2,0:0:0:0:
290,280,5966,1,2,0:0:0:0:
128,324,6148,6,0,P|156:308|220:340,1,90,8|0,0:0|0:0,0:0:0:0:
290,280,6511,1,0,3:0:0:0:
315,117,6693,1,8,0:0:0:0:
160,29,6875,2,0,B|120:65|120:65|104:141|168:181,1,180,8|0,0:0|3:0,0:0:0:0:
48,184,7420,2,0,L|30:276,2,90,8|0|8,0:0|0:0|0:0,0:0:0:0:
216,100,7966,1,0,3:0:0:0:
290,280,8148,1,8,0:0:0:0:
120,256,8330,2,0,P|197:210|285:199,1,180,8|0,0:0|3:0,0:0:0:0:
408,356,9057,5,8,0:0:0:0:
380,272,9239,1,0,0:0:0:0:
468,284,9420,1,0,3:0:0:0:
424,128,9602,2,0,L|432:232,1,90,8|8,0:0|0:0,0:0:0:0:
424,128,10148,5,0,3:0:0:0:
364,56,10330,1,8,0:0:0:0:
452,44,10511,1,0,0:0:0:0:
364,56,10693,2,0,B|332:40|292:72|264:48,2,90,8|0|8,0:0|3:0|0:0,0:0:0:0:
196,100,11239,5,8,0:0:0:0:
199,11,11421,1,0,0:0:0:0:
118,47,11602,2,0,L|108:148,1,90,0|0,3:0|0:0,0:0:0:0:
11,154,11966,6,0,L|84:159,1,67.5,8|0,0:0|0:0,0:0:0:0:
109,136,12330,6,0,L|96:248,1,90,0|0,3:0|0:0,0:0:0:0:
184,312,12693,2,0,L|174:222,1,90,8|0,0:0|0:0,0:0:0:0:
28,340,13057,1,0,3:0:0:0:
272,376,13239,2,0,P|308:310|255:214,1,180,8|8,0:0|0:0,0:0:0:0:
266,221,13784,1,0,3:0:0:0:
384,144,13966,1,8,0:0:0:0:
443,286,14148,2,0,P|377:230|384:144,1,180,8|0,0:0|3:0,0:0:0:0:
468,192,14875,6,0,L|468:102,1,90,8|0,0:0|0:0,0:0:0:0:
396,36,15239,1,0,0:0:0:0:
312,72,15420,1,8,0:0:0:0:
312,72,15602,1,8,0:0:0:0:
312,72,15966,2,0,P|268:88|216:76,1,90,0|8,3:0|0:0,0:0:0:0:
148,200,16330,5,2,0:0:0:0:
112,88,16511,1,2,0:0:0:0:
260,184,16693,1,2,0:0:0:0:
156,316,16875,1,2,0:0:0:0:
12,176,17057,1,2,0:0:0:0:
204,104,17239,1,2,0:0:0:0:
288,332,17420,1,2,0:0:0:0:
52,300,17602,1,2,0:0:0:0:
52,300,17784,6,0,L|80:200,1,90,6|8,0:1|0:1,0:0:0:0:
228,190,18148,2,0,B|224:72|224:72|168:24,1,180,2|6,3:1|0:0,0:0:0:0:
137,110,18693,2,0,L|148:205,1,90,8|8,0:0|3:1,0:0:0:0:
52,300,19057,2,0,P|120:272|204:340,1,180,4|12,0:0|0:0,0:0:0:0:
284,300,19602,2,0,L|384:320,1,90,2|12,3:1|0:0,0:0:0:0:
408,160,19966,5,6,0:0:0:0:
448,248,20148,2,0,L|344:236,1,90,0|0,0:0|3:1,0:0:0:0:
196,304,20511,1,0,0:0:0:0:
220,217,20693,2,0,L|132:236,1,90,6|8,0:0|0:0,0:0:0:0:
64,168,21057,6,0,P|164:116|184:44,1,180,2|6,3:1|0:0,0:0:0:0:
280,120,21602,1,8,0:0:0:0:
280,120,21784,1,8,3:1:0:0:
360,216,21966,2,0,P|372:140|472:100,1,180,12|12,0:0|0:0,0:0:0:0:
452,192,22511,1,2,3:1:0:0:
280,120,22693,1,12,0:0:0:0:
324,316,22875,6,0,L|220:320,1,90,6|0,0:0|0:0,0:0:0:0:
80,364,23239,2,0,P|128:288|120:188,1,180,0|6,3:1|0:0,0:0:0:0:
124,200,23784,1,8,0:0:0:0:
52,128,23966,6,0,L|148:96,1,90,2|12,3:1|0:0,0:0:0:0:
120,8,24330,2,0,L|220:36,1,90,6|8,0:0|0:0,0:0:0:0:
216,132,24693,1,8,3:1:0:0:
320,168,24875,2,0,P|308:108|392:24,1,180,4|12,0:0|0:0,0:0:0:0:
420,128,25420,2,0,L|420:224,1,90,6|12,3:1|0:0,0:0:0:0:
393,304,25784,6,0,P|436:293|480:304,1,90,2|0,0:0|0:0,0:0:0:0:
328,356,26148,2,0,L|224:328,2,90,2|0|8,3:1|0:0|0:0,0:0:0:0:
203,270,27966,5,2,0:0:0:0:
351,197,28148,1,2,0:0:0:0:
213,105,28330,1,2,0:0:0:0:
213,105,28511,1,2,0:0:0:0:
280,244,28693,5,2,0:0:0:0:
289,145,28875,1,2,0:0:0:0:
199,187,29057,1,2,0:0:0:0:
199,187,29239,1,2,0:0:0:0:
48,312,29420,6,0,B|100:248|12:156|64:88,1,225,8|0,0:0|3:0,0:0:0:0:
160,24,29966,2,0,L|272:33,1,112.5,8|8,0:0|0:0,0:0:0:0:
315,117,30330,1,0,0:0:0:0:
376,48,30511,1,0,3:0:0:0:
376,48,30693,1,0,0:0:0:0:
472,40,30875,6,0,B|524:104|436:196|488:264,1,225,8|0,0:0|3:0,0:0:0:0:
315,117,31420,2,0,B|263:181|351:273|299:341,1,225,8|0,0:0|0:0,0:0:0:0:
216,280,31966,1,0,3:0:0:0:
303,334,32148,1,0,0:0:0:0:
156,356,32330,2,0,P|104:308|112:248,1,112.5,8|0,0:0|0:0,0:0:0:0:
114,72,32693,6,0,L|132:184,1,112.5,0|8,3:0|0:0,0:0:0:0:
232,24,33057,1,8,0:0:0:0:
220,116,33239,1,0,0:0:0:0:
220,116,33420,1,0,3:0:0:0:
114,72,33602,6,0,L|128:308,1,225,8|8,0:0|0:0,0:0:0:0:
208,344,34148,2,0,P|256:320|308:352,1,112.5,0|8,3:0|0:0,0:0:0:0:
384,296,34511,2,0,L|392:172,2,112.5,2|2|2,0:0|0:0|3:0,0:0:0:0:
384,296,35057,1,2,0:0:0:0:
398,72,35239,6,0,P|288:116|188:68,1,225,8|0,0:0|3:0,0:0:0:0:
91,182,35784,2,0,L|114:69,2,112.5,8|8|0,0:0|0:0|0:0,0:0:0:0:
140,260,36330,1,0,3:0:0:0:
437,233,36693,6,0,P|335:171|314:63,1,225,8|0,0:0|3:0,0:0:0:0:
392,32,37239,1,8,0:0:0:0:
488,56,37420,2,0,L|464:176,1,112.5,8|0,0:0|0:0,0:0:0:0:
448,320,37784,2,0,P|404:300|328:300,1,112.5,0|0,3:0|0:0,0:0:0:0:
208,344,38148,5,8,0:0:0:0:
208,344,38330,1,0,0:0:0:0:
140,248,38511,2,0,L|160:136,2,112.5,0|8|8,3:0|0:0|0:0,0:0:0:0:
140,248,39057,1,0,0:0:0:0:
244,200,39239,1,0,3:0:0:0:
244,200,39420,2,0,L|236:88,2,112.5,8|6|2,0:0|0:0|0:0,0:0:0:0:
208,344,39966,5,2,0:0:0:0:
140,248,40148,1,2,0:0:0:0:
248,276,40330,2,0,L|380:304,1,112.5,2|2,0:0|0:0,0:0:0:0:
456,176,40693,2,0,L|345:199,1,112.5,2|2,0:0|0:0,0:0:0:0:
272,96,41057,6,0,L|496:80,1,225,8|0,0:0|3:0,0:0:0:0:
456,176,41602,2,0,L|345:199,1,112.5,8|8,0:0|0:0,0:0:0:0:
358,299,41966,1,0,0:0:0:0:
292,376,42148,1,0,3:0:0:0:
292,376,42330,1,0,0:0:0:0:
240,288,42511,6,0,L|16:304,1,225,8|0,0:0|3:0,0:0:0:0:
56,208,43057,2,0,L|168:184,1,112.5,8|8,0:0|0:0,0:0:0:0:
264,164,43420,1,0,0:0:0:0:
204,96,43602,1,0,3:0:0:0:
204,96,43784,1,0,0:0:0:0:
296,52,43966,6,0,P|367:17|475:108,1,225,8|0,0:0|3:0,0:0:0:0:
263,163,44511,2,0,P|353:221|446:167,2,225,8|0|8,0:0|0:0|0:0,0:0:0:0:
356,120,45420,6,0,L|324:336,1,202.500007724762,0|8,0:0|0:0,0:0:0:0:
263,163,46148,2,0,L|195:160,1,67.5000025749208,8|0,0:0|0:0,0:0:0:0:
223,313,46511,2,0,L|151:309,1,67.5000025749208,0|0,3:0|0:0,0:0:0:0:
12,336,46875,6,0,P|60:292|52:216,1,135.000005149842,8|8,0:0|0:0,0:0:0:0:
96,40,47602,2,0,P|77:102|123:163,1,135.000005149842,8|8,0:0|0:0,0:0:0:0:
336,116,48330,6,0,P|292:84|208:88,1,135.000005149842,8|8,0:0|0:0,0:0:0:0:
168,348,49057,2,0,P|221:355|294:312,1,135.000005149842,8|8,0:0|0:0,0:0:0:0:
289,317,49784,1,8,0:0:0:0:
292,236,51239,5,2,0:0:0:0:
275,138,51421,1,2,0:0:0:0:
199,202,51603,1,2,0:0:0:0:
199,202,51785,1,2,0:0:0:0:
351,177,51966,5,2,0:0:0:0:
197,117,52148,1,2,0:0:0:0:
222,280,52330,1,2,0:0:0:0:
222,280,52512,1,2,0:0:0:0:
372,260,52693,5,8,0:0:0:0:
466,208,52875,1,0,0:0:0:0:
452,304,53057,2,0,B|480:282|480:282|489:234|466:208,1,112.5,0|8,3:0|0:0,0:0:0:0:
239,178,53420,5,8,0:0:0:0:
142,127,53602,1,0,0:0:0:0:
159,222,53784,2,0,B|130:200|130:200|121:152|144:126,1,112.5,0|0,3:0|0:0,0:0:0:0:
228,68,54148,5,8,0:0:0:0:
300,32,54330,1,2,0:0:0:0:
304,56,54420,1,2,0:0:0:0:
308,80,54511,2,0,L|324:200,1,112.5,2|10,3:0|0:0,0:0:0:0:
304,236,54784,1,2,0:0:0:0:
272,272,54875,2,0,L|284:396,1,112.5,10|0,0:0|0:0,0:0:0:0:
112,376,55239,1,0,3:0:0:0:
72,80,55602,5,8,0:0:0:0:
12,144,55784,1,0,0:0:0:0:
96,168,55966,2,0,L|108:304,1,112.5,0|8,3:0|0:0,0:0:0:0:
257,359,56330,5,8,0:0:0:0:
272,272,56512,1,0,0:0:0:0:
341,325,56694,2,0,L|456:252,1,112.5,0|0,3:0|0:0,0:0:0:0:
448,152,57057,6,0,P|392:176|336:148,1,112.5,8|2,0:0|0:0,0:0:0:0:
312,140,57330,1,2,0:0:0:0:
276,120,57420,2,0,P|220:96|164:124,1,112.5,2|8,3:0|0:0,0:0:0:0:
104,168,57784,2,0,P|126:113|112:46,2,112.5,8|0|0,0:0|0:0|3:0,0:0:0:0:
60,340,58511,5,8,0:0:0:0:
152,328,58693,1,0,0:0:0:0:
96,256,58875,2,0,L|212:212,1,112.5,0|8,3:0|0:0,0:0:0:0:
416,248,59239,5,8,0:0:0:0:
324,236,59421,1,0,0:0:0:0:
380,164,59603,2,0,L|264:120,1,112.5,0|0,3:0|0:0,0:0:0:0:
208,40,59966,5,8,0:0:0:0:
138,69,60148,1,2,0:0:0:0:
144,92,60239,1,2,0:0:0:0:
152,112,60330,2,0,L|76:16,1,112.5,2|8,3:0|0:0,0:0:0:0:
64,160,60693,1,8,0:0:0:0:
220,72,60875,1,0,0:0:0:0:
8,84,61057,1,0,3:0:0:0:
68,348,61420,6,0,P|121:299|171:289,1,112.5,8|0,0:0|0:0,0:0:0:0:
125,206,61784,2,0,P|196:215|236:247,1,112.5,8|0,3:2|0:0,0:0:0:0:
265,162,62148,2,0,P|303:222|304:273,1,112.5,8|0,0:0|0:0,0:0:0:0:
392,244,62511,2,0,P|370:312|331:346,1,112.5,8|0,3:2|0:0,0:0:0:0:
158,289,62875,6,0,P|106:307|68:348,1,112.5,0|0,0:0|0:0,0:0:0:0:
227,238,63239,2,0,P|180:208|125:206,1,112.5,0|0,0:0|0:0,0:0:0:0:
306,261,63602,2,0,P|298:206|265:162,1,112.5,0|0,0:0|0:0,0:0:0:0:
342,339,63966,1,0,0:0:0:0:
363,321,64056,1,0,0:0:0:0:
379,298,64147,1,0,0:0:0:0:
389,271,64238,1,0,0:0:0:0:
392,244,64330,6,0,P|384:172|404:116,1,125.999996154785,12|0,0:0|0:0,0:0:0:0:
496,188,64693,1,0,3:0:0:0:
496,76,64875,1,8,0:0:0:0:
496,76,65057,2,0,L|376:36,1,125.999996154785,8|0,0:0|0:0,0:0:0:0:
296,68,65420,2,0,L|156:60,1,125.999996154785,0|0,3:0|0:0,0:0:0:0:
60,56,65784,6,0,P|96:120|80:176,1,125.999996154785,8|0,0:0|0:0,0:0:0:0:
228,144,66148,1,0,3:0:0:0:
324,244,66330,1,8,0:0:0:0:
324,244,66511,2,0,P|316:308|269:349,2,125.999996154785,8|0|0,0:0|0:0|3:0,0:0:0:0:
228,264,67057,1,0,0:0:0:0:
172,360,67239,6,0,P|127:317|120:256,1,125.999996154785,8|0,0:0|0:0,0:0:0:0:
228,264,67602,1,0,3:0:0:0:
148,176,67784,1,8,0:0:0:0:
148,176,67966,2,0,L|148:44,1,125.999996154785,8|0,0:0|0:0,0:0:0:0:
224,16,68330,2,0,L|260:136,1,125.999996154785,0|0,3:0|0:0,0:0:0:0:
356,80,68693,6,0,P|424:112|484:88,1,125.999996154785,8|0,0:0|0:0,0:0:0:0:
484,216,69057,1,0,3:0:0:0:
360,184,69239,1,8,0:0:0:0:
360,184,69420,2,0,L|376:324,1,125.999996154785,8|0,0:0|0:0,0:0:0:0:
264,340,69784,1,0,3:0:0:0:
284,240,69966,1,0,0:0:0:0:
163,256,70148,6,0,P|203:208|204:146,1,125.999996154785,12|0,0:0|0:0,0:0:0:0:
100,168,70511,1,0,3:0:0:0:
128,56,70693,1,8,0:0:0:0:
128,56,70875,2,0,L|264:48,1,125.999996154785,8|0,0:0|0:0,0:0:0:0:
325,120,71239,2,0,L|450:113,1,125.999996154785,0|0,3:0|0:0,0:0:0:0:
496,216,71602,6,0,P|424:192|364:216,1,125.999996154785,8|0,0:0|0:0,0:0:0:0:
424,320,71966,1,0,3:0:0:0:
312,344,72148,1,8,0:0:0:0:
312,344,72330,2,0,P|237:356|181:323,2,125.999996154785,8|0|0,0:0|0:0|3:0,0:0:0:0:
257,230,72875,1,0,0:0:0:0:
308,108,73057,6,0,L|48:144,1,251.999992309571,8|0,0:0|3:0,0:0:0:0:
84,20,73602,1,8,0:0:0:0:
192,40,73784,1,8,0:0:0:0:
182,160,73966,2,0,L|58:142,1,125.999996154785,0|0,0:0|3:0,0:0:0:0:
57,142,74330,1,0,0:0:0:0:
20,276,74511,6,0,P|96:236|144:256,2,125.999996154785,8|0|0,0:0|0:0|3:0,0:0:0:0:
100,352,75057,2,0,L|216:280,2,125.999996154785,8|0|8,0:0|0:0|0:0,0:0:0:0:
252,360,75602,1,0,3:0:0:0:
248,200,75784,1,8,0:0:0:0:
152,136,75966,6,0,L|288:116,1,125.999996154785,12|0,0:0|0:0,0:0:0:0:
352,172,76330,1,0,3:0:0:0:
432,268,76511,2,0,L|296:248,1,125.999996154785,8|8,0:0|0:0,0:0:0:0:
232,304,76875,1,0,0:0:0:0:
112,228,77057,1,0,3:0:0:0:
152,136,77239,1,0,0:0:0:0:
132,40,77420,6,0,P|76:75|60:152,2,125.999996154785,8|0|0,0:0|0:0|3:0,0:0:0:0:
232,68,77966,2,0,L|368:56,1,125.999996154785,8|0,0:0|0:0,0:0:0:0:
428,160,78330,2,0,L|292:148,1,125.999996154785,8|8,0:0|3:0,0:0:0:0:
356,240,78693,1,0,0:0:0:0:
328,336,78875,5,12,0:0:0:0:
232,304,79057,1,0,0:0:0:0:
132,316,79239,1,0,3:0:0:0:
52,376,79420,1,8,0:0:0:0:
40,276,79602,1,8,0:0:0:0:
100,196,79784,1,0,0:0:0:0:
200,176,79966,1,0,3:0:0:0:
200,176,80148,1,0,0:0:0:0:
296,244,80330,6,0,P|288:180|328:120,1,125.999996154785,8|0,0:0|0:0,0:0:0:0:
384,200,80693,1,0,3:0:0:0:
200,176,80875,2,0,L|204:40,1,125.999996154785,8|0,0:0|0:0,0:0:0:0:
472,136,81239,2,0,L|479:261,1,125.999996154785,8|0,0:0|3:0,0:0:0:0:
479,261,81602,1,8,0:0:0:0:
328,336,81784,5,12,0:0:0:0:
232,304,81966,1,0,0:0:0:0:
132,316,82148,1,0,3:0:0:0:
52,376,82329,1,8,0:0:0:0:
40,276,82511,1,8,0:0:0:0:
100,196,82693,1,0,0:0:0:0:
200,176,82875,1,0,3:0:0:0:
200,176,83057,1,8,0:0:0:0:
300,200,83239,5,8,0:0:0:0:
400,180,83420,1,0,0:0:0:0:
460,100,83602,1,8,3:0:0:0:
448,0,83784,1,0,0:0:0:0:
368,60,83965,1,8,0:0:0:0:
268,72,84147,1,2,0:0:0:0:
172,40,84329,1,8,3:0:0:0:
172,40,84511,1,2,0:0:0:0:
40,248,84693,6,0,P|100:200|56:48,1,251.999992309571,4|0,0:0|0:0,0:0:0:0:
281,252,85420,2,0,L|156:264,1,125.999996154785,4|0,0:0|0:0,0:0:0:0:
248,344,85784,2,0,L|373:358,1,125.999996154785,0|0,0:0|0:0,0:0:0:0:
368,204,86148,1,4,0:0:0:0:
208,168,86330,1,0,0:0:0:0:
448,152,86511,6,0,P|472:80|456:12,1,125.999996154785,4|0,0:0|0:0,0:0:0:0:
208,168,86875,2,0,P|184:96|200:28,1,125.999996154785,4|0,0:0|0:0,0:0:0:0:
368,204,87239,1,4,0:0:0:0:
368,204,87421,1,0,0:0:0:0:
208,168,87602,1,0,0:0:0:0:
448,152,87966,5,4,0:0:0:0:
168,248,88148,1,4,0:0:0:0:
