osu file format v14

[General]
AudioFilename: audio.mp3
AudioLeadIn: 0
PreviewTime: 64225
Countdown: 0
SampleSet: Soft
StackLeniency: 0.6
Mode: 0
LetterboxInBreaks: 0
WidescreenStoryboard: 1

[Editor]
Bookmarks: 4679,21770,27770,29952,44316,49770,51225,59588,88679
DistanceSpacing: 2.2
BeatDivisor: 4
GridSize: 16
TimelineZoom: 1.7

[Metadata]
Title:KUMAMIKO DANCING (TV Size)
TitleUnicode:KUMAMIKO DANCING (TV Size)
Artist:Hioka Natsumi & Yasumoto Hiroki feat. Kumaide-mura no Minasan
ArtistUnicode:日岡なつみ & 安元洋貴 feat. 熊出村のみなさん
Creator:No Dap
Version:Mackenzie's Hard
Source:くまみこ
Tags:ending yasumoto hiroki hioka natsumi momoka moeka shioi zero__wind underflow sylphi endroll elfin starberr alacat sekai-nyan sekaii mackenzie mirinh japanese pop anime 雨宿まち クマ井ナツ
BeatmapID:973808
BeatmapSetID:441668

[Difficulty]
HPDrainRate:5.5
CircleSize:3.4
OverallDifficulty:6
ApproachRate:7.8
SliderMultiplier:1.5
SliderTickRate:2

[Events]
//Background and Video events
0,0,"bgbgbgbgbbbgggbbbgggbgbgbgb.jpg",0,0
Video,-1150,"kumamiko.mp4"
//Break Periods
//Storyboard Layer 0 (Background)
//Storyboard Layer 1 (Fail)
//Storyboard Layer 2 (Pass)
//Storyboard Layer 3 (Foreground)
//Storyboard Layer 4 (Overlay)
//Storyboard Sound Samples

[TimingPoints]
316,363.636363636364,4,2,1,60,1,0
6134,-100,4,2,1,60,0,0
26497,-100,4,2,1,40,0,0
28316,-100,4,2,1,70,0,0
29406,-100,4,2,1,65,0,0
62906,-100,4,2,1,15,0,0
64316,-100,4,2,1,75,0,1
84679,-100,4,2,1,70,0,0
88679,-100,4,2,1,5,0,0

[Colours]
Combo1 : 232,116,0
Combo2 : 17,177,255
Combo3 : 230,230,0
Combo4 : 255,0,128

[HitObjects]
176,100,316,5,0,0:0:0:0:
256,192,406,12,0,4679,0:0:0:0:
166,125,5043,5,0,0:0:0:0:
185,296,5406,2,0,L|191:201,1,75,0|0,0:0|0:0,0:0:0:0:
275,193,5770,2,0,L|279:267,1,75,0|0,0:0|0:0,0:0:0:0:
352,322,6134,6,0,P|415:335|491:273,1,150,6|8,0:0|0:0,0:0:0:0:
403,246,6679,1,2,0:0:0:0:
312,237,6861,2,0,P|277:249|244:267,1,75,2|0,0:0|0:0,0:0:0:0:
361,160,7225,1,8,0:0:0:0:
450,164,7406,2,0,P|482:101|457:16,1,150,2|2,0:0|0:0,0:0:0:0:
384,68,7952,2,0,P|325:58|288:50,1,75,8|2,0:0|0:0,0:0:0:0:
229,95,8316,2,0,P|242:139|248:186,1,75,2|0,0:0|0:0,0:0:0:0:
361,160,8679,1,8,0:0:0:0:
346,146,9043,6,0,B|319:218|348:277|348:277|366:235,1,150,2|8,0:0|0:0,0:0:0:0:
248,249,9588,1,2,0:0:0:0:
193,321,9770,2,0,B|143:324|143:324|35:312,1,150,2|8,0:0|0:0,0:0:0:0:
122,226,10316,2,0,P|115:189|110:151,1,75,2|0,0:0|0:0,0:0:0:0:
229,199,10679,2,0,P|222:240|217:273,1,75,2|8,0:0|0:0,0:0:0:0:
335,244,11043,1,2,0:0:0:0:
320,155,11225,2,0,P|265:103|178:83,2,150,2|8|2,0:0|0:0|0:0,0:0:0:0:
349,142,12316,6,0,P|387:144|443:146,1,75,8|2,0:0|0:0,0:0:0:0:
458,228,12679,2,0,P|403:234|295:248,1,150,2|8,0:0|0:0,0:0:0:0:
186,280,13225,2,0,P|216:230|257:146,1,150,2|2,0:0|0:0,0:0:0:0:
184,93,13770,2,0,L|99:118,1,75,8|2,0:0|0:0,0:0:0:0:
39,205,14134,2,0,L|124:230,1,75,2|0,0:0|0:0,0:0:0:0:
186,280,14497,1,8,0:0:0:0:
175,304,14861,6,0,P|245:280|333:300,1,150,2|8,0:0|0:0,0:0:0:0:
384,353,15406,1,2,0:0:0:0:
446,287,15588,2,0,P|449:249|452:206,1,75,2|0,0:0|0:0,0:0:0:0:
339,128,15952,2,0,P|342:166|345:209,1,75,8|2,0:0|0:0,0:0:0:0:
446,118,16316,5,0,0:0:0:0:
446,118,16497,1,2,0:0:0:0:
379,36,16679,1,10,0:0:0:0:
379,36,16861,1,2,0:0:0:0:
256,78,17043,2,0,P|139:69|98:63,2,150,2|10|6,0:0|0:0|0:0,0:0:0:0:
211,164,17952,6,0,P|223:204|231:244,1,75,0|8,0:0|0:0,0:0:0:0:
188,325,18316,1,2,0:0:0:0:
105,232,18497,2,0,P|94:267|92:305,1,75,2|0,0:0|0:0,0:0:0:0:
177,353,18861,1,8,0:0:0:0:
270,323,19043,2,0,B|312:320|312:320|377:333|377:333|442:328,1,150,2|2,0:0|0:0,0:0:0:0:
488,261,19588,2,0,P|499:219|505:186,1,75,8|2,0:0|0:0,0:0:0:0:
406,191,19952,2,0,P|395:149|389:116,1,75,2|0,0:0|0:0,0:0:0:0:
422,25,20316,1,8,0:0:0:0:
474,114,20497,1,0,0:0:0:0:
406,191,20679,6,0,P|320:190|241:183,1,150,2|8,0:0|0:0,0:0:0:0:
191,115,21224,2,0,P|184:80|179:41,1,75,2|2,0:0|0:0,0:0:0:0:
87,76,21588,2,0,P|80:112|74:150,1,75,0|8,0:0|0:0,0:0:0:0:
138,277,21952,2,0,P|211:278|280:310,1,150,2|2,0:0|0:0,0:0:0:0:
365,355,22497,2,0,L|454:348,1,75,8|2,0:0|0:0,0:0:0:0:
405,188,22861,2,0,P|391:230|385:265,1,75,2|0,0:0|0:0,0:0:0:0:
483,264,23225,2,0,P|497:222|503:187,1,75,8|0,0:0|0:0,0:0:0:0:
385,91,23588,6,0,P|321:142|292:223,1,150,2|8,0:0|0:0,0:0:0:0:
385,260,24134,1,2,0:0:0:0:
359,354,24316,2,0,L|252:351,2,75,2|0|8,0:0|0:0|0:0,0:0:0:0:
484,257,24861,2,0,P|477:191|446:98,1,150,2|2,0:0|0:0,0:0:0:0:
361,147,25406,1,8,0:0:0:0:
342,47,25588,2,0,P|368:42|391:41,2,37.5,2|0|2,0:0|0:0|0:0,0:0:0:0:
275,168,25952,2,0,P|212:154|175:152,1,75,0|8,0:0|0:0,0:0:0:0:
154,67,26316,2,0,P|124:89|90:106,1,75
173,55,27952,6,0,L|162:134,1,75,0|0,0:0|0:0,0:0:0:0:
250,213,28316,2,0,L|239:292,1,75,2|0,0:0|0:0,0:0:0:0:
130,218,28679,6,0,L|141:144,1,75,2|0,0:0|0:0,0:0:0:0:
280,124,29043,2,0,L|269:203,1,75,2|0,0:0|0:0,0:0:0:0:
342,262,29406,6,0,B|386:218|459:234|459:234|450:266,1,150,6|8,0:0|0:0,0:0:0:0:
397,338,29952,1,2,0:0:0:0:
265,318,30134,2,0,L|168:315,1,75,0|0,0:0|0:0,0:0:0:0:
158,223,30497,2,0,L|255:220,1,75,8|0,0:0|0:0,0:0:0:0:
328,199,30861,6,0,P|319:140|263:55,1,150,2|8,0:0|0:0,0:0:0:0:
174,61,31406,2,0,P|169:100|159:159,2,75,2|0|0,0:0|0:0|0:0,0:0:0:0:
252,173,31952,2,0,P|246:210|241:247,1,75,8|0,0:0|0:0,0:0:0:0:
313,349,32316,6,0,P|389:331|428:271,1,150,2|8,0:0|0:0,0:0:0:0:
331,260,32861,1,2,0:0:0:0:
224,334,33043,2,0,P|163:331|116:327,2,75,2|0|8,0:0|0:0|0:0,0:0:0:0:
241,247,33588,6,0,P|164:206|81:201,1,150,2|0,0:0|0:0,0:0:0:0:
22,255,34134,2,0,P|11:192|17:158,1,75,8|2,0:0|0:0,0:0:0:0:
38,87,34497,1,2,0:0:0:0:
38,87,34679,1,0,0:0:0:0:
147,114,34861,1,8,0:0:0:0:
147,114,35043,1,0,0:0:0:0:
243,55,35225,6,0,B|286:42|286:42|332:42|417:66,1,150,2|8,0:0|0:0,0:0:0:0:
440,141,35770,1,2,0:0:0:0:
342,143,35952,2,0,P|327:208|326:237,1,75,0|0,0:0|0:0,0:0:0:0:
422,236,36316,2,0,P|427:273|437:309,1,75,8|0,0:0|0:0,0:0:0:0:
290,308,36679,6,0,P|208:291|123:296,1,150,2|8,0:0|0:0,0:0:0:0:
55,339,37225,2,0,L|-33:325,1,75,2|0,0:0|0:0,0:0:0:0:
57,240,37588,2,0,P|59:205|47:166,1,75,0|8,0:0|0:0,0:0:0:0:
21,74,37952,1,0,0:0:0:0:
119,99,38134,6,0,P|179:130|282:138,2,150,2|8|2,0:0|0:0|0:0,0:0:0:0:
191,33,39043,1,0,0:0:0:0:
317,65,39225,2,0,P|346:58|392:43,1,75,8|2,0:0|0:0,0:0:0:0:
380,149,39588,6,0,P|414:162|452:168,1,75,0|2,0:0|0:0,0:0:0:0:
389,254,39952,2,0,P|384:291|385:328,1,75,10|2,0:0|0:0,0:0:0:0:
292,276,40316,1,0,0:0:0:0:
275,189,40497,1,2,0:0:0:0:
197,250,40679,1,10,0:0:0:0:
180,337,40860,1,0,0:0:0:0:
88,302,41043,6,0,P|56:259|79:157,1,150,6|8,0:0|0:0,0:0:0:0:
117,83,41588,1,2,0:0:0:0:
171,163,41770,2,0,L|270:174,1,75,0|0,0:0|0:0,0:0:0:0:
303,61,42134,2,0,L|204:72,1,75,8|0,0:0|0:0,0:0:0:0:
337,147,42497,6,0,P|404:142|494:128,1,150,2|8,0:0|0:0,0:0:0:0:
455,223,43043,1,2,0:0:0:0:
503,307,43225,2,0,P|507:253|496:211,1,75,0|0,0:0|0:0,0:0:0:0:
370,270,43588,2,0,P|366:324|377:366,1,75,8|0,0:0|0:0,0:0:0:0:
266,251,43952,6,0,P|199:225|116:228,1,150,2|8,0:0|0:0,0:0:0:0:
131,367,44497,1,2,0:0:0:0:
215,339,44679,2,0,L|306:333,1,75
126,271,45043,2,0,L|35:265,1,75,8|2,0:0|0:0,0:0:0:0:
102,143,45406,5,0,0:0:0:0:
182,189,45588,2,0,P|205:150|212:116,2,75,2|8|0,0:0|0:0|0:0,0:0:0:0:
72,127,46134,2,0,P|62:87|62:50,2,75,2|0|8,0:0|0:0|0:0,0:0:0:0:
177,41,46679,1,0,0:0:0:0:
294,87,46861,6,0,L|393:73,1,75,6|0,0:0|0:0,0:0:0:0:
425,185,47225,2,0,L|350:195,1,75,6|0,0:0|0:0,0:0:0:0:
252,181,47588,6,0,L|351:195,1,75,6|0,0:0|0:0,0:0:0:0:
277,84,47952,2,0,L|203:74,1,75,6|0,0:0|0:0,0:0:0:0:
115,64,48316,6,0,L|214:50,1,75,6|0,0:0|0:0,0:0:0:0:
245,197,48680,2,0,L|170:207,1,75,6|0,0:0|0:0,0:0:0:0:
75,209,49043,6,0,L|149:219,1,75,6|0,0:0|0:0,0:0:0:0:
98,55,49407,2,0,L|23:44,1,75,6|0,0:0|0:0,0:0:0:0:
0,131,49770,5,0,0:0:0:0:
39,253,51225,6,0,L|138:267,1,75,0|0,0:0|0:0,0:0:0:0:
92,360,51588,2,0,L|191:374,1,75
132,265,51952,6,0,L|231:251,1,75,0|0,0:0|0:0,0:0:0:0:
181,355,52315,2,0,L|280:341,1,75,0|0,0:0|0:0,0:0:0:0:
383,352,52679,6,0,P|407:293|377:186,1,150,6|8,0:0|0:0,0:0:0:0:
295,217,53225,1,2,0:0:0:0:
326,125,53406,2,0,L|412:119,1,75,2|0,0:0|0:0,0:0:0:0:
467,215,53770,2,0,L|381:209,1,75,8|0,0:0|0:0,0:0:0:0:
466,24,54134,6,0,P|490:89|495:112,1,75,2|0,0:0|0:0,0:0:0:0:
475,124,54406,2,0,L|416:105,1,37.5,0|8,0:0|0:0,0:0:0:0:
370,33,54679,2,0,L|316:41,2,37.5,2|0|2,0:0|0:0|0:0,0:0:0:0:
330,131,55043,2,0,P|307:166|293:211,1,75,0|8,0:0|0:0,0:0:0:0:
153,17,55588,6,0,P|73:26|-7:42,1,150,2|8,0:0|0:0,0:0:0:0:
1,140,56134,1,2,0:0:0:0:
87,111,56316,2,0,B|114:166|97:232|97:232|77:198,1,150,2|8,0:0|0:0,0:0:0:0:
202,184,56861,1,0,0:0:0:0:
192,281,57043,6,0,P|197:339|210:369,1,75,2|0,0:0|0:0,0:0:0:0:
232,338,57316,2,0,L|276:342,1,37.5,0|8,0:0|0:0,0:0:0:0:
325,261,57588,1,2,0:0:0:0:
361,361,57770,2,0,P|412:360|448:346,2,75,2|0|8,0:0|0:0|0:0,0:0:0:0:
418,203,58497,6,0,P|427:137|406:54,1,150,2|8,0:0|0:0,0:0:0:0:
316,78,59043,1,0,0:0:0:0:
279,172,59225,2,0,P|286:234|292:258,1,75,2|0,0:0|0:0,0:0:0:0:
316,78,59588,2,0,P|280:34|247:10,1,75,8|0,0:0|0:0,0:0:0:0:
198,131,59952,6,0,P|158:152|123:161,1,75,2|0,0:0|0:0,0:0:0:0:
99,142,60225,2,0,L|36:142,1,37.5,0|8,0:0|0:0,0:0:0:0:
107,30,60497,2,0,P|39:11|1:13,1,75,2|2,0:0|0:0,0:0:0:0:
23,123,60861,1,0,0:0:0:0:
49,254,61043,1,8,0:0:0:0:
70,231,61406,6,0,L|80:337,1,75,2|0,0:0|0:0,0:0:0:0:
212,258,61770,2,0,L|219:183,1,75,2|0,0:0|0:0,0:0:0:0:
56,127,62134,6,0,L|66:233,1,75,2|0,0:0|0:0,0:0:0:0:
222,154,62498,2,0,L|229:79,1,75,2|0,0:0|0:0,0:0:0:0:
73,41,62861,1,2,0:0:0:0:
256,192,62952,12,0,63952,0:0:0:0:
326,324,64316,6,0,P|338:248|316:157,1,150,6|8,0:0|0:0,0:0:0:0:
227,168,64861,1,2,0:0:0:0:
154,233,65043,2,0,L|60:217,1,75,0|0,0:0|0:0,0:0:0:0:
116,99,65406,2,0,L|210:83,1,75,8|2,0:0|0:0,0:0:0:0:
43,24,65770,6,0,P|15:106|13:193,1,150,2|8,0:0|0:0,0:0:0:0:
111,182,66316,2,0,L|136:263,2,75,2|0|0,0:0|0:0|0:0,0:0:0:0:
218,99,66861,2,0,L|209:187,1,75,8|0,0:0|0:0,0:0:0:0:
214,315,67225,6,0,P|293:282|377:307,1,150,2|8,0:0|0:0,0:0:0:0:
424,361,67770,1,2,0:0:0:0:
489,243,67952,2,0,P|495:197|492:148,1,75,2|0,0:0|0:0,0:0:0:0:
332,187,68316,2,0,P|366:203|403:217,1,75,8|2,0:0|0:0,0:0:0:0:
408,119,68679,6,0,P|345:137|233:137,1,150,2|8,0:0|0:0,0:0:0:0:
179,86,69225,1,2,0:0:0:0:
114,158,69406,2,0,P|92:125|74:75,1,75,2|0,0:0|0:0,0:0:0:0:
36,221,69770,2,0,P|32:258|36:295,1,75,8|0,0:0|0:0,0:0:0:0:
173,253,70134,6,0,P|221:242|337:244,1,150,2|8,0:0|0:0,0:0:0:0:
388,312,70679,2,0,P|361:349|345:375,2,75,2|0|0,0:0|0:0|0:0,0:0:0:0:
501,271,71225,2,0,P|485:209|476:182,1,75,8|2,0:0|0:0,0:0:0:0:
399,146,71588,6,0,P|350:171|253:117,1,150,2|8,0:0|0:0,0:0:0:0:
284,42,72134,2,0,L|392:28,2,75,2|0|0,0:0|0:0|0:0,0:0:0:0:
186,33,72679,1,8,0:0:0:0:
169,129,72861,1,0,0:0:0:0:
209,217,73043,6,0,P|276:208|363:200,1,150,2|8,0:0|0:0,0:0:0:0:
368,326,73588,2,0,P|432:347|468:357,1,75,2|2,0:0|0:0,0:0:0:0:
442,251,73952,2,0,P|464:220|491:172,1,75,0|8,0:0|0:0,0:0:0:0:
452,90,74316,1,2,0:0:0:0:
341,123,74497,6,0,L|252:113,1,75,2|0,0:0|0:0,0:0:0:0:
311,230,74861,2,0,L|222:240,1,75,10|0,0:0|0:0,0:0:0:0:
249,101,75225,6,0,L|169:88,1,75,8|2,0:0|0:0,0:0:0:0:
232,255,75588,2,0,L|138:270,1,75,8|2,0:0|0:0,0:0:0:0:
55,239,75952,6,0,P|44:193|56:143,2,75,6|0|8,0:0|0:0|0:0,0:0:0:0:
144,173,76497,1,2,0:0:0:0:
236,165,76679,2,0,P|238:127|228:91,1,75,2|0,0:0|0:0,0:0:0:0:
103,90,77043,2,0,P|100:52|110:16,1,75,8|2,0:0|0:0,0:0:0:0:
228,0,77406,6,0,P|304:9|384:17,1,150,2|8,0:0|0:0,0:0:0:0:
416,106,77952,1,2,0:0:0:0:
318,97,78134,2,0,P|326:138|330:191,1,75,0|0,0:0|0:0,0:0:0:0:
475,174,78497,2,0,P|467:210|463:248,1,75,8|0,0:0|0:0,0:0:0:0:
391,312,78861,6,0,P|333:268|253:274,2,150,2|8|2,0:0|0:0|0:0,0:0:0:0:
318,376,79770,1,0,0:0:0:0:
221,353,79952,2,0,L|111:370,1,75,8|2,0:0|0:0,0:0:0:0:
30,317,80316,6,0,P|24:236|81:189,1,150,2|8,0:0|0:0,0:0:0:0:
148,250,80861,2,0,L|239:261,2,75,2|0|0,0:0|0:0|0:0,0:0:0:0:
199,98,81406,2,0,P|216:132|220:190,1,75,8|0,0:0|0:0,0:0:0:0:
105,103,81770,6,0,P|108:75|113:20,1,75,2|0,0:0|0:0,0:0:0:0:
143,212,82134,2,0,P|170:243|208:263,1,75,8|2,0:0|0:0,0:0:0:0:
205,129,82497,2,0,P|208:91|212:54,1,75,2|0,0:0|0:0,0:0:0:0:
52,185,82861,2,0,P|29:222|19:282,1,75,8|2,0:0|0:0,0:0:0:0:
71,330,83225,6,0,B|139:348|159:304|230:322,1,150,2|8,0:0|0:0,0:0:0:0:
309,356,83770,1,2,0:0:0:0:
369,284,83952,2,0,P|374:231|365:185,1,75,2|0,0:0|0:0,0:0:0:0:
237,151,84316,2,0,P|232:204|241:250,1,75,8|0,0:0|0:0,0:0:0:0:
339,123,84679,5,6,0:0:0:0:
222,246,85406,5,6,0:0:0:0:
339,147,86134,6,0,P|376:155|439:168,1,75,6|2,0:0|0:0,0:0:0:0:
279,227,86497,2,0,P|244:241|212:259,1,75,2|2,0:0|0:0,0:0:0:0:
265,81,86861,6,0,P|294:113|315:172,1,75,2|2,0:0|0:0,0:0:0:0:
177,232,87225,2,0,L|182:194,4,37.5,2|2|2|2|0,0:0|0:0|0:0|0:0|0:0,0:0:0:0:
151,257,87952,5,2,0:0:0:0:
110,135,88134,1,2,0:0:0:0:
256,192,88225,12,0,89043,0:0:0:0:
