osu file format v14

[General]
AudioFilename: audio.mp3
AudioLeadIn: 0
PreviewTime: 64225
Countdown: 0
SampleSet: Soft
StackLeniency: 0.6
Mode: 0
LetterboxInBreaks: 0
WidescreenStoryboard: 0

[Editor]
Bookmarks: 11952,29952,44316
DistanceSpacing: 2
BeatDivisor: 4
GridSize: 4
TimelineZoom: 2

[Metadata]
Title:KUMAMIKO DANCING (TV Size)
TitleUnicode:KUMAMIKO DANCING (TV Size)
Artist:Hioka Natsumi & Yasumoto Hiroki feat. Kumaide-mura no Minasan
ArtistUnicode:日岡なつみ & 安元洋貴 feat. 熊出村のみなさん
Creator:No Dap
Version:Insane
Source:くまみこ
Tags:ending yasumoto hiroki hioka natsumi momoka moeka shioi zero__wind underflow sylphi endroll elfin starberr alacat sekai-nyan sekaii mackenzie mirinh japanese pop anime 雨宿まち クマ井ナツ
BeatmapID:949948
BeatmapSetID:441668

[Difficulty]
HPDrainRate:7
CircleSize:3
OverallDifficulty:8
ApproachRate:9
SliderMultiplier:1.7
SliderTickRate:2

[Events]
//Background and Video events
0,0,"bgbgbgbgbbbgggbbbgggbgbgbgb.jpg",0,0
Video,-1150,"kumamiko.mp4"
//Break Periods
//Storyboard Layer 0 (Background)
//Storyboard Layer 1 (Fail)
//Storyboard Layer 2 (Pass)
//Storyboard Layer 3 (Foreground)
//Storyboard Layer 4 (Overlay)
//Storyboard Sound Samples

[TimingPoints]
316,363.636363636364,4,2,1,60,1,0
6134,-100,4,2,1,60,0,0
26497,-133.333333333333,4,2,1,40,0,0
28316,-133.333333333333,4,2,1,70,0,0
29406,-100,4,2,1,65,0,0
51225,-133.333333333333,4,2,1,40,0,0
52679,-100,4,2,1,65,0,0
62906,-100,4,2,1,15,0,0
64316,-100,4,2,1,75,0,1
84679,-100,4,2,1,70,0,0
88679,-100,4,2,1,5,0,0

[Colours]
Combo1 : 232,116,0
Combo2 : 17,177,255
Combo3 : 230,230,0
Combo4 : 255,0,128

[HitObjects]
367,191,6134,5,6,0:0:0:0:
367,191,6497,2,0,P|315:195|270:198,1,85,8|2,0:0|0:0,0:0:0:0:
147,175,6861,2,0,P|166:265|186:369,1,170,2|8,0:0|0:0,0:0:0:0:
270,296,7406,6,0,P|357:279|440:259,1,170,2|2,0:0|0:0,0:0:0:0:
337,74,7952,1,8,0:0:0:0:
275,197,8134,1,2,0:0:0:0:
442,283,8316,2,0,P|455:197|467:108,1,170,2|8,0:0|0:0,0:0:0:0:
444,73,9043,6,0,P|403:109|370:132,1,85,2|0,0:0|0:0,0:0:0:0:
253,76,9406,1,8,0:0:0:0:
364,233,9588,1,2,0:0:0:0:
262,312,9770,1,2,0:0:0:0:
262,312,10134,1,8,0:0:0:0:
453,286,10316,1,2,0:0:0:0:
262,312,10497,5,0,0:0:0:0:
453,286,10679,1,2,0:0:0:0:
310,156,10861,1,8,0:0:0:0:
360,336,11043,1,2,0:0:0:0:
405,140,11225,1,2,0:0:0:0:
225,187,11406,1,0,0:0:0:0:
333,246,11588,1,8,0:0:0:0:
361,52,11770,1,0,0:0:0:0:
117,66,11952,5,2,0:0:0:0:
117,66,12316,2,0,P|108:112|95:167,1,85,8|2,0:0|0:0,0:0:0:0:
57,243,12679,2,0,B|102:256|144:239|144:239|186:223|223:239,1,170,2|8,0:0|0:0,0:0:0:0:
317,342,13225,6,0,P|390:333|423:241,1,170,2|2,0:0|0:0,0:0:0:0:
299,138,13770,1,8,0:0:0:0:
338,256,13952,1,2,0:0:0:0:
472,147,14134,1,2,0:0:0:0:
172,82,14497,1,8,0:0:0:0:
56,228,14861,6,0,P|71:284|80:327,1,85,2|0,0:0|0:0,0:0:0:0:
246,203,15225,1,8,0:0:0:0:
267,357,15406,1,2,0:0:0:0:
176,291,15588,1,2,0:0:0:0:
176,291,15952,1,8,0:0:0:0:
344,221,16134,1,2,0:0:0:0:
176,291,16316,5,0,0:0:0:0:
344,221,16497,1,2,0:0:0:0:
245,146,16679,1,10,0:0:0:0:
293,322,16861,1,2,0:0:0:0:
424,182,17043,1,2,0:0:0:0:
254,236,17225,1,0,0:0:0:0:
384,308,17406,1,10,0:0:0:0:
359,99,17588,1,0,0:0:0:0:
164,222,17770,5,6,0:0:0:0:
164,222,18134,2,0,P|155:170|144:113,1,85,8|2,0:0|0:0,0:0:0:0:
278,56,18497,2,0,P|191:69|126:2,1,170,2|8,0:0|0:0,0:0:0:0:
390,33,19043,1,2,0:0:0:0:
390,33,19225,6,0,P|382:80|375:137,1,85,0|2,0:0|0:0,0:0:0:0:
355,292,19588,1,8,0:0:0:0:
280,178,19770,1,2,0:0:0:0:
468,107,19952,1,2,0:0:0:0:
451,253,20134,1,0,0:0:0:0:
280,178,20316,1,8,0:0:0:0:
376,134,20497,1,0,0:0:0:0:
310,351,20679,5,2,0:0:0:0:
310,351,21043,2,0,P|257:341|217:335,1,85,8|2,0:0|0:0,0:0:0:0:
30,282,21406,2,0,P|91:284|141:189,1,170,2|8,0:0|0:0,0:0:0:0:
44,88,21952,1,2,0:0:0:0:
230,74,22134,5,0,0:0:0:0:
144,201,22316,1,2,0:0:0:0:
230,74,22497,1,8,0:0:0:0:
113,13,22679,1,2,0:0:0:0:
227,240,22861,1,2,0:0:0:0:
320,112,23043,1,0,0:0:0:0:
143,99,23225,1,8,0:0:0:0:
320,112,23406,1,0,0:0:0:0:
239,340,23588,5,2,0:0:0:0:
239,340,23952,2,0,P|297:321|339:312,1,85,8|2,0:0|0:0,0:0:0:0:
149,263,24316,2,0,P|95:191|140:99,1,170,2|8,0:0|0:0,0:0:0:0:
281,28,24861,6,0,P|269:113|260:217,1,170,2|2,0:0|0:0,0:0:0:0:
413,312,25406,1,8,0:0:0:0:
354,160,25588,1,2,0:0:0:0:
317,287,25770,1,2,0:0:0:0:
461,198,25952,1,0,0:0:0:0:
256,123,26134,1,8,0:0:0:0:
461,198,26316,1,0,0:0:0:0:
258,361,26497,5,0,0:0:0:0:
258,361,26861,2,0,P|222:316|136:321,1,127.500004863739,0|0,0:0|0:0,0:0:0:0:
128,333,27770,2,0,L|109:198,1,127.500004863739,0|0,0:0|0:0,0:0:0:0:
213,39,28316,5,2,0:0:0:0:
200,165,28497,1,0,0:0:0:0:
371,330,28679,5,2,0:0:0:0:
332,166,28861,1,0,0:0:0:0:
242,289,29043,5,2,0:0:0:0:
440,165,29225,1,0,0:0:0:0:
312,44,29406,6,0,P|244:44|204:156,1,170,6|8,0:0|0:0,0:0:0:0:
283,249,29952,2,0,P|196:238|87:227,1,170,2|0,0:0|0:0,0:0:0:0:
227,356,30497,1,8,0:0:0:0:
379,301,30679,1,0,0:0:0:0:
283,249,30861,6,0,P|268:188|248:71,1,170,2|8,0:0|0:0,0:0:0:0:
362,36,31406,2,0,P|450:55|481:136,1,170,2|0,0:0|0:0,0:0:0:0:
267,188,31952,1,8,0:0:0:0:
383,131,32134,1,0,0:0:0:0:
364,309,32316,5,2,0:0:0:0:
364,309,32679,2,0,P|312:299|264:296,1,85,8|2,0:0|0:0,0:0:0:0:
94,239,33043,2,0,P|136:234|178:226,1,85,2|0,0:0|0:0,0:0:0:0:
285,150,33406,1,8,0:0:0:0:
159,323,33588,6,0,B|105:332|105:332|34:332|4:271,1,170,2|0,0:0|0:0,0:0:0:0:
92,133,34134,1,8,0:0:0:0:
159,323,34316,1,2,0:0:0:0:
213,148,34497,1,2,0:0:0:0:
76,246,34679,1,0,0:0:0:0:
295,196,34861,1,8,0:0:0:0:
255,343,35043,1,0,0:0:0:0:
213,148,35225,6,0,P|279:99|356:126,1,170,2|8,0:0|0:0,0:0:0:0:
398,321,35770,2,0,P|332:370|255:343,1,170,2|0,0:0|0:0,0:0:0:0:
138,333,36316,1,8,0:0:0:0:
212,172,36497,1,0,0:0:0:0:
30,91,36679,6,0,P|44:193|55:297,1,170,2|8,0:0|0:0,0:0:0:0:
284,344,37225,2,0,P|293:259|305:175,1,170,2|0,0:0|0:0,0:0:0:0:
343,64,37770,1,8,0:0:0:0:
189,150,37952,1,0,0:0:0:0:
410,272,38134,5,2,0:0:0:0:
410,272,38497,2,0,P|356:268|307:266,1,85,8|2,0:0|0:0,0:0:0:0:
135,164,38861,2,0,P|197:221|176:302,1,170,2|8,0:0|0:0,0:0:0:0:
33,88,39406,6,0,P|117:75|205:57,1,170,2|2,0:0|0:0,0:0:0:0:
282,238,39952,1,10,0:0:0:0:
312,68,40134,1,2,0:0:0:0:
317,336,40316,5,2,0:0:0:0:
214,148,40497,1,0,0:0:0:0:
397,110,40679,5,10,0:0:0:0:
194,259,40861,1,0,0:0:0:0:
419,361,41043,6,0,P|426:278|434:170,1,170,6|8,0:0|0:0,0:0:0:0:
217,71,41588,2,0,P|228:123|242:184,1,85,2|0,0:0|0:0,0:0:0:0:
314,240,41952,1,0,0:0:0:0:
314,57,42134,1,8,0:0:0:0:
156,206,42316,1,0,0:0:0:0:
335,147,42497,6,0,P|403:216|391:297,1,170,2|8,0:0|0:0,0:0:0:0:
205,281,43043,1,2,0:0:0:0:
232,121,43225,1,0,0:0:0:0:
91,195,43406,1,0,0:0:0:0:
231,306,43588,2,0,P|237:264|243:221,1,85,8|0,0:0|0:0,0:0:0:0:
54,77,43952,6,0,P|65:156|80:283,1,170,2|8,0:0|0:0,0:0:0:0:
328,330,44497,2,0,P|273:273|165:302,1,170,2|0,0:0|0:0,0:0:0:0:
314,30,45043,1,8,0:0:0:0:
167,120,45225,1,2,0:0:0:0:
306,258,45406,5,0,0:0:0:0:
273,126,45588,1,2,0:0:0:0:
192,250,45770,1,8,0:0:0:0:
370,163,45952,1,0,0:0:0:0:
187,67,46134,2,0,P|147:81|105:86,1,85,2|0,0:0|0:0,0:0:0:0:
306,258,46497,2,0,P|346:270|388:276,1,85,8|0,0:0|0:0,0:0:0:0:
27,304,46861,5,6,0:0:0:0:
485,304,47225,5,6,0:0:0:0:
141,22,47588,5,6,0:0:0:0:
256,347,47952,5,6,0:0:0:0:
371,22,48316,5,6,0:0:0:0:
164,315,48679,5,6,0:0:0:0:
436,123,49043,5,6,0:0:0:0:
86,85,49406,5,6,0:0:0:0:
256,192,49770,5,0,0:0:0:0:
148,275,51225,6,0,L|129:196,1,63.7500024318696
301,50,51588,2,0,L|282:130,1,63.7500024318696
73,97,51952,2,0,L|136:88,1,63.7500024318696
275,228,52316,2,0,L|212:215,1,63.7500024318696
384,95,52679,5,6,0:0:0:0:
384,95,52861,1,0,0:0:0:0:
275,228,53043,2,0,L|256:145,1,85,8|2,0:0|0:0,0:0:0:0:
332,315,53406,1,2,0:0:0:0:
332,315,53588,1,0,0:0:0:0:
487,174,53770,2,0,L|446:260,1,85,8|0,0:0|0:0,0:0:0:0:
248,359,54134,6,0,P|239:306|235:253,1,85,2|0,0:0|0:0,0:0:0:0:
278,200,54406,1,0,0:0:0:0:
278,200,54497,2,0,L|174:176,1,85,8|2,0:0|0:0,0:0:0:0:
111,161,54770,1,0,0:0:0:0:
111,161,54861,1,2,0:0:0:0:
225,72,55043,1,0,0:0:0:0:
168,277,55225,1,8,0:0:0:0:
168,277,55588,5,2,0:0:0:0:
320,229,55770,1,0,0:0:0:0:
320,229,55861,1,0,0:0:0:0:
320,229,55952,2,0,L|309:320,1,85,8|2,0:0|0:0,0:0:0:0:
217,175,56316,1,2,0:0:0:0:
320,64,56497,1,0,0:0:0:0:
320,64,56588,1,0,0:0:0:0:
320,64,56679,2,0,L|416:96,1,85,8|0,0:0|0:0,0:0:0:0:
204,17,57043,6,0,L|192:126,1,85,2|0,0:0|0:0,0:0:0:0:
141,169,57316,1,0,0:0:0:0:
141,169,57406,2,0,P|95:215|76:220,1,85,8|2,0:0|0:0,0:0:0:0:
335,197,57770,1,2,0:0:0:0:
194,101,57952,1,0,0:0:0:0:
251,278,58134,1,8,0:0:0:0:
251,278,58497,5,2,0:0:0:0:
385,245,58679,1,0,0:0:0:0:
305,87,58861,2,0,P|288:149|304:201,1,85,8|0,0:0|0:0,0:0:0:0:
384,40,59225,1,2,0:0:0:0:
221,13,59406,1,0,0:0:0:0:
384,40,59588,2,0,P|434:34|481:26,1,85,8|0,0:0|0:0,0:0:0:0:
290,168,59952,6,0,P|248:161|205:156,1,85,2|0,0:0|0:0,0:0:0:0:
132,201,60225,1,0,0:0:0:0:
132,201,60316,1,8,0:0:0:0:
244,66,60497,1,2,0:0:0:0:
246,261,60679,1,2,0:0:0:0:
141,105,60861,1,0,0:0:0:0:
356,66,61043,1,8,0:0:0:0:
356,66,61406,5,2,0:0:0:0:
387,243,61588,1,0,0:0:0:0:
460,95,61770,5,2,0:0:0:0:
275,162,61952,1,0,0:0:0:0:
234,59,62134,5,2,0:0:0:0:
387,243,62316,1,0,0:0:0:0:
175,337,62497,5,2,0:0:0:0:
275,162,62679,1,0,0:0:0:0:
474,292,62861,6,0,L|482:253,28,21.25,2|0|0|0|0|0|0|0|0|0|0|0|0|0|0|0|0|0|0|0|0|0|0|0|0|0|0|0|0,0:0|0:0|0:0|0:0|0:0|0:0|0:0|0:0|0:0|0:0|0:0|0:0|0:0|0:0|0:0|0:0|0:0|0:0|0:0|0:0|0:0|0:0|0:0|0:0|0:0|0:0|0:0|0:0|0:0,0:0:0:0:
474,292,64316,6,0,L|286:261,1,170,6|8,0:0|0:0,0:0:0:0:
173,130,64861,1,2,0:0:0:0:
302,27,65043,2,0,P|312:80|300:133,1,85,0|0,0:0|0:0,0:0:0:0:
134,307,65406,2,0,P|124:254|136:201,1,85,8|2,0:0|0:0,0:0:0:0:
5,153,65770,6,0,L|196:128,1,170,2|8,0:0|0:0,0:0:0:0:
344,143,66316,1,2,0:0:0:0:
274,268,66497,2,0,P|271:309|283:363,1,85,0|0,0:0|0:0,0:0:0:0:
107,220,66861,2,0,L|201:205,1,85,8|0,0:0|0:0,0:0:0:0:
344,143,67225,6,0,P|262:124|246:20,1,170,2|8,0:0|0:0,0:0:0:0:
440,112,67770,2,0,P|439:154|434:197,1,85,2|2,0:0|0:0,0:0:0:0:
268,299,68134,2,0,P|268:256|274:214,1,85,0|8,0:0|0:0,0:0:0:0:
384,353,68497,1,2,0:0:0:0:
155,371,68679,6,0,P|120:292|140:211,1,170,2|8,0:0|0:0,0:0:0:0:
292,99,69225,2,0,L|278:204,1,85,2|2,0:0|0:0,0:0:0:0:
465,296,69588,1,0,0:0:0:0:
393,185,69770,1,8,0:0:0:0:
424,23,69952,1,0,0:0:0:0:
292,99,70134,6,0,P|198:114|139:69,1,170,2|8,0:0|0:0,0:0:0:0:
424,23,70679,2,0,L|408:137,1,85,2|0,0:0|0:0,0:0:0:0:
295,337,71043,1,0,0:0:0:0:
216,140,71225,1,8,0:0:0:0:
398,139,71406,1,2,0:0:0:0:
269,220,71588,6,0,B|217:248|174:226|174:226|156:273|112:287,1,170,2|8,0:0|0:0,0:0:0:0:
436,245,72134,1,2,0:0:0:0:
232,58,72316,2,0,P|220:98|216:141,1,85,0|0,0:0|0:0,0:0:0:0:
413,8,72679,1,8,0:0:0:0:
232,58,72861,1,0,0:0:0:0:
420,148,73043,6,0,P|464:207|411:307,1,170,2|8,0:0|0:0,0:0:0:0:
205,289,73588,1,2,0:0:0:0:
345,229,73770,1,2,0:0:0:0:
215,146,73952,1,0,0:0:0:0:
97,265,74134,2,0,L|80:353,1,85,8|2,0:0|0:0,0:0:0:0:
18,198,74497,6,0,P|32:114|45:86,1,85,2|0,0:0|0:0,0:0:0:0:
144,67,74861,1,10,0:0:0:0:
97,265,75043,1,0,0:0:0:0:
273,365,75225,5,8,0:0:0:0:
195,150,75406,1,2,0:0:0:0:
401,19,75588,5,8,0:0:0:0:
310,253,75770,1,2,0:0:0:0:
465,202,75952,6,0,P|419:144|314:153,1,170,6|8,0:0|0:0,0:0:0:0:
310,253,76497,1,2,0:0:0:0:
310,253,76679,2,0,P|225:241|103:228,1,170,2|8,0:0|0:0,0:0:0:0:
60,303,77225,1,2,0:0:0:0:
329,150,77406,6,0,P|409:213|400:291,1,170,2|8,0:0|0:0,0:0:0:0:
213,129,77952,2,0,L|226:22,1,85,2|0,0:0|0:0,0:0:0:0:
108,247,78316,2,0,L|97:331,1,85,0|8,0:0|0:0,0:0:0:0:
40,131,78679,1,0,0:0:0:0:
254,314,78861,6,0,P|317:288|328:178,1,170,2|8,0:0|0:0,0:0:0:0:
260,84,79406,1,2,0:0:0:0:
135,313,79588,1,2,0:0:0:0:
166,120,79770,1,0,0:0:0:0:
77,207,79952,1,8,0:0:0:0:
268,247,80134,1,2,0:0:0:0:
376,68,80316,6,0,P|437:137|400:236,1,170,2|8,0:0|0:0,0:0:0:0:
225,157,80861,1,2,0:0:0:0:
269,43,81043,1,0,0:0:0:0:
351,260,81225,2,0,L|243:242,1,85,0|8,0:0|0:0,0:0:0:0:
166,294,81588,1,0,0:0:0:0:
437,349,81770,6,0,P|443:261|456:143,1,170,2|8,0:0|0:0,0:0:0:0:
185,32,82316,1,2,0:0:0:0:
185,32,82497,2,0,P|193:116|199:201,1,170,2|8,0:0|0:0,0:0:0:0:
113,334,83043,1,2,0:0:0:0:
105,189,83225,6,0,P|54:199|17:216,1,85,2|0,0:0|0:0,0:0:0:0:
270,287,83588,2,0,P|311:294|351:310,1,85,8|2,0:0|0:0,0:0:0:0:
270,151,83952,1,2,0:0:0:0:
176,243,84134,1,0,0:0:0:0:
115,77,84316,1,8,0:0:0:0:
317,34,84497,1,0,0:0:0:0:
270,287,84679,5,6,0:0:0:0:
270,287,85406,5,6,0:0:0:0:
270,287,86134,5,6,0:0:0:0:
312,76,86316,1,2,0:0:0:0:
119,38,86497,5,2,0:0:0:0:
183,271,86679,1,2,0:0:0:0:
424,46,86861,5,2,0:0:0:0:
174,127,87043,1,2,0:0:0:0:
417,314,87225,5,2,0:0:0:0:
312,76,87406,1,2,0:0:0:0:
82,249,87588,1,0,0:0:0:0:
82,249,87952,5,2,0:0:0:0:
82,249,88134,2,0,B|131:244|176:228|176:228|236:246|253:304|253:304|218:295|169:302,1,255,2|0,0:0|0:0,0:0:0:0:
