osu file format v14

[General]
AudioFilename: audio.mp3
AudioLeadIn: 0
PreviewTime: 64225
Countdown: 0
SampleSet: Soft
StackLeniency: 0.6
Mode: 0
LetterboxInBreaks: 0
WidescreenStoryboard: 0

[Editor]
Bookmarks: 32134
DistanceSpacing: 1
BeatDivisor: 2
GridSize: 4
TimelineZoom: 1

[Metadata]
Title:KUMAMIKO DANCING (TV Size)
TitleUnicode:KUMAMIKO DANCING (TV Size)
Artist:Hioka Natsumi & Yasumoto Hiroki feat. Kumaide-mura no Minasan
ArtistUnicode:日岡なつみ & 安元洋貴 feat. 熊出村のみなさん
Creator:No Dap
Version:Easy
Source:くまみこ
Tags:ending yasumoto hiroki hioka natsumi momoka moeka shioi zero__wind underflow sylphi endroll elfin starberr alacat sekai-nyan sekaii mackenzie mirinh japanese pop anime 雨宿まち クマ井ナツ
BeatmapID:956276
BeatmapSetID:441668

[Difficulty]
HPDrainRate:3
CircleSize:3
OverallDifficulty:2
ApproachRate:3
SliderMultiplier:0.999999999999999
SliderTickRate:2

[Events]
//Background and Video events
0,0,"bgbgbgbgbbbgggbbbgggbgbgbgb.jpg",0,0
Video,-1150,"kumamiko.mp4"
//Break Periods
//Storyboard Layer 0 (Background)
//Storyboard Layer 1 (Fail)
//Storyboard Layer 2 (Pass)
//Storyboard Layer 3 (Foreground)
//Storyboard Layer 4 (Overlay)
//Storyboard Sound Samples

[TimingPoints]
316,363.636363636364,4,2,1,60,1,0
6134,-100,4,2,1,60,0,0
26497,-100,4,2,1,40,0,0
28316,-100,4,2,1,70,0,0
29406,-100,4,2,1,65,0,0
64316,-100,4,2,1,75,0,1
84679,-100,4,2,1,70,0,0

[Colours]
Combo1 : 232,116,0
Combo2 : 17,177,255
Combo3 : 230,230,0
Combo4 : 255,0,128

[HitObjects]
95,125,6134,6,0,L|104:240,1,99.9999999999999,6|8,0:0|0:0,0:0:0:0:
158,308,6861,2,0,P|237:268|314:275,1,150,2|2,0:0|0:0,0:0:0:0:
383,319,7770,2,0,P|386:249|393:158,1,150,2|2,0:0|0:0,0:0:0:0:
417,72,8679,1,8,0:0:0:0:
327,26,9043,6,0,P|287:67|268:122,1,99.9999999999999,2|8,0:0|0:0,0:0:0:0:
264,206,9770,2,0,P|172:175|148:114,1,150,2|2,0:0|0:0,0:0:0:0:
87,54,10679,2,0,P|144:50|245:35,1,150,2|2,0:0|0:0,0:0:0:0:
329,72,11588,1,8,0:0:0:0:
417,119,11952,5,2,0:0:0:0:
341,184,12316,2,0,P|320:246|385:367,2,200,8|8|8,0:0|0:0|0:0,0:0:0:0:
417,119,14134,2,0,P|360:86|295:97,1,99.9999999999999,2|8,0:0|0:0,0:0:0:0:
259,159,14861,6,0,P|172:155|101:66,1,200,2|2,0:0|0:0,0:0:0:0:
29,141,15952,2,0,L|52:353,1,200,8|10,0:0|0:0,0:0:0:0:
140,295,17043,2,0,P|224:306|244:327,1,99.9999999999999,2|10,0:0|0:0,0:0:0:0:
314,370,17770,5,6,0:0:0:0:
403,325,18134,2,0,P|387:275|373:190,1,99.9999999999999,8|2,0:0|0:0,0:0:0:0:
425,140,18861,1,8,0:0:0:0:
355,67,19225,2,0,B|300:31|300:31|220:23|171:60,1,200,0|2,0:0|0:0,0:0:0:0:
105,135,20316,1,8,0:0:0:0:
174,206,20679,6,0,P|113:238|12:169,2,200,2|2|0,0:0|0:0|0:0,0:0:0:0:
240,131,22497,1,8,0:0:0:0:
314,197,22861,2,0,P|308:248|304:300,1,99.9999999999999,2|8,0:0|0:0,0:0:0:0:
392,343,23588,6,0,P|449:310|395:194,1,200,2|2,0:0|0:0,0:0:0:0:
314,197,24679,1,8,0:0:0:0:
244,269,25043,2,0,P|219:225|218:174,1,99.9999999999999,0|8,0:0|0:0,0:0:0:0:
119,157,25770,2,0,P|143:114|145:64,1,99.9999999999999,2|8,0:0|0:0,0:0:0:0:
237,25,26497,5,0,0:0:0:0:
296,246,28316,6,0,L|411:213,2,99.9999999999999,2|2|2,0:0|0:0|0:0,0:0:0:0:
211,299,29406,6,0,P|139:267|56:258,2,150,6|2|8,0:0|0:0|0:0,0:0:0:0:
296,246,30861,2,0,P|290:163|282:76,2,150,2|2|8,0:0|0:0|0:0,0:0:0:0:
357,325,32316,6,0,P|414:325|470:273,1,99.9999999999999,2|8,0:0|0:0,0:0:0:0:
468,205,33043,2,0,P|472:134|482:43,2,150,2|2|8,0:0|0:0|0:0,0:0:0:0:
374,240,34497,2,0,P|323:218|262:197,1,99.9999999999999,2|8,0:0|0:0,0:0:0:0:
207,271,35225,6,0,B|155:281|130:264|130:264|115:307|45:328,2,150,2|2|8,0:0|0:0|0:0,0:0:0:0:
281,203,36679,2,0,P|285:133|292:51,2,150,2|2|8,0:0|0:0|0:0,0:0:0:0:
193,153,38134,6,0,P|146:142|83:135,1,99.9999999999999,2|8,0:0|0:0,0:0:0:0:
53,227,38861,2,0,P|42:274|35:337,1,99.9999999999999,2|8,0:0|0:0,0:0:0:0:
133,347,39588,1,0,0:0:0:0:
209,282,39952,2,0,P|271:266|379:377,1,200,10|10,0:0|0:0,0:0:0:0:
438,266,41043,6,0,P|456:205|500:130,2,150,6|2|8,0:0|0:0|0:0,0:0:0:0:
372,341,42497,2,0,B|307:360|307:360|270:336|207:336,2,150,2|2|8,0:0|0:0|0:0,0:0:0:0:
367,240,43952,6,0,L|348:116,1,99.9999999999999,2|8,0:0|0:0,0:0:0:0:
254,119,44679,2,0,L|269:217,1,99.9999999999999,0|8,0:0|0:0,0:0:0:0:
194,285,45406,2,0,P|88:274|60:175,1,200,0|2,0:0|0:0,0:0:0:0:
103,108,46497,1,8,0:0:0:0:
256,192,46861,12,0,49770,0:0:0:0:
106,60,52679,6,0,L|122:199,1,99.9999999999999,6|8,0:0|0:0,0:0:0:0:
215,180,53406,2,0,L|231:319,1,99.9999999999999,2|8,0:0|0:0,0:0:0:0:
311,332,54134,2,0,P|399:280|390:169,1,200,2|2,0:0|0:0,0:0:0:0:
344,109,55225,1,8,0:0:0:0:
274,180,55588,6,0,P|220:168|146:153,1,99.9999999999999,2|8,0:0|0:0,0:0:0:0:
126,246,56316,2,0,P|77:256|28:267,1,99.9999999999999,2|8,0:0|0:0,0:0:0:0:
90,345,57043,2,0,B|158:357|158:357|216:312|308:342,1,200,2|2,0:0|0:0,0:0:0:0:
380,355,58134,1,8,0:0:0:0:
431,269,58497,6,0,L|444:131,1,99.9999999999999,2|8,0:0|0:0,0:0:0:0:
345,136,59225,2,0,L|358:-2,1,99.9999999999999,2|8,0:0|0:0,0:0:0:0:
254,35,59952,2,0,P|221:91|274:217,1,200,2|2,0:0|0:0,0:0:0:0:
347,264,61043,1,8,0:0:0:0:
256,192,61406,12,2,62861,0:0:0:0:
155,223,64316,6,0,P|145:138|128:49,2,150,6|2|8,0:0|0:0|0:0,0:0:0:0:
244,267,65770,2,0,P|313:238|386:225,2,150,2|2|8,0:0|0:0|0:0,0:0:0:0:
182,346,67225,6,0,P|128:335|63:325,1,99.9999999999999,2|8,0:0|0:0,0:0:0:0:
37,239,67952,2,0,P|47:190|55:140,1,99.9999999999999,2|8,0:0|0:0,0:0:0:0:
111,57,68679,1,2,0:0:0:0:
179,129,69043,2,0,P|276:142|361:93,1,200,8|8,0:0|0:0,0:0:0:0:
460,79,70134,6,0,L|449:267,2,150,2|2|8,0:0|0:0|0:0,0:0:0:0:
364,110,71588,2,0,L|355:259,2,150,2|2|8,0:0|0:0|0:0,0:0:0:0:
289,42,73043,6,0,P|233:49|174:60,1,99.9999999999999,2|8,0:0|0:0,0:0:0:0:
162,152,73770,2,0,P|218:145|277:134,1,99.9999999999999,2|8,0:0|0:0,0:0:0:0:
324,214,74497,1,2,0:0:0:0:
234,258,74861,2,0,P|241:304|253:380,2,99.9999999999999,10|8|8,0:0|0:0|0:0,0:0:0:0:
324,214,75952,6,0,P|349:158|236:84,1,200,6|2,0:0|0:0,0:0:0:0:
181,140,77043,1,8,0:0:0:0:
97,194,77406,2,0,P|82:146|88:97,1,99.9999999999999,2|8,0:0|0:0,0:0:0:0:
171,40,78134,2,0,P|223:39|288:32,1,99.9999999999999,0|8,0:0|0:0,0:0:0:0:
370,39,78861,6,0,P|462:140|431:189,1,200,2|2,0:0|0:0,0:0:0:0:
389,259,79952,1,8,0:0:0:0:
313,192,80316,2,0,P|240:164|129:141,2,150,2|2|8,0:0|0:0|0:0,0:0:0:0:
389,259,81770,6,0,L|378:361,1,99.9999999999999,2|8,0:0|0:0,0:0:0:0:
279,344,82497,2,0,P|230:330|187:305,1,99.9999999999999,2|8,0:0|0:0,0:0:0:0:
209,207,83225,2,0,P|217:157|222:108,1,99.9999999999999,2|8,0:0|0:0,0:0:0:0:
128,74,83952,2,0,P|119:123|114:172,1,99.9999999999999,2|8,0:0|0:0,0:0:0:0:
132,272,84679,5,6,0:0:0:0:
322,211,85406,1,6,0:0:0:0:
256,192,86134,12,0,87588,0:0:0:0:
