osu file format v14

[General]
AudioFilename: audio.mp3
AudioLeadIn: 0
PreviewTime: 40398
Countdown: 0
SampleSet: Soft
StackLeniency: 0.7
Mode: 3
LetterboxInBreaks: 0
SpecialStyle: 0
WidescreenStoryboard: 0

[Editor]
DistanceSpacing: 0.8
BeatDivisor: 4
GridSize: 8
TimelineZoom: 2.799999

[Metadata]
Title:Ultra Happy Miracle Bazoooooka!!
TitleUnicode:Ultra Happy Miracle Bazoooooka!!
Artist:Hinoisuka + Umeboshi Chazuke
ArtistUnicode:翡乃イスカ + 梅干茶漬け
Creator:[ Vento ]
Version:Extra
Source:BOFU2017
Tags:JS
BeatmapID:1444022
BeatmapSetID:682863

[Difficulty]
HPDrainRate:8
CircleSize:4
OverallDifficulty:8
ApproachRate:5
SliderMultiplier:1.4
SliderTickRate:1

[Events]
//Background and Video events
0,0,"thumb-1920-650441.png",0,0
//Break Periods
//Storyboard Layer 0 (Background)
//Storyboard Layer 1 (Fail)
//Storyboard Layer 2 (Pass)
//Storyboard Layer 3 (Foreground)
//Storyboard Sound Samples

[TimingPoints]
2073,300,4,2,0,100,1,0

[HitObjects]
448,192,2073,5,0,0:0:0:0:
320,192,2148,1,0,0:0:0:0:
192,192,2223,1,0,0:0:0:0:
64,192,2298,1,0,0:0:0:0:
320,192,2373,1,0,0:0:0:0:
448,192,2373,1,0,0:0:0:0:
192,192,2523,1,0,0:0:0:0:
448,192,2673,1,0,0:0:0:0:
64,192,2823,1,0,0:0:0:0:
320,192,3123,1,0,0:0:0:0:
448,192,3198,1,0,0:0:0:0:
320,192,3273,1,0,0:0:0:0:
64,192,3423,1,0,0:0:0:0:
192,192,3423,1,0,0:0:0:0:
320,192,3723,1,0,0:0:0:0:
192,192,3798,1,0,0:0:0:0:
320,192,3873,1,0,0:0:0:0:
64,192,4023,1,0,0:0:0:0:
192,192,4173,1,0,0:0:0:0:
320,192,4173,1,0,0:0:0:0:
64,192,4323,1,0,0:0:0:0:
320,192,4473,1,0,0:0:0:0:
448,192,4473,1,0,0:0:0:0:
192,192,4623,1,0,0:0:0:0:
448,192,4773,1,0,0:0:0:0:
320,192,4923,1,0,0:0:0:0:
64,192,5073,1,0,0:0:0:0:
448,192,5223,1,0,0:0:0:0:
192,192,5523,1,0,0:0:0:0:
320,192,5598,1,0,0:0:0:0:
448,192,5673,1,0,0:0:0:0:
64,192,5823,1,0,0:0:0:0:
320,192,5823,1,0,0:0:0:0:
448,192,6123,1,0,0:0:0:0:
320,192,6198,1,0,0:0:0:0:
192,192,6273,1,0,0:0:0:0:
64,192,6423,1,0,0:0:0:0:
64,192,6573,1,0,0:0:0:0:
448,192,6573,128,0,6873:0:0:0:0:
192,192,6723,1,0,0:0:0:0:
320,192,6873,128,0,7173:0:0:0:0:
64,192,6873,1,0,0:0:0:0:
448,192,7023,1,0,0:0:0:0:
192,192,7173,128,0,7323:0:0:0:0:
64,192,7173,1,0,0:0:0:0:
448,192,7323,1,0,0:0:0:0:
320,192,7398,1,0,0:0:0:0:
192,192,7473,1,0,0:0:0:0:
448,192,7473,1,0,0:0:0:0:
64,192,7548,1,0,0:0:0:0:
320,192,7623,1,0,0:0:0:0:
448,192,7698,1,0,0:0:0:0:
64,192,7773,1,0,0:0:0:0:
192,192,7773,1,0,0:0:0:0:
320,192,7848,1,0,0:0:0:0:
192,192,7923,1,0,0:0:0:0:
320,192,7998,1,0,0:0:0:0:
448,192,8073,1,0,0:0:0:0:
64,192,8073,1,0,0:0:0:0:
192,192,8223,1,0,0:0:0:0:
320,192,8273,1,0,0:0:0:0:
448,192,8323,1,0,0:0:0:0:
64,192,8373,1,0,0:0:0:0:
320,192,8373,1,0,0:0:0:0:
192,192,8448,1,0,0:0:0:0:
448,192,8523,1,0,0:0:0:0:
320,192,8598,1,0,0:0:0:0:
192,192,8673,1,0,0:0:0:0:
64,192,8673,1,0,0:0:0:0:
448,192,8748,1,0,0:0:0:0:
192,192,8823,1,0,0:0:0:0:
64,192,8898,1,0,0:0:0:0:
320,192,8973,1,0,0:0:0:0:
192,192,8973,1,0,0:0:0:0:
448,192,9048,1,0,0:0:0:0:
64,192,9048,1,0,0:0:0:0:
320,192,9123,1,0,0:0:0:0:
192,192,9198,1,0,0:0:0:0:
64,192,9273,1,0,0:0:0:0:
320,192,9273,1,0,0:0:0:0:
192,192,9348,1,0,0:0:0:0:
320,192,9423,1,0,0:0:0:0:
448,192,9423,1,0,0:0:0:0:
64,192,9498,1,0,0:0:0:0:
192,192,9573,1,0,0:0:0:0:
320,192,9573,1,0,0:0:0:0:
448,192,9648,1,0,0:0:0:0:
64,192,9723,1,0,0:0:0:0:
320,192,9723,1,0,0:0:0:0:
192,192,9798,1,0,0:0:0:0:
320,192,9873,1,0,0:0:0:0:
448,192,9873,1,0,0:0:0:0:
64,192,10023,1,0,0:0:0:0:
448,192,10023,1,0,0:0:0:0:
320,192,10098,1,0,0:0:0:0:
192,192,10098,1,0,0:0:0:0:
448,192,10173,1,0,0:0:0:0:
320,192,10248,1,0,0:0:0:0:
64,192,10323,1,0,0:0:0:0:
192,192,10323,1,0,0:0:0:0:
320,192,10398,1,0,0:0:0:0:
448,192,10473,1,0,0:0:0:0:
64,192,10548,1,0,0:0:0:0:
320,192,10623,1,0,0:0:0:0:
192,192,10623,1,0,0:0:0:0:
448,192,10623,1,0,0:0:0:0:
192,192,10923,1,0,0:0:0:0:
448,192,10923,1,0,0:0:0:0:
320,192,10923,1,0,0:0:0:0:
192,192,11073,1,0,0:0:0:0:
320,192,11073,1,0,0:0:0:0:
448,192,11073,1,0,0:0:0:0:
192,192,11223,1,0,0:0:0:0:
320,192,11223,1,0,0:0:0:0:
448,192,11223,1,0,0:0:0:0:
192,192,11373,1,0,0:0:0:0:
320,192,11373,1,0,0:0:0:0:
448,192,11373,1,0,0:0:0:0:
448,192,11673,1,0,0:0:0:0:
320,192,11710,1,0,0:0:0:0:
192,192,11748,1,0,0:0:0:0:
64,192,11785,1,0,0:0:0:0:
448,192,11823,1,0,0:0:0:0:
320,192,11860,1,0,0:0:0:0:
192,192,11898,1,0,0:0:0:0:
64,192,11935,1,0,0:0:0:0:
448,192,11973,1,0,0:0:0:0:
320,192,11973,1,0,0:0:0:0:
192,192,12048,1,0,0:0:0:0:
64,192,12123,1,0,0:0:0:0:
320,192,12198,1,0,0:0:0:0:
64,192,12273,1,0,0:0:0:0:
192,192,12273,1,0,0:0:0:0:
320,192,12348,1,0,0:0:0:0:
448,192,12423,1,0,0:0:0:0:
64,192,12498,1,0,0:0:0:0:
192,192,12573,1,0,0:0:0:0:
320,192,12573,1,0,0:0:0:0:
448,192,12648,1,0,0:0:0:0:
64,192,12723,1,0,0:0:0:0:
192,192,12798,1,0,0:0:0:0:
448,192,12798,1,0,0:0:0:0:
320,192,12873,1,0,0:0:0:0:
64,192,12948,1,0,0:0:0:0:
320,192,13023,1,0,0:0:0:0:
448,192,13023,1,0,0:0:0:0:
192,192,13098,1,0,0:0:0:0:
64,192,13173,1,0,0:0:0:0:
320,192,13173,1,0,0:0:0:0:
192,192,13248,1,0,0:0:0:0:
320,192,13323,1,0,0:0:0:0:
448,192,13323,1,0,0:0:0:0:
64,192,13398,1,0,0:0:0:0:
192,192,13473,1,0,0:0:0:0:
320,192,13473,1,0,0:0:0:0:
448,192,13548,1,0,0:0:0:0:
64,192,13623,1,0,0:0:0:0:
320,192,13623,1,0,0:0:0:0:
192,192,13698,1,0,0:0:0:0:
320,192,13773,1,0,0:0:0:0:
448,192,13773,1,0,0:0:0:0:
64,192,13848,1,0,0:0:0:0:
192,192,13923,1,0,0:0:0:0:
64,192,13998,1,0,0:0:0:0:
448,192,13998,1,0,0:0:0:0:
320,192,14073,1,0,0:0:0:0:
192,192,14148,1,0,0:0:0:0:
320,192,14223,1,0,0:0:0:0:
448,192,14223,1,0,0:0:0:0:
64,192,14298,1,0,0:0:0:0:
192,192,14373,1,0,0:0:0:0:
320,192,14373,1,0,0:0:0:0:
64,192,14448,1,0,0:0:0:0:
448,192,14523,1,0,0:0:0:0:
320,192,14598,1,0,0:0:0:0:
192,192,14673,1,0,0:0:0:0:
64,192,14673,1,0,0:0:0:0:
448,192,14748,1,0,0:0:0:0:
64,192,14823,1,0,0:0:0:0:
192,192,14898,1,0,0:0:0:0:
320,192,14973,1,0,0:0:0:0:
448,192,14973,1,0,0:0:0:0:
192,192,15048,1,0,0:0:0:0:
448,192,15123,1,0,0:0:0:0:
320,192,15198,1,0,0:0:0:0:
64,192,15198,1,0,0:0:0:0:
192,192,15273,1,0,0:0:0:0:
448,192,15348,1,0,0:0:0:0:
64,192,15423,1,0,0:0:0:0:
320,192,15423,1,0,0:0:0:0:
192,192,15498,1,0,0:0:0:0:
448,192,15573,1,0,0:0:0:0:
320,192,15573,1,0,0:0:0:0:
64,192,15723,1,0,0:0:0:0:
192,192,15798,1,0,0:0:0:0:
320,192,15873,1,0,0:0:0:0:
448,192,15948,1,0,0:0:0:0:
64,192,16023,1,0,0:0:0:0:
192,192,16098,1,0,0:0:0:0:
448,192,16173,1,0,0:0:0:0:
320,192,16323,1,0,0:0:0:0:
64,192,16473,1,0,0:0:0:0:
192,192,16473,1,0,0:0:0:0:
64,192,16623,1,0,0:0:0:0:
192,192,16773,1,0,0:0:0:0:
320,192,16773,1,0,0:0:0:0:
448,192,16773,1,0,0:0:0:0:
64,192,16848,1,0,0:0:0:0:
192,192,16923,1,0,0:0:0:0:
320,192,16998,1,0,0:0:0:0:
64,192,17073,1,0,0:0:0:0:
448,192,17073,1,0,0:0:0:0:
192,192,17148,1,0,0:0:0:0:
448,192,17223,1,0,0:0:0:0:
320,192,17298,1,0,0:0:0:0:
64,192,17373,1,0,0:0:0:0:
192,192,17373,1,0,0:0:0:0:
448,192,17448,1,0,0:0:0:0:
64,192,17523,1,0,0:0:0:0:
192,192,17598,1,0,0:0:0:0:
320,192,17673,1,0,0:0:0:0:
448,192,17673,1,0,0:0:0:0:
64,192,17748,1,0,0:0:0:0:
192,192,17823,1,0,0:0:0:0:
320,192,17823,1,0,0:0:0:0:
448,192,17898,1,0,0:0:0:0:
64,192,17973,1,0,0:0:0:0:
320,192,17973,1,0,0:0:0:0:
192,192,18048,1,0,0:0:0:0:
320,192,18123,1,0,0:0:0:0:
448,192,18123,1,0,0:0:0:0:
192,192,18198,1,0,0:0:0:0:
64,192,18273,1,0,0:0:0:0:
448,192,18273,1,0,0:0:0:0:
192,192,18348,1,0,0:0:0:0:
320,192,18423,1,0,0:0:0:0:
448,192,18423,1,0,0:0:0:0:
64,192,18498,1,0,0:0:0:0:
192,192,18573,1,0,0:0:0:0:
320,192,18573,1,0,0:0:0:0:
448,192,18648,1,0,0:0:0:0:
64,192,18723,1,0,0:0:0:0:
192,192,18723,1,0,0:0:0:0:
320,192,18798,1,0,0:0:0:0:
192,192,18873,1,0,0:0:0:0:
448,192,18873,1,0,0:0:0:0:
64,192,18948,1,0,0:0:0:0:
320,192,18948,1,0,0:0:0:0:
192,192,19023,1,0,0:0:0:0:
448,192,19023,1,0,0:0:0:0:
64,192,19098,1,0,0:0:0:0:
320,192,19098,1,0,0:0:0:0:
192,192,19173,1,0,0:0:0:0:
320,192,19248,1,0,0:0:0:0:
448,192,19323,1,0,0:0:0:0:
64,192,19323,1,0,0:0:0:0:
192,192,19398,1,0,0:0:0:0:
320,192,19473,1,0,0:0:0:0:
448,192,19473,1,0,0:0:0:0:
64,192,19548,1,0,0:0:0:0:
192,192,19548,1,0,0:0:0:0:
320,192,19623,1,0,0:0:0:0:
448,192,19623,1,0,0:0:0:0:
64,192,19698,1,0,0:0:0:0:
192,192,19698,1,0,0:0:0:0:
448,192,19773,1,0,0:0:0:0:
320,192,19773,1,0,0:0:0:0:
64,192,19848,1,0,0:0:0:0:
320,192,19923,1,0,0:0:0:0:
64,192,19998,1,0,0:0:0:0:
192,192,19998,1,0,0:0:0:0:
448,192,20073,1,0,0:0:0:0:
64,192,20148,1,0,0:0:0:0:
192,192,20223,1,0,0:0:0:0:
320,192,20223,1,0,0:0:0:0:
448,192,20298,1,0,0:0:0:0:
64,192,20373,128,0,20673:0:0:0:0:
192,192,20373,128,0,20673:0:0:0:0:
320,192,20373,1,0,0:0:0:0:
320,192,20523,1,0,0:0:0:0:
320,192,20673,1,0,0:0:0:0:
448,192,20673,1,0,0:0:0:0:
320,192,20823,1,0,0:0:0:0:
192,192,20898,1,0,0:0:0:0:
320,192,20973,1,0,0:0:0:0:
64,192,21048,1,0,0:0:0:0:
192,192,21123,1,0,0:0:0:0:
320,192,21123,1,0,0:0:0:0:
448,192,21273,1,0,0:0:0:0:
64,192,21573,1,0,0:0:0:0:
192,192,21610,1,0,0:0:0:0:
320,192,21648,1,0,0:0:0:0:
448,192,21685,1,0,0:0:0:0:
64,192,21723,1,0,0:0:0:0:
192,192,21760,1,0,0:0:0:0:
320,192,21798,1,0,0:0:0:0:
448,192,21835,1,0,0:0:0:0:
64,192,21873,1,0,0:0:0:0:
192,192,21873,1,0,0:0:0:0:
320,192,21948,1,0,0:0:0:0:
192,192,22023,1,0,0:0:0:0:
64,192,22023,1,0,0:0:0:0:
448,192,22098,1,0,0:0:0:0:
192,192,22173,1,0,0:0:0:0:
320,192,22173,1,0,0:0:0:0:
64,192,22248,1,0,0:0:0:0:
448,192,22323,1,0,0:0:0:0:
192,192,22398,1,0,0:0:0:0:
64,192,22473,1,0,0:0:0:0:
320,192,22473,1,0,0:0:0:0:
448,192,22548,1,0,0:0:0:0:
192,192,22623,1,0,0:0:0:0:
320,192,22698,1,0,0:0:0:0:
64,192,22773,1,0,0:0:0:0:
448,192,22773,128,0,22923:0:0:0:0:
192,192,22923,128,0,23073:0:0:0:0:
320,192,23073,1,0,0:0:0:0:
448,192,23073,1,0,0:0:0:0:
64,192,23148,1,0,0:0:0:0:
192,192,23148,1,0,0:0:0:0:
320,192,23223,1,0,0:0:0:0:
448,192,23223,1,0,0:0:0:0:
64,192,23298,1,0,0:0:0:0:
192,192,23298,1,0,0:0:0:0:
320,192,23373,1,0,0:0:0:0:
448,192,23373,1,0,0:0:0:0:
192,192,23598,1,0,0:0:0:0:
448,192,23598,1,0,0:0:0:0:
448,192,23823,1,0,0:0:0:0:
64,192,23823,1,0,0:0:0:0:
192,192,23973,1,0,0:0:0:0:
320,192,23973,1,0,0:0:0:0:
64,192,24048,1,0,0:0:0:0:
448,192,24123,1,0,0:0:0:0:
192,192,24198,1,0,0:0:0:0:
320,192,24273,1,0,0:0:0:0:
448,192,24273,1,0,0:0:0:0:
64,192,24348,1,0,0:0:0:0:
448,192,24423,1,0,0:0:0:0:
192,192,24498,1,0,0:0:0:0:
64,192,24573,1,0,0:0:0:0:
320,192,24573,1,0,0:0:0:0:
192,192,24648,1,0,0:0:0:0:
448,192,24723,1,0,0:0:0:0:
320,192,24798,1,0,0:0:0:0:
64,192,24873,1,0,0:0:0:0:
448,192,24873,1,0,0:0:0:0:
192,192,24948,1,0,0:0:0:0:
320,192,24948,1,0,0:0:0:0:
64,192,25023,1,0,0:0:0:0:
448,192,25023,1,0,0:0:0:0:
192,192,25098,1,0,0:0:0:0:
320,192,25098,1,0,0:0:0:0:
448,192,25173,1,0,0:0:0:0:
64,192,25173,1,0,0:0:0:0:
320,192,25248,1,0,0:0:0:0:
192,192,25323,1,0,0:0:0:0:
64,192,25398,1,0,0:0:0:0:
320,192,25473,1,0,0:0:0:0:
448,192,25473,1,0,0:0:0:0:
192,192,25548,1,0,0:0:0:0:
64,192,25623,1,0,0:0:0:0:
320,192,25698,1,0,0:0:0:0:
192,192,25773,1,0,0:0:0:0:
448,192,25773,1,0,0:0:0:0:
320,192,25923,1,0,0:0:0:0:
64,192,26073,1,0,0:0:0:0:
448,192,26073,1,0,0:0:0:0:
192,192,26073,1,0,0:0:0:0:
320,192,26223,1,0,0:0:0:0:
448,192,26298,1,0,0:0:0:0:
64,192,26373,1,0,0:0:0:0:
192,192,26373,1,0,0:0:0:0:
320,192,26448,1,0,0:0:0:0:
192,192,26523,1,0,0:0:0:0:
448,192,26598,1,0,0:0:0:0:
192,192,26673,1,0,0:0:0:0:
320,192,26673,1,0,0:0:0:0:
64,192,26748,1,0,0:0:0:0:
192,192,26823,1,0,0:0:0:0:
448,192,26823,1,0,0:0:0:0:
320,192,26898,1,0,0:0:0:0:
64,192,26973,1,0,0:0:0:0:
448,192,26973,1,0,0:0:0:0:
192,192,27048,1,0,0:0:0:0:
448,192,27123,1,0,0:0:0:0:
320,192,27123,1,0,0:0:0:0:
192,192,27198,1,0,0:0:0:0:
448,192,27273,1,0,0:0:0:0:
64,192,27273,1,0,0:0:0:0:
320,192,27348,1,0,0:0:0:0:
192,192,27423,1,0,0:0:0:0:
64,192,27498,1,0,0:0:0:0:
320,192,27573,1,0,0:0:0:0:
448,192,27573,1,0,0:0:0:0:
192,192,27648,1,0,0:0:0:0:
64,192,27648,1,0,0:0:0:0:
448,192,27723,1,0,0:0:0:0:
320,192,27798,1,0,0:0:0:0:
192,192,27873,1,0,0:0:0:0:
448,192,27873,1,0,0:0:0:0:
320,192,27948,1,0,0:0:0:0:
64,192,28023,1,0,0:0:0:0:
192,192,28098,1,0,0:0:0:0:
64,192,28173,1,0,0:0:0:0:
320,192,28173,1,0,0:0:0:0:
192,192,28248,1,0,0:0:0:0:
320,192,28323,1,0,0:0:0:0:
448,192,28323,1,0,0:0:0:0:
64,192,28398,1,0,0:0:0:0:
192,192,28398,1,0,0:0:0:0:
320,192,28473,1,0,0:0:0:0:
448,192,28473,1,0,0:0:0:0:
64,192,28548,1,0,0:0:0:0:
192,192,28548,1,0,0:0:0:0:
320,192,28623,1,0,0:0:0:0:
448,192,28623,1,0,0:0:0:0:
64,192,28698,1,0,0:0:0:0:
192,192,28698,1,0,0:0:0:0:
320,192,28773,1,0,0:0:0:0:
448,192,28773,1,0,0:0:0:0:
192,192,28848,1,0,0:0:0:0:
64,192,28923,1,0,0:0:0:0:
192,192,28998,1,0,0:0:0:0:
64,192,29073,1,0,0:0:0:0:
448,192,29148,1,0,0:0:0:0:
320,192,29223,1,0,0:0:0:0:
192,192,29223,1,0,0:0:0:0:
64,192,29298,1,0,0:0:0:0:
192,192,29373,1,0,0:0:0:0:
320,192,29373,1,0,0:0:0:0:
448,192,29373,1,0,0:0:0:0:
64,192,29448,1,0,0:0:0:0:
320,192,29523,1,0,0:0:0:0:
192,192,29598,1,0,0:0:0:0:
64,192,29673,1,0,0:0:0:0:
448,192,29673,1,0,0:0:0:0:
192,192,29748,1,0,0:0:0:0:
320,192,29748,1,0,0:0:0:0:
64,192,29823,1,0,0:0:0:0:
448,192,29823,1,0,0:0:0:0:
192,192,29898,1,0,0:0:0:0:
320,192,29898,1,0,0:0:0:0:
64,192,29973,1,0,0:0:0:0:
448,192,29973,1,0,0:0:0:0:
320,192,30048,1,0,0:0:0:0:
192,192,30123,1,0,0:0:0:0:
448,192,30123,1,0,0:0:0:0:
320,192,30198,1,0,0:0:0:0:
64,192,30198,1,0,0:0:0:0:
192,192,30273,1,0,0:0:0:0:
448,192,30348,1,0,0:0:0:0:
320,192,30423,1,0,0:0:0:0:
192,192,30423,1,0,0:0:0:0:
64,192,30498,1,0,0:0:0:0:
320,192,30573,1,0,0:0:0:0:
448,192,30573,1,0,0:0:0:0:
192,192,30648,1,0,0:0:0:0:
64,192,30723,1,0,0:0:0:0:
320,192,30798,1,0,0:0:0:0:
192,192,30873,1,0,0:0:0:0:
448,192,30873,1,0,0:0:0:0:
320,192,30948,1,0,0:0:0:0:
192,192,31023,1,0,0:0:0:0:
64,192,31098,1,0,0:0:0:0:
192,192,31173,1,0,0:0:0:0:
320,192,31173,1,0,0:0:0:0:
320,192,31323,1,0,0:0:0:0:
448,192,31398,1,0,0:0:0:0:
320,192,31473,1,0,0:0:0:0:
192,192,31523,1,0,0:0:0:0:
64,192,31573,1,0,0:0:0:0:
320,192,31623,1,0,0:0:0:0:
448,192,31623,1,0,0:0:0:0:
64,192,31698,1,0,0:0:0:0:
192,192,31698,1,0,0:0:0:0:
320,192,31773,128,0,31923:0:0:0:0:
448,192,31773,128,0,31923:0:0:0:0:
320,192,31998,128,0,32148:0:0:0:0:
448,192,31998,128,0,32148:0:0:0:0:
320,192,32223,128,0,32373:0:0:0:0:
448,192,32223,128,0,32373:0:0:0:0:
64,192,32373,1,0,0:0:0:0:
192,192,32373,1,0,0:0:0:0:
448,192,32448,1,0,0:0:0:0:
64,192,32523,1,0,0:0:0:0:
192,192,32523,1,0,0:0:0:0:
448,192,32598,1,0,0:0:0:0:
64,192,32673,1,0,0:0:0:0:
192,192,32673,1,0,0:0:0:0:
320,192,32673,1,0,0:0:0:0:
448,192,32748,1,0,0:0:0:0:
192,192,32823,1,0,0:0:0:0:
320,192,32823,1,0,0:0:0:0:
64,192,32898,1,0,0:0:0:0:
448,192,32898,1,0,0:0:0:0:
192,192,32973,1,0,0:0:0:0:
320,192,32973,1,0,0:0:0:0:
64,192,33048,1,0,0:0:0:0:
192,192,33123,1,0,0:0:0:0:
448,192,33123,1,0,0:0:0:0:
320,192,33198,1,0,0:0:0:0:
64,192,33198,1,0,0:0:0:0:
192,192,33273,1,0,0:0:0:0:
448,192,33273,1,0,0:0:0:0:
320,192,33348,1,0,0:0:0:0:
64,192,33423,1,0,0:0:0:0:
192,192,33423,1,0,0:0:0:0:
448,192,33498,1,0,0:0:0:0:
320,192,33498,1,0,0:0:0:0:
64,192,33573,1,0,0:0:0:0:
192,192,33573,1,0,0:0:0:0:
448,192,33648,1,0,0:0:0:0:
64,192,33723,1,0,0:0:0:0:
192,192,33798,1,0,0:0:0:0:
320,192,33873,1,0,0:0:0:0:
448,192,33873,1,0,0:0:0:0:
64,192,33948,1,0,0:0:0:0:
192,192,33948,1,0,0:0:0:0:
320,192,34023,1,0,0:0:0:0:
448,192,34023,1,0,0:0:0:0:
192,192,34098,1,0,0:0:0:0:
64,192,34173,1,0,0:0:0:0:
448,192,34173,1,0,0:0:0:0:
320,192,34248,1,0,0:0:0:0:
64,192,34323,1,0,0:0:0:0:
192,192,34398,1,0,0:0:0:0:
448,192,34473,1,0,0:0:0:0:
320,192,34473,1,0,0:0:0:0:
64,192,34548,1,0,0:0:0:0:
448,192,34623,1,0,0:0:0:0:
320,192,34698,1,0,0:0:0:0:
192,192,34773,1,0,0:0:0:0:
64,192,34773,1,0,0:0:0:0:
320,192,34848,1,0,0:0:0:0:
448,192,34923,1,0,0:0:0:0:
320,192,34960,1,0,0:0:0:0:
192,192,34998,1,0,0:0:0:0:
64,192,35035,1,0,0:0:0:0:
320,192,35073,1,0,0:0:0:0:
448,192,35073,1,0,0:0:0:0:
64,192,35148,1,0,0:0:0:0:
192,192,35148,1,0,0:0:0:0:
320,192,35223,1,0,0:0:0:0:
448,192,35223,1,0,0:0:0:0:
64,192,35298,1,0,0:0:0:0:
192,192,35298,1,0,0:0:0:0:
448,192,35373,1,0,0:0:0:0:
320,192,35373,1,0,0:0:0:0:
192,192,35448,1,0,0:0:0:0:
448,192,35523,1,0,0:0:0:0:
64,192,35598,1,0,0:0:0:0:
320,192,35598,1,0,0:0:0:0:
192,192,35673,1,0,0:0:0:0:
448,192,35673,1,0,0:0:0:0:
64,192,35748,1,0,0:0:0:0:
192,192,35823,1,0,0:0:0:0:
320,192,35823,1,0,0:0:0:0:
448,192,35898,1,0,0:0:0:0:
192,192,35973,128,0,36123:0:0:0:0:
64,192,35973,1,0,0:0:0:0:
320,192,35973,1,0,0:0:0:0:
320,192,36123,128,0,36273:0:0:0:0:
448,192,36123,1,0,0:0:0:0:
64,192,36273,1,0,0:0:0:0:
448,192,36273,1,0,0:0:0:0:
192,192,36348,1,0,0:0:0:0:
320,192,36348,1,0,0:0:0:0:
64,192,36423,1,0,0:0:0:0:
448,192,36423,1,0,0:0:0:0:
192,192,36498,1,0,0:0:0:0:
320,192,36498,1,0,0:0:0:0:
448,192,36573,1,0,0:0:0:0:
64,192,36648,1,0,0:0:0:0:
448,192,36723,1,0,0:0:0:0:
64,192,36798,1,0,0:0:0:0:
320,192,36873,1,0,0:0:0:0:
448,192,36873,1,0,0:0:0:0:
64,192,36948,1,0,0:0:0:0:
192,192,36948,1,0,0:0:0:0:
320,192,37023,1,0,0:0:0:0:
448,192,37023,1,0,0:0:0:0:
64,192,37098,1,0,0:0:0:0:
192,192,37098,1,0,0:0:0:0:
320,192,37173,1,0,0:0:0:0:
448,192,37173,1,0,0:0:0:0:
192,192,37248,1,0,0:0:0:0:
64,192,37323,1,0,0:0:0:0:
448,192,37398,1,0,0:0:0:0:
192,192,37473,1,0,0:0:0:0:
320,192,37473,1,0,0:0:0:0:
448,192,37548,1,0,0:0:0:0:
64,192,37623,1,0,0:0:0:0:
192,192,37698,1,0,0:0:0:0:
320,192,37773,1,0,0:0:0:0:
448,192,37773,1,0,0:0:0:0:
192,192,37848,1,0,0:0:0:0:
448,192,37923,1,0,0:0:0:0:
64,192,37998,1,0,0:0:0:0:
192,192,38073,1,0,0:0:0:0:
448,192,38073,1,0,0:0:0:0:
320,192,38148,1,0,0:0:0:0:
192,192,38223,1,0,0:0:0:0:
448,192,38298,1,0,0:0:0:0:
64,192,38373,1,0,0:0:0:0:
320,192,38373,1,0,0:0:0:0:
192,192,38448,1,0,0:0:0:0:
320,192,38523,1,0,0:0:0:0:
448,192,38523,1,0,0:0:0:0:
64,192,38598,1,0,0:0:0:0:
320,192,38673,1,0,0:0:0:0:
448,192,38673,1,0,0:0:0:0:
192,192,38748,1,0,0:0:0:0:
64,192,38748,1,0,0:0:0:0:
320,192,38823,1,0,0:0:0:0:
448,192,38823,1,0,0:0:0:0:
64,192,38898,1,0,0:0:0:0:
192,192,38898,1,0,0:0:0:0:
320,192,38973,1,0,0:0:0:0:
448,192,38973,1,0,0:0:0:0:
64,192,39198,1,0,0:0:0:0:
192,192,39198,1,0,0:0:0:0:
320,192,39198,1,0,0:0:0:0:
192,192,39423,1,0,0:0:0:0:
320,192,39423,1,0,0:0:0:0:
448,192,39423,1,0,0:0:0:0:
64,192,39573,128,0,39873:0:0:0:0:
448,192,39573,128,0,39723:0:0:0:0:
192,192,39573,1,0,0:0:0:0:
320,192,39648,1,0,0:0:0:0:
192,192,39723,1,0,0:0:0:0:
448,192,39798,1,0,0:0:0:0:
320,192,39873,1,0,0:0:0:0:
448,192,39948,1,0,0:0:0:0:
192,192,40023,1,0,0:0:0:0:
64,192,40098,1,0,0:0:0:0:
320,192,40173,1,0,0:0:0:0:
448,192,40248,1,0,0:0:0:0:
64,192,40323,1,0,0:0:0:0:
320,192,40398,1,0,0:0:0:0:
448,192,40473,1,0,0:0:0:0:
192,192,40473,1,0,0:0:0:0:
64,192,40473,1,0,0:0:0:0:
320,192,40548,1,0,0:0:0:0:
192,192,40623,1,0,0:0:0:0:
64,192,40698,1,0,0:0:0:0:
192,192,40773,1,0,0:0:0:0:
448,192,40773,1,0,0:0:0:0:
320,192,40848,1,0,0:0:0:0:
64,192,40923,1,0,0:0:0:0:
448,192,40998,1,0,0:0:0:0:
192,192,41073,1,0,0:0:0:0:
320,192,41073,1,0,0:0:0:0:
64,192,41148,1,0,0:0:0:0:
320,192,41223,1,0,0:0:0:0:
192,192,41298,1,0,0:0:0:0:
64,192,41373,1,0,0:0:0:0:
448,192,41373,1,0,0:0:0:0:
192,192,41448,1,0,0:0:0:0:
448,192,41523,1,0,0:0:0:0:
192,192,41598,1,0,0:0:0:0:
320,192,41598,1,0,0:0:0:0:
64,192,41673,1,0,0:0:0:0:
448,192,41673,1,0,0:0:0:0:
192,192,41748,1,0,0:0:0:0:
448,192,41823,1,0,0:0:0:0:
320,192,41823,1,0,0:0:0:0:
64,192,41898,1,0,0:0:0:0:
448,192,41973,1,0,0:0:0:0:
192,192,41973,1,0,0:0:0:0:
320,192,42048,1,0,0:0:0:0:
192,192,42123,1,0,0:0:0:0:
448,192,42123,1,0,0:0:0:0:
64,192,42198,1,0,0:0:0:0:
320,192,42273,1,0,0:0:0:0:
448,192,42273,1,0,0:0:0:0:
64,192,42348,1,0,0:0:0:0:
448,192,42423,1,0,0:0:0:0:
192,192,42423,1,0,0:0:0:0:
320,192,42498,1,0,0:0:0:0:
192,192,42573,1,0,0:0:0:0:
64,192,42573,1,0,0:0:0:0:
448,192,42648,1,0,0:0:0:0:
320,192,42723,1,0,0:0:0:0:
192,192,42723,1,0,0:0:0:0:
64,192,42798,1,0,0:0:0:0:
192,192,42873,1,0,0:0:0:0:
320,192,42873,1,0,0:0:0:0:
448,192,42948,1,0,0:0:0:0:
64,192,43023,1,0,0:0:0:0:
320,192,43098,1,0,0:0:0:0:
192,192,43173,1,0,0:0:0:0:
448,192,43173,1,0,0:0:0:0:
320,192,43248,1,0,0:0:0:0:
64,192,43323,1,0,0:0:0:0:
192,192,43398,1,0,0:0:0:0:
320,192,43473,1,0,0:0:0:0:
448,192,43473,1,0,0:0:0:0:
192,192,43548,1,0,0:0:0:0:
448,192,43623,1,0,0:0:0:0:
320,192,43698,1,0,0:0:0:0:
64,192,43773,1,0,0:0:0:0:
192,192,43773,1,0,0:0:0:0:
320,192,43848,1,0,0:0:0:0:
192,192,43923,1,0,0:0:0:0:
64,192,43998,1,0,0:0:0:0:
320,192,43998,1,0,0:0:0:0:
192,192,44073,1,0,0:0:0:0:
448,192,44073,1,0,0:0:0:0:
64,192,44148,1,0,0:0:0:0:
320,192,44223,1,0,0:0:0:0:
448,192,44223,1,0,0:0:0:0:
192,192,44298,1,0,0:0:0:0:
64,192,44373,1,0,0:0:0:0:
320,192,44373,1,0,0:0:0:0:
448,192,44448,1,0,0:0:0:0:
192,192,44523,1,0,0:0:0:0:
320,192,44523,1,0,0:0:0:0:
64,192,44598,1,0,0:0:0:0:
192,192,44673,1,0,0:0:0:0:
448,192,44673,1,0,0:0:0:0:
320,192,44748,1,0,0:0:0:0:
64,192,44823,1,0,0:0:0:0:
192,192,44823,1,0,0:0:0:0:
448,192,44898,1,0,0:0:0:0:
64,192,44973,1,0,0:0:0:0:
192,192,44973,1,0,0:0:0:0:
320,192,45048,1,0,0:0:0:0:
192,192,45123,1,0,0:0:0:0:
448,192,45123,1,0,0:0:0:0:
64,192,45198,1,0,0:0:0:0:
320,192,45198,1,0,0:0:0:0:
192,192,45273,1,0,0:0:0:0:
448,192,45273,1,0,0:0:0:0:
64,192,45348,1,0,0:0:0:0:
320,192,45348,1,0,0:0:0:0:
192,192,45423,1,0,0:0:0:0:
448,192,45423,1,0,0:0:0:0:
64,192,45498,1,0,0:0:0:0:
320,192,45498,1,0,0:0:0:0:
192,192,45573,1,0,0:0:0:0:
448,192,45573,1,0,0:0:0:0:
64,192,45648,1,0,0:0:0:0:
192,192,45723,1,0,0:0:0:0:
448,192,45798,1,0,0:0:0:0:
320,192,45873,1,0,0:0:0:0:
64,192,45873,1,0,0:0:0:0:
192,192,45948,1,0,0:0:0:0:
448,192,46023,1,0,0:0:0:0:
320,192,46098,1,0,0:0:0:0:
64,192,46173,1,0,0:0:0:0:
448,192,46173,1,0,0:0:0:0:
192,192,46248,1,0,0:0:0:0:
448,192,46323,1,0,0:0:0:0:
320,192,46398,1,0,0:0:0:0:
192,192,46398,1,0,0:0:0:0:
64,192,46473,1,0,0:0:0:0:
448,192,46473,1,0,0:0:0:0:
320,192,46548,1,0,0:0:0:0:
192,192,46623,1,0,0:0:0:0:
64,192,46623,1,0,0:0:0:0:
320,192,46698,1,0,0:0:0:0:
192,192,46773,1,0,0:0:0:0:
448,192,46773,1,0,0:0:0:0:
64,192,46848,1,0,0:0:0:0:
320,192,46923,1,0,0:0:0:0:
448,192,46923,1,0,0:0:0:0:
192,192,46998,1,0,0:0:0:0:
64,192,47073,1,0,0:0:0:0:
448,192,47073,1,0,0:0:0:0:
192,192,47148,1,0,0:0:0:0:
320,192,47223,1,0,0:0:0:0:
448,192,47223,1,0,0:0:0:0:
64,192,47298,1,0,0:0:0:0:
192,192,47373,1,0,0:0:0:0:
320,192,47373,1,0,0:0:0:0:
448,192,47448,1,0,0:0:0:0:
64,192,47523,1,0,0:0:0:0:
192,192,47523,1,0,0:0:0:0:
320,192,47598,1,0,0:0:0:0:
64,192,47673,1,0,0:0:0:0:
192,192,47673,1,0,0:0:0:0:
448,192,47748,1,0,0:0:0:0:
320,192,47823,1,0,0:0:0:0:
192,192,47823,1,0,0:0:0:0:
64,192,47898,1,0,0:0:0:0:
320,192,47973,1,0,0:0:0:0:
448,192,47973,1,0,0:0:0:0:
192,192,48048,1,0,0:0:0:0:
64,192,48123,1,0,0:0:0:0:
320,192,48198,1,0,0:0:0:0:
192,192,48273,1,0,0:0:0:0:
448,192,48273,1,0,0:0:0:0:
64,192,48348,1,0,0:0:0:0:
448,192,48423,1,0,0:0:0:0:
320,192,48498,1,0,0:0:0:0:
192,192,48573,1,0,0:0:0:0:
64,192,48573,1,0,0:0:0:0:
448,192,48648,1,0,0:0:0:0:
192,192,48723,1,0,0:0:0:0:
320,192,48798,1,0,0:0:0:0:
64,192,48798,1,0,0:0:0:0:
192,192,48873,1,0,0:0:0:0:
448,192,48873,1,0,0:0:0:0:
320,192,48948,1,0,0:0:0:0:
64,192,49023,1,0,0:0:0:0:
192,192,49023,1,0,0:0:0:0:
448,192,49098,1,0,0:0:0:0:
192,192,49173,1,0,0:0:0:0:
320,192,49173,1,0,0:0:0:0:
64,192,49248,1,0,0:0:0:0:
192,192,49323,1,0,0:0:0:0:
448,192,49398,1,0,0:0:0:0:
320,192,49473,1,0,0:0:0:0:
192,192,49473,1,0,0:0:0:0:
64,192,49548,1,0,0:0:0:0:
448,192,49548,1,0,0:0:0:0:
192,192,49623,1,0,0:0:0:0:
320,192,49623,1,0,0:0:0:0:
64,192,49698,1,0,0:0:0:0:
448,192,49698,1,0,0:0:0:0:
192,192,49773,1,0,0:0:0:0:
320,192,49773,1,0,0:0:0:0:
320,192,49923,1,0,0:0:0:0:
448,192,49923,1,0,0:0:0:0:
64,192,49998,1,0,0:0:0:0:
192,192,49998,1,0,0:0:0:0:
320,192,50073,1,0,0:0:0:0:
448,192,50148,1,0,0:0:0:0:
320,192,50223,1,0,0:0:0:0:
64,192,50223,1,0,0:0:0:0:
192,192,50298,1,0,0:0:0:0:
320,192,50373,1,0,0:0:0:0:
448,192,50373,1,0,0:0:0:0:
64,192,50448,1,0,0:0:0:0:
320,192,50523,1,0,0:0:0:0:
192,192,50598,1,0,0:0:0:0:
64,192,50673,1,0,0:0:0:0:
448,192,50673,1,0,0:0:0:0:
320,192,50748,1,0,0:0:0:0:
448,192,50823,1,0,0:0:0:0:
192,192,50898,1,0,0:0:0:0:
320,192,50973,1,0,0:0:0:0:
64,192,50973,1,0,0:0:0:0:
192,192,51048,1,0,0:0:0:0:
448,192,51123,1,0,0:0:0:0:
64,192,51198,1,0,0:0:0:0:
192,192,51198,1,0,0:0:0:0:
448,192,51273,1,0,0:0:0:0:
320,192,51273,1,0,0:0:0:0:
64,192,51348,1,0,0:0:0:0:
320,192,51423,1,0,0:0:0:0:
448,192,51423,1,0,0:0:0:0:
192,192,51498,1,0,0:0:0:0:
64,192,51573,1,0,0:0:0:0:
320,192,51573,1,0,0:0:0:0:
192,192,51648,1,0,0:0:0:0:
448,192,51723,1,0,0:0:0:0:
64,192,51723,1,0,0:0:0:0:
320,192,51798,1,0,0:0:0:0:
64,192,51873,1,0,0:0:0:0:
192,192,51873,1,0,0:0:0:0:
448,192,51948,1,0,0:0:0:0:
320,192,52023,1,0,0:0:0:0:
192,192,52023,1,0,0:0:0:0:
64,192,52098,1,0,0:0:0:0:
320,192,52173,1,0,0:0:0:0:
448,192,52173,1,0,0:0:0:0:
192,192,52248,1,0,0:0:0:0:
64,192,52323,1,0,0:0:0:0:
448,192,52323,1,0,0:0:0:0:
320,192,52398,1,0,0:0:0:0:
192,192,52473,1,0,0:0:0:0:
64,192,52473,1,0,0:0:0:0:
320,192,52548,1,0,0:0:0:0:
448,192,52623,1,0,0:0:0:0:
64,192,52623,1,0,0:0:0:0:
320,192,52698,1,0,0:0:0:0:
192,192,52773,1,0,0:0:0:0:
448,192,52773,1,0,0:0:0:0:
64,192,52848,1,0,0:0:0:0:
192,192,52923,1,0,0:0:0:0:
448,192,52998,1,0,0:0:0:0:
320,192,53073,1,0,0:0:0:0:
192,192,53073,1,0,0:0:0:0:
64,192,53148,1,0,0:0:0:0:
448,192,53223,1,0,0:0:0:0:
320,192,53298,1,0,0:0:0:0:
64,192,53373,1,0,0:0:0:0:
192,192,53373,1,0,0:0:0:0:
320,192,53448,1,0,0:0:0:0:
448,192,53523,1,0,0:0:0:0:
64,192,53598,1,0,0:0:0:0:
320,192,53598,1,0,0:0:0:0:
192,192,53673,1,0,0:0:0:0:
448,192,53673,1,0,0:0:0:0:
64,192,53748,1,0,0:0:0:0:
448,192,53823,1,0,0:0:0:0:
320,192,53823,1,0,0:0:0:0:
192,192,53898,1,0,0:0:0:0:
320,192,53973,1,0,0:0:0:0:
448,192,53973,1,0,0:0:0:0:
64,192,54048,1,0,0:0:0:0:
192,192,54123,1,0,0:0:0:0:
320,192,54123,1,0,0:0:0:0:
448,192,54198,1,0,0:0:0:0:
64,192,54273,1,0,0:0:0:0:
192,192,54273,1,0,0:0:0:0:
320,192,54348,1,0,0:0:0:0:
64,192,54423,1,0,0:0:0:0:
448,192,54423,1,0,0:0:0:0:
320,192,54498,1,0,0:0:0:0:
192,192,54573,1,0,0:0:0:0:
64,192,54573,1,0,0:0:0:0:
448,192,54648,1,0,0:0:0:0:
192,192,54723,1,0,0:0:0:0:
64,192,54723,1,0,0:0:0:0:
320,192,54798,1,0,0:0:0:0:
448,192,54798,1,0,0:0:0:0:
192,192,54873,1,0,0:0:0:0:
64,192,54873,1,0,0:0:0:0:
448,192,54948,1,0,0:0:0:0:
320,192,54948,1,0,0:0:0:0:
192,192,55023,1,0,0:0:0:0:
64,192,55023,1,0,0:0:0:0:
448,192,55098,1,0,0:0:0:0:
320,192,55098,1,0,0:0:0:0:
64,192,55173,1,0,0:0:0:0:
192,192,55173,1,0,0:0:0:0:
64,192,55323,1,0,0:0:0:0:
192,192,55323,1,0,0:0:0:0:
448,192,55398,1,0,0:0:0:0:
64,192,55473,1,0,0:0:0:0:
192,192,55473,1,0,0:0:0:0:
64,192,55623,1,0,0:0:0:0:
192,192,55623,1,0,0:0:0:0:
320,192,55623,1,0,0:0:0:0:
64,192,55773,1,0,0:0:0:0:
192,192,55773,1,0,0:0:0:0:
64,192,55923,1,0,0:0:0:0:
192,192,55923,1,0,0:0:0:0:
320,192,55923,1,0,0:0:0:0:
448,192,55998,1,0,0:0:0:0:
64,192,56073,1,0,0:0:0:0:
320,192,56073,1,0,0:0:0:0:
192,192,56148,1,0,0:0:0:0:
320,192,56223,1,0,0:0:0:0:
448,192,56223,1,0,0:0:0:0:
192,192,56298,1,0,0:0:0:0:
64,192,56298,1,0,0:0:0:0:
320,192,56373,1,0,0:0:0:0:
448,192,56373,1,0,0:0:0:0:
320,192,56523,1,0,0:0:0:0:
448,192,56523,1,0,0:0:0:0:
192,192,56523,1,0,0:0:0:0:
320,192,56673,1,0,0:0:0:0:
448,192,56673,1,0,0:0:0:0:
64,192,56673,1,0,0:0:0:0:
320,192,56823,1,0,0:0:0:0:
448,192,56823,1,0,0:0:0:0:
320,192,56973,1,0,0:0:0:0:
448,192,56973,1,0,0:0:0:0:
192,192,56973,1,0,0:0:0:0:
64,192,57048,1,0,0:0:0:0:
448,192,57123,1,0,0:0:0:0:
192,192,57123,1,0,0:0:0:0:
320,192,57198,1,0,0:0:0:0:
64,192,57198,1,0,0:0:0:0:
192,192,57273,1,0,0:0:0:0:
448,192,57273,1,0,0:0:0:0:
320,192,57348,1,0,0:0:0:0:
64,192,57348,1,0,0:0:0:0:
192,192,57423,1,0,0:0:0:0:
448,192,57423,1,0,0:0:0:0:
320,192,57498,1,0,0:0:0:0:
64,192,57498,1,0,0:0:0:0:
192,192,57573,1,0,0:0:0:0:
448,192,57573,1,0,0:0:0:0:
64,192,57648,1,0,0:0:0:0:
192,192,57723,1,0,0:0:0:0:
320,192,57798,1,0,0:0:0:0:
64,192,57873,1,0,0:0:0:0:
192,192,57873,1,0,0:0:0:0:
448,192,57873,1,0,0:0:0:0:
320,192,57948,1,0,0:0:0:0:
448,192,58023,1,0,0:0:0:0:
192,192,58098,1,0,0:0:0:0:
64,192,58173,1,0,0:0:0:0:
320,192,58173,1,0,0:0:0:0:
448,192,58173,1,0,0:0:0:0:
192,192,58248,1,0,0:0:0:0:
320,192,58323,1,0,0:0:0:0:
64,192,58398,1,0,0:0:0:0:
192,192,58473,1,0,0:0:0:0:
320,192,58473,1,0,0:0:0:0:
448,192,58473,1,0,0:0:0:0:
64,192,58623,1,0,0:0:0:0:
192,192,58623,1,0,0:0:0:0:
320,192,58623,1,0,0:0:0:0:
448,192,58773,1,0,0:0:0:0:
320,192,58848,1,0,0:0:0:0:
192,192,58923,1,0,0:0:0:0:
64,192,58923,1,0,0:0:0:0:
448,192,58923,1,0,0:0:0:0:
192,192,59073,1,0,0:0:0:0:
320,192,59073,1,0,0:0:0:0:
448,192,59073,1,0,0:0:0:0:
64,192,59223,1,0,0:0:0:0:
192,192,59223,1,0,0:0:0:0:
320,192,59223,1,0,0:0:0:0:
320,192,59373,1,0,0:0:0:0:
448,192,59373,1,0,0:0:0:0:
64,192,59373,1,0,0:0:0:0:
192,192,59523,1,0,0:0:0:0:
320,192,59598,1,0,0:0:0:0:
448,192,59673,1,0,0:0:0:0:
192,192,59748,1,0,0:0:0:0:
64,192,59823,1,0,0:0:0:0:
448,192,59898,1,0,0:0:0:0:
192,192,59973,1,0,0:0:0:0:
320,192,60048,1,0,0:0:0:0:
64,192,60123,1,0,0:0:0:0:
192,192,60198,1,0,0:0:0:0:
320,192,60273,1,0,0:0:0:0:
448,192,60273,1,0,0:0:0:0:
64,192,60273,1,0,0:0:0:0:
448,192,60423,1,0,0:0:0:0:
320,192,60498,1,0,0:0:0:0:
64,192,60573,1,0,0:0:0:0:
192,192,60573,1,0,0:0:0:0:
448,192,60648,1,0,0:0:0:0:
64,192,60723,1,0,0:0:0:0:
320,192,60798,1,0,0:0:0:0:
192,192,60873,1,0,0:0:0:0:
448,192,60873,1,0,0:0:0:0:
64,192,60873,1,0,0:0:0:0:
192,192,61023,1,0,0:0:0:0:
320,192,61023,1,0,0:0:0:0:
448,192,61023,1,0,0:0:0:0:
64,192,61098,1,0,0:0:0:0:
448,192,61173,1,0,0:0:0:0:
192,192,61248,1,0,0:0:0:0:
320,192,61323,1,0,0:0:0:0:
448,192,61398,1,0,0:0:0:0:
320,192,61473,1,0,0:0:0:0:
192,192,61473,1,0,0:0:0:0:
64,192,61473,1,0,0:0:0:0:
448,192,61548,1,0,0:0:0:0:
192,192,61623,1,0,0:0:0:0:
320,192,61698,1,0,0:0:0:0:
64,192,61773,1,0,0:0:0:0:
192,192,61773,1,0,0:0:0:0:
448,192,61773,1,0,0:0:0:0:
320,192,61848,1,0,0:0:0:0:
192,192,61923,1,0,0:0:0:0:
448,192,61998,1,0,0:0:0:0:
320,192,62073,1,0,0:0:0:0:
192,192,62148,1,0,0:0:0:0:
64,192,62223,1,0,0:0:0:0:
320,192,62298,1,0,0:0:0:0:
192,192,62373,1,0,0:0:0:0:
448,192,62373,1,0,0:0:0:0:
64,192,62448,1,0,0:0:0:0:
320,192,62523,1,0,0:0:0:0:
448,192,62523,1,0,0:0:0:0:
64,192,62598,1,0,0:0:0:0:
192,192,62598,1,0,0:0:0:0:
320,192,62673,1,0,0:0:0:0:
448,192,62673,1,0,0:0:0:0:
64,192,62748,1,0,0:0:0:0:
192,192,62823,1,0,0:0:0:0:
320,192,62823,1,0,0:0:0:0:
64,192,62898,1,0,0:0:0:0:
448,192,62898,1,0,0:0:0:0:
192,192,62973,1,0,0:0:0:0:
320,192,62973,1,0,0:0:0:0:
448,192,63048,1,0,0:0:0:0:
64,192,63048,1,0,0:0:0:0:
192,192,63123,1,0,0:0:0:0:
320,192,63123,1,0,0:0:0:0:
448,192,63198,1,0,0:0:0:0:
64,192,63273,1,0,0:0:0:0:
192,192,63273,1,0,0:0:0:0:
320,192,63348,1,0,0:0:0:0:
448,192,63348,1,0,0:0:0:0:
64,192,63423,1,0,0:0:0:0:
192,192,63423,1,0,0:0:0:0:
320,192,63498,1,0,0:0:0:0:
448,192,63498,1,0,0:0:0:0:
64,192,63573,1,0,0:0:0:0:
192,192,63573,1,0,0:0:0:0:
320,192,63648,1,0,0:0:0:0:
64,192,63723,1,0,0:0:0:0:
448,192,63798,1,0,0:0:0:0:
192,192,63873,1,0,0:0:0:0:
320,192,63873,1,0,0:0:0:0:
448,192,63948,1,0,0:0:0:0:
64,192,64023,1,0,0:0:0:0:
320,192,64098,1,0,0:0:0:0:
192,192,64173,1,0,0:0:0:0:
448,192,64173,1,0,0:0:0:0:
64,192,64248,1,0,0:0:0:0:
320,192,64323,1,0,0:0:0:0:
192,192,64398,1,0,0:0:0:0:
64,192,64473,1,0,0:0:0:0:
320,192,64473,1,0,0:0:0:0:
448,192,64473,1,0,0:0:0:0:
192,192,64548,1,0,0:0:0:0:
64,192,64623,1,0,0:0:0:0:
320,192,64623,1,0,0:0:0:0:
192,192,64698,1,0,0:0:0:0:
448,192,64698,1,0,0:0:0:0:
64,192,64773,1,0,0:0:0:0:
320,192,64773,1,0,0:0:0:0:
192,192,64848,1,0,0:0:0:0:
320,192,64923,1,0,0:0:0:0:
448,192,64923,1,0,0:0:0:0:
64,192,64998,1,0,0:0:0:0:
192,192,64998,1,0,0:0:0:0:
320,192,65073,1,0,0:0:0:0:
448,192,65073,1,0,0:0:0:0:
192,192,65223,1,0,0:0:0:0:
320,192,65298,1,0,0:0:0:0:
64,192,65373,1,0,0:0:0:0:
448,192,65373,1,0,0:0:0:0:
192,192,65448,1,0,0:0:0:0:
320,192,65448,1,0,0:0:0:0:
64,192,65523,1,0,0:0:0:0:
448,192,65523,1,0,0:0:0:0:
192,192,65598,1,0,0:0:0:0:
320,192,65598,1,0,0:0:0:0:
64,192,65673,1,0,0:0:0:0:
448,192,65673,1,0,0:0:0:0:
448,192,65823,1,0,0:0:0:0:
320,192,65823,1,0,0:0:0:0:
64,192,65898,1,0,0:0:0:0:
192,192,65898,1,0,0:0:0:0:
320,192,65973,1,0,0:0:0:0:
448,192,65973,1,0,0:0:0:0:
192,192,66048,1,0,0:0:0:0:
64,192,66048,1,0,0:0:0:0:
320,192,66123,1,0,0:0:0:0:
448,192,66123,1,0,0:0:0:0:
64,192,66198,1,0,0:0:0:0:
192,192,66198,1,0,0:0:0:0:
320,192,66273,1,0,0:0:0:0:
448,192,66273,1,0,0:0:0:0:
64,192,66348,1,0,0:0:0:0:
192,192,66423,1,0,0:0:0:0:
448,192,66423,1,0,0:0:0:0:
64,192,66498,1,0,0:0:0:0:
320,192,66498,1,0,0:0:0:0:
192,192,66573,1,0,0:0:0:0:
448,192,66573,1,0,0:0:0:0:
320,192,66648,1,0,0:0:0:0:
448,192,66723,1,0,0:0:0:0:
64,192,66723,1,0,0:0:0:0:
192,192,66798,1,0,0:0:0:0:
320,192,66873,1,0,0:0:0:0:
448,192,66873,1,0,0:0:0:0:
192,192,66948,1,0,0:0:0:0:
64,192,67023,1,0,0:0:0:0:
320,192,67023,1,0,0:0:0:0:
448,192,67098,1,0,0:0:0:0:
192,192,67173,1,0,0:0:0:0:
64,192,67173,1,0,0:0:0:0:
320,192,67248,1,0,0:0:0:0:
64,192,67323,1,0,0:0:0:0:
192,192,67323,1,0,0:0:0:0:
320,192,67398,1,0,0:0:0:0:
448,192,67398,1,0,0:0:0:0:
64,192,67473,1,0,0:0:0:0:
192,192,67473,1,0,0:0:0:0:
448,192,67548,1,0,0:0:0:0:
320,192,67623,1,0,0:0:0:0:
64,192,67623,1,0,0:0:0:0:
448,192,67698,1,0,0:0:0:0:
192,192,67698,1,0,0:0:0:0:
64,192,67773,1,0,0:0:0:0:
192,192,67810,1,0,0:0:0:0:
320,192,67848,1,0,0:0:0:0:
448,192,67885,1,0,0:0:0:0:
64,192,67923,1,0,0:0:0:0:
192,192,67960,1,0,0:0:0:0:
320,192,67998,1,0,0:0:0:0:
448,192,68035,1,0,0:0:0:0:
64,192,68073,1,0,0:0:0:0:
192,192,68110,1,0,0:0:0:0:
320,192,68148,1,0,0:0:0:0:
448,192,68185,1,0,0:0:0:0:
64,192,68223,1,0,0:0:0:0:
192,192,68260,1,0,0:0:0:0:
320,192,68298,1,0,0:0:0:0:
448,192,68335,1,0,0:0:0:0:
64,192,68373,1,0,0:0:0:0:
192,192,68373,1,0,0:0:0:0:
320,192,68448,1,0,0:0:0:0:
192,192,68523,1,0,0:0:0:0:
448,192,68523,1,0,0:0:0:0:
64,192,68598,1,0,0:0:0:0:
320,192,68598,1,0,0:0:0:0:
192,192,68673,1,0,0:0:0:0:
320,192,68748,1,0,0:0:0:0:
192,192,68823,1,0,0:0:0:0:
320,192,68898,1,0,0:0:0:0:
192,192,68973,1,0,0:0:0:0:
64,192,69048,1,0,0:0:0:0:
448,192,69123,1,0,0:0:0:0:
320,192,69198,1,0,0:0:0:0:
64,192,69273,1,0,0:0:0:0:
192,192,69273,1,0,0:0:0:0:
448,192,69348,1,0,0:0:0:0:
64,192,69423,1,0,0:0:0:0:
192,192,69498,1,0,0:0:0:0:
320,192,69573,1,0,0:0:0:0:
448,192,69573,1,0,0:0:0:0:
64,192,69648,1,0,0:0:0:0:
448,192,69723,1,0,0:0:0:0:
192,192,69798,1,0,0:0:0:0:
64,192,69873,1,0,0:0:0:0:
320,192,69873,1,0,0:0:0:0:
448,192,69873,1,0,0:0:0:0:
192,192,69948,1,0,0:0:0:0:
448,192,70023,1,0,0:0:0:0:
320,192,70098,1,0,0:0:0:0:
64,192,70173,1,0,0:0:0:0:
192,192,70173,1,0,0:0:0:0:
448,192,70248,1,0,0:0:0:0:
64,192,70323,1,0,0:0:0:0:
320,192,70398,1,0,0:0:0:0:
64,192,70473,1,0,0:0:0:0:
192,192,70473,1,0,0:0:0:0:
448,192,70473,1,0,0:0:0:0:
320,192,70548,1,0,0:0:0:0:
64,192,70623,1,0,0:0:0:0:
448,192,70698,1,0,0:0:0:0:
192,192,70773,1,0,0:0:0:0:
320,192,70773,1,0,0:0:0:0:
64,192,70848,1,0,0:0:0:0:
320,192,70923,1,0,0:0:0:0:
448,192,70998,1,0,0:0:0:0:
64,192,71073,1,0,0:0:0:0:
192,192,71073,1,0,0:0:0:0:
320,192,71073,1,0,0:0:0:0:
448,192,71148,1,0,0:0:0:0:
64,192,71223,1,0,0:0:0:0:
192,192,71298,1,0,0:0:0:0:
320,192,71373,1,0,0:0:0:0:
448,192,71373,1,0,0:0:0:0:
64,192,71373,1,0,0:0:0:0:
192,192,71448,1,0,0:0:0:0:
320,192,71523,1,0,0:0:0:0:
448,192,71598,1,0,0:0:0:0:
192,192,71673,1,0,0:0:0:0:
320,192,71673,1,0,0:0:0:0:
64,192,71748,1,0,0:0:0:0:
320,192,71823,1,0,0:0:0:0:
192,192,71898,1,0,0:0:0:0:
320,192,71973,1,0,0:0:0:0:
448,192,71973,1,0,0:0:0:0:
192,192,72048,1,0,0:0:0:0:
64,192,72123,1,0,0:0:0:0:
320,192,72198,1,0,0:0:0:0:
192,192,72273,1,0,0:0:0:0:
448,192,72273,1,0,0:0:0:0:
320,192,72348,1,0,0:0:0:0:
192,192,72423,1,0,0:0:0:0:
448,192,72498,1,0,0:0:0:0:
320,192,72573,1,0,0:0:0:0:
64,192,72573,1,0,0:0:0:0:
192,192,72648,1,0,0:0:0:0:
448,192,72723,1,0,0:0:0:0:
320,192,72798,1,0,0:0:0:0:
192,192,72873,1,0,0:0:0:0:
64,192,72873,1,0,0:0:0:0:
320,192,72948,1,0,0:0:0:0:
192,192,73023,1,0,0:0:0:0:
64,192,73098,1,0,0:0:0:0:
448,192,73173,1,0,0:0:0:0:
320,192,73210,1,0,0:0:0:0:
192,192,73248,1,0,0:0:0:0:
64,192,73285,1,0,0:0:0:0:
320,192,73323,1,0,0:0:0:0:
448,192,73360,1,0,0:0:0:0:
192,192,73398,1,0,0:0:0:0:
64,192,73435,1,0,0:0:0:0:
448,192,73473,1,0,0:0:0:0:
320,192,73510,1,0,0:0:0:0:
64,192,73548,1,0,0:0:0:0:
192,192,73585,1,0,0:0:0:0:
320,192,73623,1,0,0:0:0:0:
448,192,73660,1,0,0:0:0:0:
64,192,73698,1,0,0:0:0:0:
192,192,73735,1,0,0:0:0:0:
448,192,73773,1,0,0:0:0:0:
320,192,73810,1,0,0:0:0:0:
192,192,73848,1,0,0:0:0:0:
64,192,73885,1,0,0:0:0:0:
320,192,73923,1,0,0:0:0:0:
448,192,73960,1,0,0:0:0:0:
192,192,73998,1,0,0:0:0:0:
64,192,74035,1,0,0:0:0:0:
320,192,74073,1,0,0:0:0:0:
448,192,74073,1,0,0:0:0:0:
192,192,74148,1,0,0:0:0:0:
64,192,74223,1,0,0:0:0:0:
320,192,74298,1,0,0:0:0:0:
192,192,74373,1,0,0:0:0:0:
448,192,74373,1,0,0:0:0:0:
64,192,74448,1,0,0:0:0:0:
192,192,74523,1,0,0:0:0:0:
320,192,74523,1,0,0:0:0:0:
448,192,74598,1,0,0:0:0:0:
64,192,74673,1,0,0:0:0:0:
320,192,74673,1,0,0:0:0:0:
192,192,74748,1,0,0:0:0:0:
320,192,74823,1,0,0:0:0:0:
448,192,74823,1,0,0:0:0:0:
192,192,74898,1,0,0:0:0:0:
64,192,74973,1,0,0:0:0:0:
448,192,74973,1,0,0:0:0:0:
320,192,75048,1,0,0:0:0:0:
192,192,75123,1,0,0:0:0:0:
64,192,75123,1,0,0:0:0:0:
320,192,75198,1,0,0:0:0:0:
192,192,75273,1,0,0:0:0:0:
448,192,75273,1,0,0:0:0:0:
64,192,75348,1,0,0:0:0:0:
320,192,75423,1,0,0:0:0:0:
192,192,75423,1,0,0:0:0:0:
448,192,75498,1,0,0:0:0:0:
64,192,75573,1,0,0:0:0:0:
192,192,75573,1,0,0:0:0:0:
320,192,75648,1,0,0:0:0:0:
448,192,75648,1,0,0:0:0:0:
64,192,75723,1,0,0:0:0:0:
192,192,75723,1,0,0:0:0:0:
320,192,75798,1,0,0:0:0:0:
448,192,75798,1,0,0:0:0:0:
64,192,75873,1,0,0:0:0:0:
192,192,75873,1,0,0:0:0:0:
320,192,75948,1,0,0:0:0:0:
448,192,75948,1,0,0:0:0:0:
64,192,76023,1,0,0:0:0:0:
192,192,76023,1,0,0:0:0:0:
320,192,76098,1,0,0:0:0:0:
448,192,76098,1,0,0:0:0:0:
64,192,76173,1,0,0:0:0:0:
192,192,76210,1,0,0:0:0:0:
448,192,76248,1,0,0:0:0:0:
320,192,76285,1,0,0:0:0:0:
64,192,76323,1,0,0:0:0:0:
192,192,76360,1,0,0:0:0:0:
448,192,76398,1,0,0:0:0:0:
320,192,76435,1,0,0:0:0:0:
64,192,76473,1,0,0:0:0:0:
192,192,76510,1,0,0:0:0:0:
448,192,76548,1,0,0:0:0:0:
320,192,76585,1,0,0:0:0:0:
64,192,76623,1,0,0:0:0:0:
192,192,76660,1,0,0:0:0:0:
448,192,76698,1,0,0:0:0:0:
320,192,76735,1,0,0:0:0:0:
64,192,76773,1,0,0:0:0:0:
192,192,76773,1,0,0:0:0:0:
448,192,76848,1,0,0:0:0:0:
192,192,76923,1,0,0:0:0:0:
320,192,76923,1,0,0:0:0:0:
64,192,76998,1,0,0:0:0:0:
320,192,77073,1,0,0:0:0:0:
448,192,77073,1,0,0:0:0:0:
64,192,77148,1,0,0:0:0:0:
192,192,77223,1,0,0:0:0:0:
320,192,77223,1,0,0:0:0:0:
448,192,77298,1,0,0:0:0:0:
64,192,77373,1,0,0:0:0:0:
192,192,77373,1,0,0:0:0:0:
320,192,77448,1,0,0:0:0:0:
64,192,77523,1,0,0:0:0:0:
448,192,77523,1,0,0:0:0:0:
192,192,77598,1,0,0:0:0:0:
320,192,77673,1,0,0:0:0:0:
448,192,77673,1,0,0:0:0:0:
64,192,77748,1,0,0:0:0:0:
448,192,77823,1,0,0:0:0:0:
320,192,77898,1,0,0:0:0:0:
64,192,77973,1,0,0:0:0:0:
192,192,77973,1,0,0:0:0:0:
448,192,78048,1,0,0:0:0:0:
320,192,78123,1,0,0:0:0:0:
192,192,78198,1,0,0:0:0:0:
64,192,78273,1,0,0:0:0:0:
448,192,78348,1,0,0:0:0:0:
192,192,78423,1,0,0:0:0:0:
64,192,78498,1,0,0:0:0:0:
320,192,78573,1,0,0:0:0:0:
192,192,78648,1,0,0:0:0:0:
64,192,78723,1,0,0:0:0:0:
448,192,78798,1,0,0:0:0:0:
64,192,78873,1,0,0:0:0:0:
320,192,78948,1,0,0:0:0:0:
64,192,79023,1,0,0:0:0:0:
192,192,79098,1,0,0:0:0:0:
64,192,79173,1,0,0:0:0:0:
448,192,79173,1,0,0:0:0:0:
448,192,80373,128,0,80748:0:0:0:0:
192,192,80823,1,0,0:0:0:0:
320,192,80898,1,0,0:0:0:0:
192,192,80973,1,0,0:0:0:0:
320,192,81048,1,0,0:0:0:0:
192,192,81123,1,0,0:0:0:0:
64,192,81123,1,0,0:0:0:0:
320,192,81198,1,0,0:0:0:0:
192,192,81273,1,0,0:0:0:0:
448,192,81273,1,0,0:0:0:0:
64,192,81348,1,0,0:0:0:0:
192,192,81423,1,0,0:0:0:0:
320,192,81498,1,0,0:0:0:0:
448,192,81573,1,0,0:0:0:0:
64,192,81573,1,0,0:0:0:0:
192,192,81723,1,0,0:0:0:0:
64,192,81873,1,0,0:0:0:0:
320,192,81873,1,0,0:0:0:0:
448,192,82023,1,0,0:0:0:0:
320,192,82173,1,0,0:0:0:0:
192,192,82173,1,0,0:0:0:0:
64,192,82323,1,0,0:0:0:0:
320,192,82398,1,0,0:0:0:0:
192,192,82473,1,0,0:0:0:0:
448,192,82473,1,0,0:0:0:0:
64,192,82548,1,0,0:0:0:0:
320,192,82623,1,0,0:0:0:0:
192,192,82773,1,0,0:0:0:0:
64,192,82773,1,0,0:0:0:0:
320,192,82923,1,0,0:0:0:0:
448,192,82998,1,0,0:0:0:0:
192,192,83073,1,0,0:0:0:0:
320,192,83073,1,0,0:0:0:0:
64,192,83223,1,0,0:0:0:0:
192,192,83373,1,0,0:0:0:0:
320,192,83373,1,0,0:0:0:0:
448,192,83523,1,0,0:0:0:0:
64,192,83673,1,0,0:0:0:0:
192,192,83673,1,0,0:0:0:0:
320,192,83823,1,0,0:0:0:0:
192,192,83973,1,0,0:0:0:0:
448,192,83973,1,0,0:0:0:0:
64,192,84123,1,0,0:0:0:0:
320,192,84273,1,0,0:0:0:0:
448,192,84273,1,0,0:0:0:0:
192,192,84423,1,0,0:0:0:0:
64,192,84573,1,0,0:0:0:0:
320,192,84573,1,0,0:0:0:0:
192,192,84723,1,0,0:0:0:0:
448,192,84798,1,0,0:0:0:0:
64,192,84873,1,0,0:0:0:0:
192,192,84873,1,0,0:0:0:0:
320,192,84948,1,0,0:0:0:0:
448,192,85023,1,0,0:0:0:0:
64,192,85173,1,0,0:0:0:0:
320,192,85173,1,0,0:0:0:0:
192,192,85323,1,0,0:0:0:0:
320,192,85398,1,0,0:0:0:0:
448,192,85473,1,0,0:0:0:0:
64,192,85473,1,0,0:0:0:0:
192,192,85623,1,0,0:0:0:0:
64,192,85773,1,0,0:0:0:0:
448,192,85773,1,0,0:0:0:0:
192,192,85923,1,0,0:0:0:0:
64,192,86073,1,0,0:0:0:0:
320,192,86073,1,0,0:0:0:0:
448,192,86223,1,0,0:0:0:0:
192,192,86373,1,0,0:0:0:0:
320,192,86373,1,0,0:0:0:0:
64,192,86523,1,0,0:0:0:0:
320,192,86673,1,0,0:0:0:0:
448,192,86673,1,0,0:0:0:0:
192,192,86823,1,0,0:0:0:0:
64,192,86973,1,0,0:0:0:0:
320,192,86973,1,0,0:0:0:0:
448,192,87123,1,0,0:0:0:0:
320,192,87198,1,0,0:0:0:0:
64,192,87273,1,0,0:0:0:0:
192,192,87273,1,0,0:0:0:0:
320,192,87348,1,0,0:0:0:0:
448,192,87423,1,0,0:0:0:0:
192,192,87573,1,0,0:0:0:0:
320,192,87573,1,0,0:0:0:0:
64,192,87723,1,0,0:0:0:0:
448,192,87798,1,0,0:0:0:0:
320,192,87873,1,0,0:0:0:0:
192,192,87873,1,0,0:0:0:0:
64,192,87948,1,0,0:0:0:0:
320,192,88023,1,0,0:0:0:0:
192,192,88173,1,0,0:0:0:0:
448,192,88173,1,0,0:0:0:0:
320,192,88323,1,0,0:0:0:0:
64,192,88473,1,0,0:0:0:0:
192,192,88473,1,0,0:0:0:0:
320,192,88623,1,0,0:0:0:0:
64,192,88773,1,0,0:0:0:0:
192,192,88773,1,0,0:0:0:0:
448,192,88773,1,0,0:0:0:0:
320,192,88923,1,0,0:0:0:0:
448,192,89073,1,0,0:0:0:0:
192,192,89223,1,0,0:0:0:0:
320,192,89373,1,0,0:0:0:0:
64,192,89523,1,0,0:0:0:0:
192,192,89598,1,0,0:0:0:0:
448,192,89748,1,0,0:0:0:0:
320,192,89823,1,0,0:0:0:0:
64,192,90123,1,0,0:0:0:0:
320,192,90198,1,0,0:0:0:0:
192,192,90273,128,0,90873:0:0:0:0:
64,192,90423,1,0,0:0:0:0:
448,192,90573,1,0,0:0:0:0:
320,192,90723,1,0,0:0:0:0:
448,192,90873,1,0,0:0:0:0:
64,192,90948,1,0,0:0:0:0:
192,192,91023,1,0,0:0:0:0:
320,192,91098,1,0,0:0:0:0:
192,192,91173,1,0,0:0:0:0:
448,192,91173,1,0,0:0:0:0:
64,192,91248,1,0,0:0:0:0:
320,192,91323,1,0,0:0:0:0:
192,192,91398,1,0,0:0:0:0:
64,192,91473,1,0,0:0:0:0:
320,192,91473,1,0,0:0:0:0:
448,192,91548,1,0,0:0:0:0:
192,192,91623,1,0,0:0:0:0:
320,192,91698,1,0,0:0:0:0:
64,192,91773,1,0,0:0:0:0:
192,192,91773,1,0,0:0:0:0:
448,192,91848,1,0,0:0:0:0:
320,192,91923,1,0,0:0:0:0:
64,192,91998,1,0,0:0:0:0:
320,192,92073,1,0,0:0:0:0:
448,192,92073,1,0,0:0:0:0:
192,192,92148,1,0,0:0:0:0:
64,192,92223,1,0,0:0:0:0:
320,192,92298,1,0,0:0:0:0:
192,192,92373,1,0,0:0:0:0:
448,192,92373,1,0,0:0:0:0:
320,192,92448,1,0,0:0:0:0:
64,192,92523,1,0,0:0:0:0:
448,192,92598,1,0,0:0:0:0:
192,192,92673,1,0,0:0:0:0:
320,192,92673,1,0,0:0:0:0:
64,192,92748,1,0,0:0:0:0:
448,192,92823,1,0,0:0:0:0:
192,192,92898,1,0,0:0:0:0:
64,192,92973,1,0,0:0:0:0:
320,192,92973,1,0,0:0:0:0:
192,192,93048,1,0,0:0:0:0:
448,192,93123,1,0,0:0:0:0:
320,192,93198,1,0,0:0:0:0:
64,192,93273,1,0,0:0:0:0:
192,192,93273,1,0,0:0:0:0:
448,192,93348,1,0,0:0:0:0:
192,192,93423,1,0,0:0:0:0:
320,192,93498,1,0,0:0:0:0:
448,192,93573,1,0,0:0:0:0:
64,192,93573,1,0,0:0:0:0:
192,192,93648,1,0,0:0:0:0:
320,192,93723,1,0,0:0:0:0:
192,192,93798,1,0,0:0:0:0:
64,192,93873,1,0,0:0:0:0:
320,192,93873,1,0,0:0:0:0:
448,192,93948,1,0,0:0:0:0:
192,192,94023,1,0,0:0:0:0:
320,192,94098,1,0,0:0:0:0:
64,192,94173,1,0,0:0:0:0:
192,192,94173,1,0,0:0:0:0:
448,192,94248,1,0,0:0:0:0:
192,192,94323,1,0,0:0:0:0:
320,192,94398,1,0,0:0:0:0:
192,192,94473,1,0,0:0:0:0:
448,192,94473,1,0,0:0:0:0:
320,192,94548,1,0,0:0:0:0:
64,192,94623,1,0,0:0:0:0:
192,192,94698,1,0,0:0:0:0:
320,192,94773,1,0,0:0:0:0:
448,192,94773,1,0,0:0:0:0:
64,192,94848,1,0,0:0:0:0:
320,192,94923,1,0,0:0:0:0:
192,192,94998,1,0,0:0:0:0:
64,192,95073,1,0,0:0:0:0:
320,192,95073,1,0,0:0:0:0:
448,192,95148,1,0,0:0:0:0:
192,192,95223,1,0,0:0:0:0:
320,192,95298,1,0,0:0:0:0:
192,192,95373,1,0,0:0:0:0:
448,192,95373,1,0,0:0:0:0:
64,192,95448,1,0,0:0:0:0:
320,192,95523,1,0,0:0:0:0:
192,192,95598,1,0,0:0:0:0:
320,192,95673,1,0,0:0:0:0:
448,192,95673,1,0,0:0:0:0:
64,192,95748,1,0,0:0:0:0:
448,192,95823,1,0,0:0:0:0:
64,192,95973,1,0,0:0:0:0:
192,192,95973,1,0,0:0:0:0:
320,192,95973,1,0,0:0:0:0:
64,192,96123,1,0,0:0:0:0:
192,192,96123,1,0,0:0:0:0:
448,192,96198,1,0,0:0:0:0:
64,192,96273,1,0,0:0:0:0:
192,192,96273,1,0,0:0:0:0:
64,192,96423,1,0,0:0:0:0:
192,192,96423,1,0,0:0:0:0:
320,192,96423,1,0,0:0:0:0:
64,192,96573,1,0,0:0:0:0:
192,192,96573,1,0,0:0:0:0:
448,192,96573,1,0,0:0:0:0:
320,192,96648,1,0,0:0:0:0:
64,192,96723,1,0,0:0:0:0:
192,192,96723,1,0,0:0:0:0:
448,192,96723,1,0,0:0:0:0:
320,192,96798,1,0,0:0:0:0:
64,192,96873,1,0,0:0:0:0:
192,192,96873,1,0,0:0:0:0:
448,192,96873,1,0,0:0:0:0:
320,192,96948,1,0,0:0:0:0:
192,192,97023,1,0,0:0:0:0:
64,192,97098,1,0,0:0:0:0:
320,192,97173,1,0,0:0:0:0:
448,192,97173,1,0,0:0:0:0:
192,192,97173,1,0,0:0:0:0:
320,192,97323,1,0,0:0:0:0:
448,192,97323,1,0,0:0:0:0:
64,192,97398,1,0,0:0:0:0:
320,192,97473,1,0,0:0:0:0:
448,192,97473,1,0,0:0:0:0:
320,192,97623,1,0,0:0:0:0:
448,192,97623,1,0,0:0:0:0:
192,192,97623,1,0,0:0:0:0:
320,192,97773,1,0,0:0:0:0:
448,192,97773,1,0,0:0:0:0:
64,192,97773,1,0,0:0:0:0:
192,192,97848,1,0,0:0:0:0:
320,192,97923,1,0,0:0:0:0:
448,192,97923,1,0,0:0:0:0:
64,192,97923,1,0,0:0:0:0:
192,192,97998,1,0,0:0:0:0:
320,192,98073,1,0,0:0:0:0:
448,192,98073,1,0,0:0:0:0:
64,192,98073,1,0,0:0:0:0:
192,192,98148,1,0,0:0:0:0:
320,192,98223,1,0,0:0:0:0:
448,192,98298,1,0,0:0:0:0:
64,192,98373,1,0,0:0:0:0:
192,192,98373,1,0,0:0:0:0:
448,192,98448,1,0,0:0:0:0:
320,192,98448,1,0,0:0:0:0:
64,192,98523,1,0,0:0:0:0:
192,192,98523,1,0,0:0:0:0:
320,192,98598,1,0,0:0:0:0:
448,192,98598,1,0,0:0:0:0:
192,192,98673,1,0,0:0:0:0:
64,192,98748,1,0,0:0:0:0:
320,192,98748,1,0,0:0:0:0:
192,192,98823,1,0,0:0:0:0:
448,192,98823,1,0,0:0:0:0:
64,192,98898,1,0,0:0:0:0:
320,192,98898,1,0,0:0:0:0:
448,192,98973,1,0,0:0:0:0:
320,192,99048,1,0,0:0:0:0:
192,192,99048,1,0,0:0:0:0:
64,192,99123,1,0,0:0:0:0:
448,192,99123,1,0,0:0:0:0:
192,192,99198,1,0,0:0:0:0:
320,192,99198,1,0,0:0:0:0:
64,192,99273,1,0,0:0:0:0:
448,192,99273,1,0,0:0:0:0:
192,192,99348,1,0,0:0:0:0:
320,192,99423,1,0,0:0:0:0:
448,192,99423,1,0,0:0:0:0:
64,192,99498,1,0,0:0:0:0:
192,192,99498,1,0,0:0:0:0:
320,192,99573,1,0,0:0:0:0:
448,192,99573,1,0,0:0:0:0:
64,192,99723,1,0,0:0:0:0:
448,192,99873,1,0,0:0:0:0:
320,192,99948,1,0,0:0:0:0:
64,192,100023,1,0,0:0:0:0:
192,192,100098,1,0,0:0:0:0:
320,192,100173,1,0,0:0:0:0:
448,192,100248,1,0,0:0:0:0:
192,192,100323,1,0,0:0:0:0:
64,192,100398,1,0,0:0:0:0:
320,192,100473,1,0,0:0:0:0:
448,192,100473,1,0,0:0:0:0:
192,192,100473,1,0,0:0:0:0:
64,192,100548,1,0,0:0:0:0:
192,192,100623,1,0,0:0:0:0:
320,192,100698,1,0,0:0:0:0:
192,192,100773,1,0,0:0:0:0:
448,192,100773,1,0,0:0:0:0:
64,192,100773,1,0,0:0:0:0:
320,192,100848,1,0,0:0:0:0:
192,192,100923,1,0,0:0:0:0:
448,192,100998,1,0,0:0:0:0:
192,192,101073,1,0,0:0:0:0:
320,192,101073,1,0,0:0:0:0:
64,192,101073,1,0,0:0:0:0:
448,192,101148,1,0,0:0:0:0:
64,192,101223,1,0,0:0:0:0:
192,192,101298,1,0,0:0:0:0:
320,192,101373,1,0,0:0:0:0:
448,192,101373,1,0,0:0:0:0:
64,192,101373,1,0,0:0:0:0:
192,192,101448,1,0,0:0:0:0:
448,192,101523,1,0,0:0:0:0:
320,192,101598,1,0,0:0:0:0:
192,192,101598,1,0,0:0:0:0:
64,192,101598,1,0,0:0:0:0:
448,192,101673,1,0,0:0:0:0:
320,192,101748,1,0,0:0:0:0:
448,192,101823,1,0,0:0:0:0:
192,192,101823,1,0,0:0:0:0:
64,192,101823,1,0,0:0:0:0:
320,192,101898,1,0,0:0:0:0:
64,192,101973,1,0,0:0:0:0:
192,192,102048,1,0,0:0:0:0:
320,192,102123,1,0,0:0:0:0:
448,192,102123,1,0,0:0:0:0:
64,192,102123,1,0,0:0:0:0:
192,192,102198,1,0,0:0:0:0:
448,192,102273,1,0,0:0:0:0:
320,192,102273,1,0,0:0:0:0:
64,192,102348,1,0,0:0:0:0:
192,192,102423,1,0,0:0:0:0:
320,192,102423,1,0,0:0:0:0:
448,192,102423,1,0,0:0:0:0:
64,192,102498,1,0,0:0:0:0:
448,192,102573,1,0,0:0:0:0:
192,192,102573,1,0,0:0:0:0:
320,192,102648,1,0,0:0:0:0:
192,192,102723,1,0,0:0:0:0:
64,192,102723,1,0,0:0:0:0:
320,192,102798,1,0,0:0:0:0:
192,192,102873,1,0,0:0:0:0:
448,192,102873,1,0,0:0:0:0:
64,192,102948,1,0,0:0:0:0:
320,192,102948,1,0,0:0:0:0:
192,192,103023,1,0,0:0:0:0:
448,192,103023,1,0,0:0:0:0:
64,192,103098,1,0,0:0:0:0:
320,192,103098,1,0,0:0:0:0:
192,192,103173,1,0,0:0:0:0:
448,192,103173,1,0,0:0:0:0:
320,192,103248,1,0,0:0:0:0:
64,192,103323,1,0,0:0:0:0:
192,192,103398,1,0,0:0:0:0:
64,192,103473,1,0,0:0:0:0:
448,192,103473,1,0,0:0:0:0:
320,192,103473,1,0,0:0:0:0:
192,192,103548,1,0,0:0:0:0:
448,192,103623,1,0,0:0:0:0:
320,192,103698,1,0,0:0:0:0:
64,192,103773,1,0,0:0:0:0:
192,192,103773,1,0,0:0:0:0:
448,192,103773,1,0,0:0:0:0:
320,192,103848,1,0,0:0:0:0:
192,192,103923,1,0,0:0:0:0:
64,192,103998,1,0,0:0:0:0:
320,192,104073,1,0,0:0:0:0:
448,192,104073,1,0,0:0:0:0:
192,192,104073,1,0,0:0:0:0:
64,192,104148,1,0,0:0:0:0:
448,192,104223,1,0,0:0:0:0:
320,192,104298,1,0,0:0:0:0:
192,192,104373,1,0,0:0:0:0:
64,192,104373,1,0,0:0:0:0:
448,192,104373,1,0,0:0:0:0:
320,192,104448,1,0,0:0:0:0:
64,192,104523,1,0,0:0:0:0:
448,192,104598,1,0,0:0:0:0:
192,192,104673,1,0,0:0:0:0:
320,192,104673,1,0,0:0:0:0:
64,192,104673,1,0,0:0:0:0:
448,192,104748,1,0,0:0:0:0:
64,192,104823,1,0,0:0:0:0:
192,192,104898,1,0,0:0:0:0:
320,192,104973,1,0,0:0:0:0:
448,192,104973,1,0,0:0:0:0:
64,192,104973,1,0,0:0:0:0:
192,192,105048,1,0,0:0:0:0:
448,192,105123,1,0,0:0:0:0:
320,192,105123,1,0,0:0:0:0:
64,192,105198,1,0,0:0:0:0:
192,192,105198,1,0,0:0:0:0:
448,192,105273,1,0,0:0:0:0:
320,192,105273,1,0,0:0:0:0:
64,192,105348,1,0,0:0:0:0:
192,192,105348,1,0,0:0:0:0:
320,192,105423,1,0,0:0:0:0:
448,192,105423,1,0,0:0:0:0:
64,192,105498,1,0,0:0:0:0:
192,192,105498,1,0,0:0:0:0:
320,192,105573,1,0,0:0:0:0:
448,192,105573,1,0,0:0:0:0:
64,192,105648,1,0,0:0:0:0:
192,192,105723,1,0,0:0:0:0:
320,192,105798,1,0,0:0:0:0:
64,192,105873,1,0,0:0:0:0:
192,192,105873,1,0,0:0:0:0:
448,192,105873,1,0,0:0:0:0:
320,192,105948,1,0,0:0:0:0:
448,192,106023,1,0,0:0:0:0:
64,192,106098,1,0,0:0:0:0:
192,192,106173,1,0,0:0:0:0:
320,192,106173,1,0,0:0:0:0:
448,192,106173,1,0,0:0:0:0:
64,192,106248,1,0,0:0:0:0:
448,192,106323,1,0,0:0:0:0:
192,192,106398,1,0,0:0:0:0:
64,192,106473,1,0,0:0:0:0:
448,192,106473,1,0,0:0:0:0:
320,192,106473,1,0,0:0:0:0:
192,192,106548,1,0,0:0:0:0:
448,192,106623,1,0,0:0:0:0:
320,192,106698,1,0,0:0:0:0:
64,192,106773,1,0,0:0:0:0:
192,192,106773,1,0,0:0:0:0:
448,192,106773,1,0,0:0:0:0:
320,192,106848,1,0,0:0:0:0:
64,192,106923,1,0,0:0:0:0:
448,192,106998,1,0,0:0:0:0:
64,192,107073,1,0,0:0:0:0:
192,192,107073,1,0,0:0:0:0:
320,192,107073,1,0,0:0:0:0:
448,192,107148,1,0,0:0:0:0:
192,192,107223,1,0,0:0:0:0:
64,192,107298,1,0,0:0:0:0:
192,192,107373,1,0,0:0:0:0:
320,192,107373,1,0,0:0:0:0:
448,192,107373,1,0,0:0:0:0:
64,192,107448,1,0,0:0:0:0:
448,192,107523,1,0,0:0:0:0:
320,192,107598,1,0,0:0:0:0:
64,192,107673,1,0,0:0:0:0:
192,192,107673,1,0,0:0:0:0:
448,192,107673,1,0,0:0:0:0:
320,192,107748,1,0,0:0:0:0:
64,192,107823,1,0,0:0:0:0:
192,192,107898,1,0,0:0:0:0:
448,192,107973,1,0,0:0:0:0:
320,192,107973,1,0,0:0:0:0:
64,192,107973,1,0,0:0:0:0:
192,192,108048,1,0,0:0:0:0:
320,192,108123,1,0,0:0:0:0:
448,192,108198,1,0,0:0:0:0:
64,192,108273,1,0,0:0:0:0:
192,192,108273,1,0,0:0:0:0:
320,192,108273,1,0,0:0:0:0:
448,192,108348,1,0,0:0:0:0:
320,192,108423,1,0,0:0:0:0:
64,192,108498,1,0,0:0:0:0:
448,192,108573,1,0,0:0:0:0:
192,192,108573,1,0,0:0:0:0:
320,192,108573,1,0,0:0:0:0:
64,192,108648,1,0,0:0:0:0:
448,192,108723,1,0,0:0:0:0:
320,192,108798,1,0,0:0:0:0:
64,192,108873,1,0,0:0:0:0:
192,192,108873,1,0,0:0:0:0:
448,192,108873,1,0,0:0:0:0:
320,192,108948,1,0,0:0:0:0:
64,192,109023,1,0,0:0:0:0:
192,192,109023,1,0,0:0:0:0:
320,192,109098,1,0,0:0:0:0:
448,192,109173,1,0,0:0:0:0:
64,192,109173,1,0,0:0:0:0:
192,192,109173,1,0,0:0:0:0:
320,192,109248,1,0,0:0:0:0:
64,192,109323,1,0,0:0:0:0:
192,192,109398,1,0,0:0:0:0:
448,192,109473,1,0,0:0:0:0:
64,192,109473,1,0,0:0:0:0:
192,192,109548,1,0,0:0:0:0:
320,192,109548,1,0,0:0:0:0:
448,192,109623,1,0,0:0:0:0:
64,192,109623,1,0,0:0:0:0:
192,192,109698,1,0,0:0:0:0:
320,192,109698,1,0,0:0:0:0:
64,192,109773,1,0,0:0:0:0:
448,192,109773,1,0,0:0:0:0:
192,192,109923,1,0,0:0:0:0:
320,192,109923,1,0,0:0:0:0:
64,192,109998,1,0,0:0:0:0:
448,192,109998,1,0,0:0:0:0:
320,192,110073,1,0,0:0:0:0:
64,192,110148,1,0,0:0:0:0:
192,192,110223,1,0,0:0:0:0:
320,192,110223,1,0,0:0:0:0:
448,192,110298,1,0,0:0:0:0:
64,192,110373,1,0,0:0:0:0:
192,192,110373,1,0,0:0:0:0:
320,192,110373,1,0,0:0:0:0:
448,192,110448,1,0,0:0:0:0:
64,192,110523,1,0,0:0:0:0:
192,192,110598,1,0,0:0:0:0:
320,192,110673,1,0,0:0:0:0:
448,192,110673,1,0,0:0:0:0:
64,192,110673,1,0,0:0:0:0:
192,192,110748,1,0,0:0:0:0:
448,192,110823,1,0,0:0:0:0:
320,192,110898,1,0,0:0:0:0:
64,192,110973,1,0,0:0:0:0:
192,192,110973,1,0,0:0:0:0:
448,192,110973,1,0,0:0:0:0:
320,192,111048,1,0,0:0:0:0:
64,192,111123,1,0,0:0:0:0:
192,192,111198,1,0,0:0:0:0:
320,192,111273,1,0,0:0:0:0:
448,192,111273,1,0,0:0:0:0:
64,192,111273,1,0,0:0:0:0:
192,192,111348,1,0,0:0:0:0:
320,192,111423,1,0,0:0:0:0:
448,192,111498,1,0,0:0:0:0:
64,192,111573,1,0,0:0:0:0:
192,192,111573,1,0,0:0:0:0:
320,192,111573,1,0,0:0:0:0:
448,192,111648,1,0,0:0:0:0:
64,192,111723,1,0,0:0:0:0:
320,192,111798,1,0,0:0:0:0:
448,192,111873,1,0,0:0:0:0:
192,192,111873,1,0,0:0:0:0:
64,192,111873,1,0,0:0:0:0:
320,192,111948,1,0,0:0:0:0:
192,192,112023,1,0,0:0:0:0:
448,192,112098,1,0,0:0:0:0:
192,192,112173,1,0,0:0:0:0:
320,192,112173,1,0,0:0:0:0:
64,192,112173,1,0,0:0:0:0:
448,192,112248,1,0,0:0:0:0:
64,192,112323,1,0,0:0:0:0:
192,192,112323,1,0,0:0:0:0:
320,192,112398,1,0,0:0:0:0:
64,192,112473,1,0,0:0:0:0:
192,192,112473,1,0,0:0:0:0:
320,192,112548,1,0,0:0:0:0:
448,192,112548,1,0,0:0:0:0:
64,192,112623,1,0,0:0:0:0:
192,192,112623,1,0,0:0:0:0:
320,192,112698,1,0,0:0:0:0:
448,192,112698,1,0,0:0:0:0:
64,192,112773,1,0,0:0:0:0:
192,192,112773,1,0,0:0:0:0:
320,192,112848,1,0,0:0:0:0:
192,192,112923,1,0,0:0:0:0:
448,192,112923,1,0,0:0:0:0:
64,192,112998,1,0,0:0:0:0:
192,192,113073,1,0,0:0:0:0:
320,192,113073,1,0,0:0:0:0:
448,192,113073,1,0,0:0:0:0:
64,192,113148,1,0,0:0:0:0:
448,192,113223,1,0,0:0:0:0:
320,192,113223,1,0,0:0:0:0:
192,192,113298,1,0,0:0:0:0:
64,192,113373,1,0,0:0:0:0:
320,192,113373,1,0,0:0:0:0:
448,192,113373,1,0,0:0:0:0:
192,192,113448,1,0,0:0:0:0:
448,192,113523,1,0,0:0:0:0:
64,192,113523,1,0,0:0:0:0:
320,192,113598,1,0,0:0:0:0:
64,192,113673,1,0,0:0:0:0:
192,192,113673,1,0,0:0:0:0:
448,192,113673,1,0,0:0:0:0:
320,192,113748,1,0,0:0:0:0:
192,192,113823,1,0,0:0:0:0:
64,192,113823,1,0,0:0:0:0:
448,192,113898,1,0,0:0:0:0:
192,192,113973,1,0,0:0:0:0:
64,192,114048,1,0,0:0:0:0:
320,192,114123,1,0,0:0:0:0:
448,192,114123,1,0,0:0:0:0:
64,192,114198,1,0,0:0:0:0:
192,192,114198,1,0,0:0:0:0:
320,192,114273,1,0,0:0:0:0:
448,192,114273,1,0,0:0:0:0:
192,192,114348,1,0,0:0:0:0:
64,192,114348,1,0,0:0:0:0:
320,192,114423,1,0,0:0:0:0:
448,192,114423,1,0,0:0:0:0:
64,192,114498,1,0,0:0:0:0:
192,192,114498,1,0,0:0:0:0:
320,192,114573,1,0,0:0:0:0:
448,192,114573,1,0,0:0:0:0:
64,192,114648,1,0,0:0:0:0:
192,192,114648,1,0,0:0:0:0:
320,192,114723,1,0,0:0:0:0:
448,192,114723,1,0,0:0:0:0:
64,192,114798,1,0,0:0:0:0:
192,192,114798,1,0,0:0:0:0:
320,192,114873,1,0,0:0:0:0:
448,192,114873,1,0,0:0:0:0:
64,192,114948,1,0,0:0:0:0:
192,192,114948,1,0,0:0:0:0:
320,192,115023,1,0,0:0:0:0:
448,192,115023,1,0,0:0:0:0:
64,192,115098,1,0,0:0:0:0:
192,192,115098,1,0,0:0:0:0:
320,192,115173,1,0,0:0:0:0:
448,192,115173,1,0,0:0:0:0:
64,192,115248,1,0,0:0:0:0:
192,192,115323,1,0,0:0:0:0:
320,192,115323,1,0,0:0:0:0:
448,192,115398,1,0,0:0:0:0:
64,192,115473,1,0,0:0:0:0:
320,192,115473,1,0,0:0:0:0:
192,192,115548,1,0,0:0:0:0:
448,192,115623,1,0,0:0:0:0:
320,192,115623,1,0,0:0:0:0:
64,192,115698,1,0,0:0:0:0:
192,192,115773,1,0,0:0:0:0:
448,192,115773,1,0,0:0:0:0:
320,192,115848,1,0,0:0:0:0:
64,192,115923,1,0,0:0:0:0:
192,192,115923,1,0,0:0:0:0:
320,192,115998,1,0,0:0:0:0:
64,192,116073,1,0,0:0:0:0:
448,192,116073,1,0,0:0:0:0:
192,192,116148,1,0,0:0:0:0:
320,192,116223,1,0,0:0:0:0:
448,192,116223,1,0,0:0:0:0:
192,192,116298,1,0,0:0:0:0:
64,192,116298,1,0,0:0:0:0:
320,192,116373,1,0,0:0:0:0:
448,192,116373,1,0,0:0:0:0:
64,192,116448,1,0,0:0:0:0:
192,192,116523,1,0,0:0:0:0:
320,192,116523,1,0,0:0:0:0:
448,192,116598,1,0,0:0:0:0:
64,192,116673,1,0,0:0:0:0:
320,192,116673,1,0,0:0:0:0:
192,192,116748,1,0,0:0:0:0:
448,192,116823,1,0,0:0:0:0:
64,192,116823,1,0,0:0:0:0:
320,192,116898,1,0,0:0:0:0:
64,192,116973,1,0,0:0:0:0:
192,192,116973,1,0,0:0:0:0:
448,192,117048,1,0,0:0:0:0:
320,192,117123,1,0,0:0:0:0:
192,192,117123,1,0,0:0:0:0:
64,192,117198,1,0,0:0:0:0:
448,192,117198,1,0,0:0:0:0:
320,192,117273,1,0,0:0:0:0:
192,192,117273,1,0,0:0:0:0:
64,192,117348,1,0,0:0:0:0:
448,192,117348,1,0,0:0:0:0:
192,192,117423,1,0,0:0:0:0:
320,192,117423,1,0,0:0:0:0:
64,192,117498,1,0,0:0:0:0:
448,192,117498,1,0,0:0:0:0:
192,192,117573,1,0,0:0:0:0:
320,192,117573,1,0,0:0:0:0:
64,192,117648,1,0,0:0:0:0:
192,192,117723,1,0,0:0:0:0:
320,192,117798,1,0,0:0:0:0:
448,192,117873,1,0,0:0:0:0:
192,192,117873,1,0,0:0:0:0:
64,192,117873,1,0,0:0:0:0:
320,192,117948,1,0,0:0:0:0:
448,192,118023,1,0,0:0:0:0:
192,192,118098,1,0,0:0:0:0:
64,192,118173,1,0,0:0:0:0:
320,192,118173,1,0,0:0:0:0:
448,192,118173,1,0,0:0:0:0:
192,192,118248,1,0,0:0:0:0:
320,192,118323,1,0,0:0:0:0:
64,192,118398,1,0,0:0:0:0:
320,192,118473,1,0,0:0:0:0:
192,192,118473,1,0,0:0:0:0:
448,192,118473,1,0,0:0:0:0:
64,192,118548,1,0,0:0:0:0:
448,192,118623,1,0,0:0:0:0:
320,192,118623,1,0,0:0:0:0:
192,192,118698,1,0,0:0:0:0:
64,192,118773,1,0,0:0:0:0:
320,192,118848,1,0,0:0:0:0:
64,192,118923,1,0,0:0:0:0:
192,192,118923,1,0,0:0:0:0:
448,192,118923,1,0,0:0:0:0:
192,192,119073,1,0,0:0:0:0:
320,192,119073,1,0,0:0:0:0:
448,192,119073,1,0,0:0:0:0:
64,192,119223,1,0,0:0:0:0:
192,192,119223,1,0,0:0:0:0:
320,192,119223,1,0,0:0:0:0:
64,192,119373,1,0,0:0:0:0:
320,192,119373,1,0,0:0:0:0:
448,192,119373,1,0,0:0:0:0:
64,192,119523,1,0,0:0:0:0:
192,192,119523,1,0,0:0:0:0:
448,192,119598,1,0,0:0:0:0:
320,192,119598,1,0,0:0:0:0:
192,192,119673,1,0,0:0:0:0:
64,192,119673,1,0,0:0:0:0:
320,192,119748,1,0,0:0:0:0:
448,192,119748,1,0,0:0:0:0:
192,192,119823,1,0,0:0:0:0:
64,192,119823,1,0,0:0:0:0:
320,192,119898,1,0,0:0:0:0:
448,192,119898,1,0,0:0:0:0:
64,192,119973,1,0,0:0:0:0:
192,192,119973,1,0,0:0:0:0:
192,192,120123,1,0,0:0:0:0:
320,192,120123,1,0,0:0:0:0:
448,192,120123,1,0,0:0:0:0:
64,192,120273,1,0,0:0:0:0:
320,192,120273,1,0,0:0:0:0:
448,192,120273,1,0,0:0:0:0:
64,192,120573,1,0,0:0:0:0:
192,192,120573,1,0,0:0:0:0:
320,192,120573,1,0,0:0:0:0:
192,192,120723,1,0,0:0:0:0:
320,192,120723,1,0,0:0:0:0:
448,192,120723,1,0,0:0:0:0:
64,192,120873,1,0,0:0:0:0:
192,192,120873,1,0,0:0:0:0:
448,192,120873,1,0,0:0:0:0:
192,192,121023,1,0,0:0:0:0:
320,192,121023,1,0,0:0:0:0:
448,192,121023,1,0,0:0:0:0:
64,192,121173,128,0,121323:0:0:0:0:
192,192,121323,1,0,0:0:0:0:
320,192,121323,1,0,0:0:0:0:
448,192,121323,1,0,0:0:0:0:
64,192,121473,1,0,0:0:0:0:
192,192,121473,1,0,0:0:0:0:
320,192,121473,1,0,0:0:0:0:
64,192,121623,1,0,0:0:0:0:
320,192,121623,1,0,0:0:0:0:
448,192,121623,1,0,0:0:0:0:
448,192,121773,1,0,0:0:0:0:
320,192,121773,1,0,0:0:0:0:
192,192,121773,1,0,0:0:0:0:
64,192,121848,1,0,0:0:0:0:
448,192,121923,1,0,0:0:0:0:
64,192,121998,1,0,0:0:0:0:
320,192,122073,1,0,0:0:0:0:
192,192,122073,1,0,0:0:0:0:
192,192,122373,1,0,0:0:0:0:
64,192,122373,1,0,0:0:0:0:
448,192,122373,1,0,0:0:0:0:
320,192,122373,1,0,0:0:0:0:
