osu file format v14

[General]
AudioFilename: audio.mp3
AudioLeadIn: 0
PreviewTime: 168998
Countdown: 0
SampleSet: Soft
StackLeniency: 0.7
Mode: 3
LetterboxInBreaks: 0
SpecialStyle: 0
WidescreenStoryboard: 0

[Editor]
Bookmarks: 12155,22534,32912,43290,53669,64047,69236,79615,89993,95182,105561,115939,136696,147074,157452,170425,191182,201561,211939,222317,232696,242993
DistanceSpacing: 1.4
BeatDivisor: 4
GridSize: 4
TimelineZoom: 2.6

[Metadata]
Title:Twin*kle Snowglobe [Toward the Galaxies]
TitleUnicode:Twin☆kle Snowglobe [Toward the Galaxies]
Artist:Hino Isuka x otoshi.b
ArtistUnicode:翡乃イスカ × otoshi.b
Creator:taba2
Version:[EMOTIONAL]
Source:THE BMS OF FIGHTERS : ET -Summer Dream Traveler-
Tags:emotional×j-happycore emotional j-happycore electronic instrumental chiptune twinkle happy hardcore hard core j-core jcore j core bof:et bof : et summer traveler video game compilation album disc 5 groundbreaking 2022 happy core cosmos eighteen chordstreams chord streams
BeatmapID:4225836
BeatmapSetID:2027937

[Difficulty]
HPDrainRate:8.6
CircleSize:7
OverallDifficulty:8.9
ApproachRate:5
SliderMultiplier:1.4
SliderTickRate:1

[Events]
//Background and Video events
0,0,"109301396_p0_master1200 (1).jpg",0,0
//Break Periods
//Storyboard Layer 0 (Background)
//Storyboard Layer 1 (Fail)
//Storyboard Layer 2 (Pass)
//Storyboard Layer 3 (Foreground)
//Storyboard Layer 4 (Overlay)
//Storyboard Sound Samples

[TimingPoints]
512,324.324324324324,4,2,1,50,1,0
170295,-100,4,2,1,50,0,1
191214,-100,4,2,1,50,0,0

[HitObjects]
182,192,512,5,0,0:0:0:0:
36,192,566,1,0,0:0:0:0:
256,192,620,1,0,0:0:0:0:
109,192,674,1,0,0:0:0:0:
329,192,728,1,0,0:0:0:0:
182,192,782,1,0,0:0:0:0:
402,192,836,1,0,0:0:0:0:
256,192,890,1,0,0:0:0:0:
475,192,944,1,0,0:0:0:0:
329,192,998,1,0,0:0:0:0:
182,192,1052,1,0,0:0:0:0:
402,192,1106,1,0,0:0:0:0:
256,192,1160,1,0,0:0:0:0:
475,192,1214,1,0,0:0:0:0:
329,192,1268,1,0,0:0:0:0:
182,192,1322,1,0,0:0:0:0:
36,192,1376,1,0,0:0:0:0:
256,192,1430,1,0,0:0:0:0:
109,192,1484,1,0,0:0:0:0:
329,192,1539,1,0,0:0:0:0:
182,192,1593,1,0,0:0:0:0:
36,192,1647,1,0,0:0:0:0:
402,192,1701,1,0,0:0:0:0:
256,192,1755,1,0,0:0:0:0:
109,192,1809,1,0,0:0:0:0:
36,192,1809,1,0,0:0:0:0:
475,192,1809,1,0,0:0:0:0:
256,192,3106,1,0,0:0:0:0:
182,192,4403,1,0,0:0:0:0:
109,192,5701,1,0,0:0:0:0:
36,192,6998,1,0,0:0:0:0:
182,192,6998,1,0,0:0:0:0:
402,192,6998,1,0,0:0:0:0:
329,192,9268,1,0,0:0:0:0:
182,192,9430,1,0,0:0:0:0:
36,192,9593,1,0,0:0:0:0:
182,192,9593,1,0,0:0:0:0:
329,192,10566,1,0,0:0:0:0:
256,192,10890,1,0,0:0:0:0:
109,192,10890,1,0,0:0:0:0:
475,192,10890,1,0,0:0:0:0:
182,192,11539,1,0,0:0:0:0:
36,192,11539,1,0,0:0:0:0:
402,192,11539,1,0,0:0:0:0:
256,192,12187,1,0,0:0:0:0:
475,192,12187,1,0,0:0:0:0:
36,192,12187,1,0,0:0:0:0:
182,192,13809,1,0,0:0:0:0:
256,192,14133,1,0,0:0:0:0:
329,192,14457,1,0,0:0:0:0:
329,192,14620,1,0,0:0:0:0:
109,192,14782,1,0,0:0:0:0:
36,192,14782,1,0,0:0:0:0:
256,192,14944,1,0,0:0:0:0:
182,192,16079,1,0,0:0:0:0:
329,192,16079,1,0,0:0:0:0:
256,192,16403,1,0,0:0:0:0:
329,192,16728,1,0,0:0:0:0:
36,192,16728,1,0,0:0:0:0:
402,192,17052,1,0,0:0:0:0:
256,192,17214,1,0,0:0:0:0:
109,192,17376,1,0,0:0:0:0:
36,192,17376,1,0,0:0:0:0:
329,192,17539,1,0,0:0:0:0:
182,192,17620,1,0,0:0:0:0:
329,192,17701,1,0,0:0:0:0:
109,192,18674,1,0,0:0:0:0:
182,192,18998,1,0,0:0:0:0:
256,192,19322,1,0,0:0:0:0:
329,192,19647,1,0,0:0:0:0:
402,192,19971,1,0,0:0:0:0:
475,192,19971,1,0,0:0:0:0:
256,192,21268,1,0,0:0:0:0:
256,192,22241,1,0,0:0:0:0:
475,192,22566,1,0,0:0:0:0:
329,192,22566,1,0,0:0:0:0:
36,192,22566,1,0,0:0:0:0:
402,192,22566,1,0,0:0:0:0:
329,192,22728,1,0,0:0:0:0:
109,192,22728,1,0,0:0:0:0:
402,192,22890,1,0,0:0:0:0:
182,192,22890,1,0,0:0:0:0:
329,192,22971,1,0,0:0:0:0:
475,192,23052,1,0,0:0:0:0:
402,192,23052,1,0,0:0:0:0:
36,192,23052,1,0,0:0:0:0:
109,192,23214,1,0,0:0:0:0:
402,192,23376,1,0,0:0:0:0:
182,192,23376,1,0,0:0:0:0:
329,192,23457,1,0,0:0:0:0:
256,192,23539,1,0,0:0:0:0:
475,192,23539,1,0,0:0:0:0:
36,192,23539,1,0,0:0:0:0:
109,192,23701,1,0,0:0:0:0:
475,192,23863,1,0,0:0:0:0:
182,192,23863,1,0,0:0:0:0:
402,192,23944,1,0,0:0:0:0:
256,192,24025,1,0,0:0:0:0:
36,192,24025,1,0,0:0:0:0:
475,192,24025,1,0,0:0:0:0:
329,192,24106,1,0,0:0:0:0:
256,192,24187,1,0,0:0:0:0:
109,192,24187,1,0,0:0:0:0:
402,192,24268,1,0,0:0:0:0:
329,192,24349,1,0,0:0:0:0:
182,192,24349,1,0,0:0:0:0:
475,192,24430,1,0,0:0:0:0:
402,192,24511,1,0,0:0:0:0:
256,192,24511,1,0,0:0:0:0:
36,192,24511,1,0,0:0:0:0:
329,192,24593,1,0,0:0:0:0:
182,192,24593,1,0,0:0:0:0:
402,192,24674,1,0,0:0:0:0:
109,192,24674,1,0,0:0:0:0:
182,192,24836,1,0,0:0:0:0:
329,192,24998,1,0,0:0:0:0:
36,192,24998,1,0,0:0:0:0:
256,192,25160,1,0,0:0:0:0:
109,192,25160,1,0,0:0:0:0:
402,192,25241,1,0,0:0:0:0:
182,192,25241,1,0,0:0:0:0:
475,192,25322,1,0,0:0:0:0:
329,192,25322,1,0,0:0:0:0:
36,192,25322,1,0,0:0:0:0:
109,192,25403,1,0,0:0:0:0:
256,192,25403,1,0,0:0:0:0:
36,192,25484,1,0,0:0:0:0:
329,192,25484,1,0,0:0:0:0:
182,192,25566,1,0,0:0:0:0:
109,192,25647,1,0,0:0:0:0:
402,192,25647,1,0,0:0:0:0:
256,192,25728,1,0,0:0:0:0:
36,192,25809,1,0,0:0:0:0:
182,192,25809,1,0,0:0:0:0:
475,192,25809,1,0,0:0:0:0:
109,192,25971,1,0,0:0:0:0:
329,192,25971,1,0,0:0:0:0:
109,192,26133,1,0,0:0:0:0:
402,192,26133,1,0,0:0:0:0:
36,192,26214,1,0,0:0:0:0:
182,192,26295,1,0,0:0:0:0:
475,192,26295,1,0,0:0:0:0:
109,192,26376,1,0,0:0:0:0:
256,192,26457,1,0,0:0:0:0:
36,192,26457,1,0,0:0:0:0:
329,192,26457,1,0,0:0:0:0:
182,192,26539,1,0,0:0:0:0:
475,192,26539,1,0,0:0:0:0:
256,192,26620,1,0,0:0:0:0:
402,192,26620,1,0,0:0:0:0:
182,192,26701,1,0,0:0:0:0:
36,192,26782,1,0,0:0:0:0:
109,192,26782,1,0,0:0:0:0:
475,192,26782,1,0,0:0:0:0:
256,192,26944,1,0,0:0:0:0:
329,192,26944,1,0,0:0:0:0:
36,192,27106,1,0,0:0:0:0:
402,192,27106,1,0,0:0:0:0:
475,192,27106,1,0,0:0:0:0:
329,192,27147,1,0,0:0:0:0:
256,192,27187,1,0,0:0:0:0:
182,192,27228,1,0,0:0:0:0:
109,192,27268,1,0,0:0:0:0:
402,192,27268,1,0,0:0:0:0:
256,192,27349,1,0,0:0:0:0:
329,192,27349,1,0,0:0:0:0:
182,192,27430,1,0,0:0:0:0:
36,192,27430,1,0,0:0:0:0:
475,192,27430,1,0,0:0:0:0:
109,192,27593,1,0,0:0:0:0:
256,192,27593,1,0,0:0:0:0:
402,192,27593,1,0,0:0:0:0:
329,192,27755,1,0,0:0:0:0:
182,192,27755,1,0,0:0:0:0:
402,192,27917,1,0,0:0:0:0:
182,192,27917,1,0,0:0:0:0:
329,192,27998,1,0,0:0:0:0:
475,192,28079,1,0,0:0:0:0:
256,192,28079,1,0,0:0:0:0:
36,192,28079,1,0,0:0:0:0:
402,192,28241,1,0,0:0:0:0:
109,192,28241,1,0,0:0:0:0:
329,192,28322,1,0,0:0:0:0:
475,192,28403,1,0,0:0:0:0:
182,192,28403,1,0,0:0:0:0:
402,192,28484,1,0,0:0:0:0:
36,192,28566,1,0,0:0:0:0:
475,192,28566,1,0,0:0:0:0:
256,192,28566,1,0,0:0:0:0:
402,192,28728,1,0,0:0:0:0:
109,192,28728,1,0,0:0:0:0:
329,192,28809,1,0,0:0:0:0:
475,192,28890,1,0,0:0:0:0:
182,192,28890,1,0,0:0:0:0:
402,192,28971,1,0,0:0:0:0:
475,192,29052,1,0,0:0:0:0:
36,192,29052,1,0,0:0:0:0:
256,192,29052,1,0,0:0:0:0:
109,192,29214,1,0,0:0:0:0:
402,192,29376,1,0,0:0:0:0:
182,192,29376,1,0,0:0:0:0:
329,192,29457,1,0,0:0:0:0:
475,192,29539,1,0,0:0:0:0:
256,192,29539,1,0,0:0:0:0:
36,192,29539,1,0,0:0:0:0:
182,192,29701,1,0,0:0:0:0:
329,192,29782,1,0,0:0:0:0:
475,192,29863,1,0,0:0:0:0:
256,192,29863,1,0,0:0:0:0:
109,192,29863,1,0,0:0:0:0:
402,192,29944,1,0,0:0:0:0:
36,192,30025,1,0,0:0:0:0:
256,192,30025,1,0,0:0:0:0:
182,192,30025,1,0,0:0:0:0:
402,192,30187,1,0,0:0:0:0:
329,192,30187,1,0,0:0:0:0:
109,192,30187,1,0,0:0:0:0:
36,192,30349,1,0,0:0:0:0:
256,192,30349,1,0,0:0:0:0:
182,192,30430,1,0,0:0:0:0:
475,192,30511,1,0,0:0:0:0:
36,192,30511,1,0,0:0:0:0:
329,192,30511,1,0,0:0:0:0:
109,192,30593,1,0,0:0:0:0:
475,192,30674,1,0,0:0:0:0:
182,192,30674,1,0,0:0:0:0:
402,192,30674,1,0,0:0:0:0:
36,192,30755,1,0,0:0:0:0:
402,192,30836,1,0,0:0:0:0:
109,192,30836,1,0,0:0:0:0:
256,192,30836,1,0,0:0:0:0:
36,192,30917,1,0,0:0:0:0:
182,192,30998,1,0,0:0:0:0:
329,192,30998,1,0,0:0:0:0:
475,192,31079,1,0,0:0:0:0:
109,192,31160,1,0,0:0:0:0:
402,192,31160,1,0,0:0:0:0:
36,192,31241,1,0,0:0:0:0:
329,192,31241,1,0,0:0:0:0:
475,192,31322,1,0,0:0:0:0:
256,192,31322,1,0,0:0:0:0:
109,192,31403,1,0,0:0:0:0:
402,192,31403,1,0,0:0:0:0:
182,192,31484,1,0,0:0:0:0:
329,192,31484,1,0,0:0:0:0:
109,192,31566,1,0,0:0:0:0:
475,192,31647,1,0,0:0:0:0:
256,192,31647,1,0,0:0:0:0:
36,192,31647,1,0,0:0:0:0:
182,192,31809,1,0,0:0:0:0:
109,192,31809,1,0,0:0:0:0:
402,192,31809,1,0,0:0:0:0:
475,192,31890,1,0,0:0:0:0:
256,192,31890,1,0,0:0:0:0:
36,192,31971,1,0,0:0:0:0:
109,192,31971,1,0,0:0:0:0:
329,192,31971,1,0,0:0:0:0:
182,192,32133,1,0,0:0:0:0:
402,192,32133,1,0,0:0:0:0:
36,192,32214,1,0,0:0:0:0:
256,192,32214,1,0,0:0:0:0:
475,192,32214,1,0,0:0:0:0:
182,192,32295,1,0,0:0:0:0:
402,192,32295,1,0,0:0:0:0:
109,192,32376,1,0,0:0:0:0:
329,192,32376,1,0,0:0:0:0:
36,192,32457,1,0,0:0:0:0:
475,192,32457,1,0,0:0:0:0:
256,192,32457,1,0,0:0:0:0:
402,192,32539,1,0,0:0:0:0:
182,192,32539,1,0,0:0:0:0:
329,192,32620,1,0,0:0:0:0:
475,192,32620,1,0,0:0:0:0:
109,192,32620,1,0,0:0:0:0:
36,192,32620,1,0,0:0:0:0:
182,192,32701,1,0,0:0:0:0:
256,192,32701,1,0,0:0:0:0:
402,192,32782,1,0,0:0:0:0:
36,192,32782,1,0,0:0:0:0:
329,192,32782,1,0,0:0:0:0:
256,192,32863,1,0,0:0:0:0:
109,192,32863,1,0,0:0:0:0:
182,192,32944,1,0,0:0:0:0:
36,192,32944,1,0,0:0:0:0:
402,192,32944,1,0,0:0:0:0:
475,192,32944,1,0,0:0:0:0:
256,192,33106,1,0,0:0:0:0:
182,192,33187,1,0,0:0:0:0:
475,192,33268,1,0,0:0:0:0:
329,192,33268,1,0,0:0:0:0:
109,192,33268,1,0,0:0:0:0:
256,192,33349,1,0,0:0:0:0:
402,192,33430,1,0,0:0:0:0:
36,192,33430,1,0,0:0:0:0:
182,192,33430,1,0,0:0:0:0:
329,192,33511,1,0,0:0:0:0:
109,192,33593,1,0,0:0:0:0:
402,192,33593,1,0,0:0:0:0:
182,192,33674,1,0,0:0:0:0:
475,192,33755,1,0,0:0:0:0:
36,192,33755,1,0,0:0:0:0:
109,192,33755,1,0,0:0:0:0:
329,192,33755,1,0,0:0:0:0:
256,192,33836,1,0,0:0:0:0:
475,192,33917,1,0,0:0:0:0:
402,192,33917,1,0,0:0:0:0:
182,192,33917,1,0,0:0:0:0:
329,192,33998,1,0,0:0:0:0:
109,192,34079,1,0,0:0:0:0:
256,192,34079,1,0,0:0:0:0:
402,192,34160,1,0,0:0:0:0:
182,192,34241,1,0,0:0:0:0:
475,192,34241,1,0,0:0:0:0:
329,192,34241,1,0,0:0:0:0:
36,192,34241,1,0,0:0:0:0:
256,192,34322,1,0,0:0:0:0:
402,192,34403,1,0,0:0:0:0:
182,192,34403,1,0,0:0:0:0:
329,192,34484,1,0,0:0:0:0:
36,192,34566,1,0,0:0:0:0:
109,192,34566,1,0,0:0:0:0:
256,192,34566,1,0,0:0:0:0:
329,192,34647,1,0,0:0:0:0:
182,192,34728,1,0,0:0:0:0:
402,192,34728,1,0,0:0:0:0:
256,192,34809,1,0,0:0:0:0:
109,192,34890,1,0,0:0:0:0:
475,192,34890,1,0,0:0:0:0:
329,192,34890,1,0,0:0:0:0:
182,192,34971,1,0,0:0:0:0:
475,192,35052,1,0,0:0:0:0:
36,192,35052,1,0,0:0:0:0:
109,192,35052,1,0,0:0:0:0:
402,192,35052,1,0,0:0:0:0:
329,192,35133,1,0,0:0:0:0:
36,192,35214,1,0,0:0:0:0:
475,192,35214,1,0,0:0:0:0:
402,192,35214,1,0,0:0:0:0:
256,192,35295,1,0,0:0:0:0:
109,192,35376,1,0,0:0:0:0:
329,192,35376,1,0,0:0:0:0:
182,192,35376,1,0,0:0:0:0:
256,192,35457,1,0,0:0:0:0:
475,192,35539,1,0,0:0:0:0:
109,192,35539,1,0,0:0:0:0:
36,192,35539,1,0,0:0:0:0:
402,192,35539,1,0,0:0:0:0:
256,192,35701,1,0,0:0:0:0:
329,192,35782,1,0,0:0:0:0:
182,192,35863,1,0,0:0:0:0:
36,192,35863,1,0,0:0:0:0:
402,192,35863,1,0,0:0:0:0:
109,192,36025,1,0,0:0:0:0:
402,192,36025,1,0,0:0:0:0:
329,192,36025,1,0,0:0:0:0:
182,192,36106,1,0,0:0:0:0:
36,192,36187,1,0,0:0:0:0:
329,192,36187,1,0,0:0:0:0:
256,192,36187,1,0,0:0:0:0:
182,192,36268,1,0,0:0:0:0:
402,192,36349,1,0,0:0:0:0:
475,192,36349,1,0,0:0:0:0:
109,192,36349,1,0,0:0:0:0:
36,192,36349,1,0,0:0:0:0:
329,192,36430,1,0,0:0:0:0:
475,192,36511,1,0,0:0:0:0:
256,192,36511,1,0,0:0:0:0:
109,192,36511,1,0,0:0:0:0:
329,192,36593,1,0,0:0:0:0:
36,192,36674,1,0,0:0:0:0:
182,192,36674,1,0,0:0:0:0:
402,192,36674,1,0,0:0:0:0:
256,192,36755,1,0,0:0:0:0:
475,192,36836,1,0,0:0:0:0:
109,192,36836,1,0,0:0:0:0:
182,192,36836,1,0,0:0:0:0:
402,192,36836,1,0,0:0:0:0:
329,192,36917,1,0,0:0:0:0:
36,192,36998,1,0,0:0:0:0:
182,192,36998,1,0,0:0:0:0:
402,192,36998,1,0,0:0:0:0:
256,192,37079,1,0,0:0:0:0:
329,192,37160,1,0,0:0:0:0:
475,192,37160,1,0,0:0:0:0:
109,192,37160,1,0,0:0:0:0:
182,192,37241,1,0,0:0:0:0:
329,192,37322,1,0,0:0:0:0:
402,192,37322,1,0,0:0:0:0:
109,192,37322,1,0,0:0:0:0:
256,192,37403,1,0,0:0:0:0:
475,192,37484,1,0,0:0:0:0:
109,192,37484,1,0,0:0:0:0:
36,192,37484,1,0,0:0:0:0:
402,192,37525,1,0,0:0:0:0:
329,192,37566,1,0,0:0:0:0:
256,192,37606,1,0,0:0:0:0:
182,192,37647,1,0,0:0:0:0:
475,192,37647,1,0,0:0:0:0:
109,192,37647,1,0,0:0:0:0:
36,192,37647,1,0,0:0:0:0:
402,192,37728,1,0,0:0:0:0:
182,192,37809,1,0,0:0:0:0:
256,192,37809,1,0,0:0:0:0:
36,192,37809,1,0,0:0:0:0:
402,192,37890,1,0,0:0:0:0:
329,192,37890,1,0,0:0:0:0:
475,192,37971,1,0,0:0:0:0:
109,192,37971,1,0,0:0:0:0:
182,192,37971,1,0,0:0:0:0:
329,192,38052,1,0,0:0:0:0:
256,192,38052,1,0,0:0:0:0:
109,192,38133,1,0,0:0:0:0:
36,192,38133,1,0,0:0:0:0:
402,192,38133,1,0,0:0:0:0:
475,192,38133,1,0,0:0:0:0:
256,192,38214,1,0,0:0:0:0:
475,192,38295,1,0,0:0:0:0:
329,192,38295,1,0,0:0:0:0:
182,192,38295,1,0,0:0:0:0:
109,192,38376,1,0,0:0:0:0:
256,192,38376,1,0,0:0:0:0:
182,192,38457,1,0,0:0:0:0:
36,192,38457,1,0,0:0:0:0:
402,192,38457,1,0,0:0:0:0:
475,192,38457,1,0,0:0:0:0:
329,192,38539,1,0,0:0:0:0:
36,192,38620,1,0,0:0:0:0:
109,192,38620,1,0,0:0:0:0:
256,192,38620,1,0,0:0:0:0:
329,192,38701,1,0,0:0:0:0:
182,192,38782,1,0,0:0:0:0:
109,192,38782,1,0,0:0:0:0:
402,192,38782,1,0,0:0:0:0:
475,192,38782,1,0,0:0:0:0:
256,192,38863,1,0,0:0:0:0:
475,192,38944,1,0,0:0:0:0:
36,192,38944,1,0,0:0:0:0:
329,192,38944,1,0,0:0:0:0:
256,192,39025,1,0,0:0:0:0:
182,192,39025,1,0,0:0:0:0:
402,192,39106,1,0,0:0:0:0:
475,192,39106,1,0,0:0:0:0:
109,192,39106,1,0,0:0:0:0:
36,192,39106,1,0,0:0:0:0:
329,192,39187,1,0,0:0:0:0:
182,192,39268,1,0,0:0:0:0:
475,192,39268,1,0,0:0:0:0:
256,192,39268,1,0,0:0:0:0:
402,192,39349,1,0,0:0:0:0:
36,192,39430,1,0,0:0:0:0:
475,192,39430,1,0,0:0:0:0:
329,192,39430,1,0,0:0:0:0:
182,192,39430,1,0,0:0:0:0:
256,192,39511,1,0,0:0:0:0:
402,192,39593,1,0,0:0:0:0:
36,192,39593,1,0,0:0:0:0:
109,192,39593,1,0,0:0:0:0:
182,192,39674,1,0,0:0:0:0:
475,192,39755,1,0,0:0:0:0:
36,192,39755,1,0,0:0:0:0:
256,192,39755,1,0,0:0:0:0:
329,192,39755,1,0,0:0:0:0:
109,192,39836,1,0,0:0:0:0:
256,192,39917,1,0,0:0:0:0:
402,192,39917,1,0,0:0:0:0:
36,192,39917,1,0,0:0:0:0:
182,192,39998,1,0,0:0:0:0:
402,192,40079,1,0,0:0:0:0:
475,192,40079,1,0,0:0:0:0:
109,192,40079,1,0,0:0:0:0:
329,192,40079,1,0,0:0:0:0:
256,192,40160,1,0,0:0:0:0:
475,192,40241,1,0,0:0:0:0:
36,192,40241,1,0,0:0:0:0:
182,192,40241,1,0,0:0:0:0:
402,192,40322,1,0,0:0:0:0:
36,192,40403,1,0,0:0:0:0:
256,192,40403,1,0,0:0:0:0:
329,192,40403,1,0,0:0:0:0:
109,192,40403,1,0,0:0:0:0:
475,192,40484,1,0,0:0:0:0:
402,192,40484,1,0,0:0:0:0:
36,192,40566,1,0,0:0:0:0:
256,192,40566,1,0,0:0:0:0:
182,192,40566,1,0,0:0:0:0:
402,192,40647,1,0,0:0:0:0:
329,192,40647,1,0,0:0:0:0:
36,192,40728,1,0,0:0:0:0:
256,192,40728,1,0,0:0:0:0:
109,192,40728,1,0,0:0:0:0:
475,192,40728,1,0,0:0:0:0:
182,192,40728,1,0,0:0:0:0:
329,192,40890,1,0,0:0:0:0:
402,192,40890,1,0,0:0:0:0:
109,192,40890,1,0,0:0:0:0:
182,192,40890,1,0,0:0:0:0:
36,192,41052,1,0,0:0:0:0:
475,192,41052,1,0,0:0:0:0:
329,192,41052,1,0,0:0:0:0:
182,192,41052,1,0,0:0:0:0:
256,192,41052,1,0,0:0:0:0:
402,192,41214,1,0,0:0:0:0:
109,192,41214,1,0,0:0:0:0:
256,192,41214,1,0,0:0:0:0:
329,192,41214,1,0,0:0:0:0:
182,192,41376,1,0,0:0:0:0:
36,192,41376,1,0,0:0:0:0:
475,192,41376,1,0,0:0:0:0:
329,192,41376,1,0,0:0:0:0:
402,192,41376,1,0,0:0:0:0:
256,192,41457,1,0,0:0:0:0:
109,192,41457,1,0,0:0:0:0:
36,192,41539,1,0,0:0:0:0:
475,192,41539,1,0,0:0:0:0:
182,192,41539,1,0,0:0:0:0:
256,192,41620,1,0,0:0:0:0:
402,192,41620,1,0,0:0:0:0:
36,192,41701,1,0,0:0:0:0:
109,192,41701,1,0,0:0:0:0:
329,192,41701,1,0,0:0:0:0:
475,192,41701,1,0,0:0:0:0:
402,192,41782,1,0,0:0:0:0:
182,192,41782,1,0,0:0:0:0:
36,192,41863,1,0,0:0:0:0:
109,192,41863,1,0,0:0:0:0:
329,192,41863,1,0,0:0:0:0:
402,192,41944,1,0,0:0:0:0:
256,192,41944,1,0,0:0:0:0:
475,192,42025,1,0,0:0:0:0:
182,192,42025,1,0,0:0:0:0:
36,192,42025,1,0,0:0:0:0:
329,192,42025,1,0,0:0:0:0:
109,192,42106,1,0,0:0:0:0:
256,192,42106,1,0,0:0:0:0:
475,192,42187,1,0,0:0:0:0:
182,192,42187,1,0,0:0:0:0:
36,192,42187,1,0,0:0:0:0:
329,192,42268,1,0,0:0:0:0:
402,192,42268,1,0,0:0:0:0:
182,192,42349,1,0,0:0:0:0:
109,192,42349,1,0,0:0:0:0:
256,192,42430,1,0,0:0:0:0:
329,192,42430,1,0,0:0:0:0:
109,192,42511,1,0,0:0:0:0:
36,192,42511,1,0,0:0:0:0:
182,192,42593,1,0,0:0:0:0:
256,192,42593,1,0,0:0:0:0:
475,192,42674,1,0,0:0:0:0:
402,192,42674,1,0,0:0:0:0:
36,192,42674,1,0,0:0:0:0:
329,192,42714,1,0,0:0:0:0:
256,192,42755,1,0,0:0:0:0:
182,192,42795,1,0,0:0:0:0:
36,192,42836,1,0,0:0:0:0:
475,192,42836,1,0,0:0:0:0:
109,192,42836,1,0,0:0:0:0:
402,192,42876,1,0,0:0:0:0:
182,192,42917,1,0,0:0:0:0:
329,192,42917,1,0,0:0:0:0:
256,192,42957,1,0,0:0:0:0:
475,192,42998,1,0,0:0:0:0:
402,192,42998,1,0,0:0:0:0:
109,192,42998,1,0,0:0:0:0:
36,192,42998,1,0,0:0:0:0:
256,192,43160,1,0,0:0:0:0:
402,192,43160,1,0,0:0:0:0:
109,192,43160,1,0,0:0:0:0:
329,192,43241,1,0,0:0:0:0:
182,192,43241,1,0,0:0:0:0:
402,192,43322,128,0,43566:0:0:0:0:
475,192,43322,128,0,43566:0:0:0:0:
256,192,43322,128,0,43566:0:0:0:0:
36,192,43322,128,0,43566:0:0:0:0:
109,192,43322,128,0,43566:0:0:0:0:
475,192,43647,1,0,0:0:0:0:
36,192,43647,1,0,0:0:0:0:
182,192,43647,1,0,0:0:0:0:
402,192,43647,1,0,0:0:0:0:
329,192,43647,1,0,0:0:0:0:
182,192,43809,1,0,0:0:0:0:
402,192,43809,1,0,0:0:0:0:
256,192,43809,1,0,0:0:0:0:
36,192,43890,1,0,0:0:0:0:
109,192,43890,1,0,0:0:0:0:
475,192,43971,1,0,0:0:0:0:
256,192,43971,1,0,0:0:0:0:
329,192,43971,1,0,0:0:0:0:
109,192,44052,1,0,0:0:0:0:
182,192,44052,1,0,0:0:0:0:
475,192,44133,1,0,0:0:0:0:
36,192,44133,1,0,0:0:0:0:
329,192,44133,1,0,0:0:0:0:
256,192,44214,1,0,0:0:0:0:
402,192,44214,1,0,0:0:0:0:
475,192,44295,1,0,0:0:0:0:
182,192,44295,1,0,0:0:0:0:
329,192,44295,1,0,0:0:0:0:
109,192,44376,1,0,0:0:0:0:
475,192,44457,1,0,0:0:0:0:
402,192,44457,1,0,0:0:0:0:
36,192,44457,1,0,0:0:0:0:
256,192,44457,1,0,0:0:0:0:
329,192,44457,1,0,0:0:0:0:
402,192,44620,1,0,0:0:0:0:
109,192,44620,1,0,0:0:0:0:
36,192,44620,1,0,0:0:0:0:
182,192,44701,1,0,0:0:0:0:
256,192,44701,1,0,0:0:0:0:
402,192,44782,1,0,0:0:0:0:
36,192,44782,1,0,0:0:0:0:
109,192,44782,1,0,0:0:0:0:
256,192,44863,1,0,0:0:0:0:
329,192,44863,1,0,0:0:0:0:
475,192,44944,1,0,0:0:0:0:
109,192,44944,1,0,0:0:0:0:
182,192,44944,1,0,0:0:0:0:
329,192,45025,1,0,0:0:0:0:
402,192,45025,1,0,0:0:0:0:
182,192,45106,1,0,0:0:0:0:
256,192,45106,1,0,0:0:0:0:
36,192,45106,1,0,0:0:0:0:
109,192,45187,1,0,0:0:0:0:
475,192,45187,1,0,0:0:0:0:
402,192,45187,1,0,0:0:0:0:
256,192,45268,1,0,0:0:0:0:
36,192,45268,1,0,0:0:0:0:
329,192,45268,1,0,0:0:0:0:
475,192,45349,1,0,0:0:0:0:
182,192,45349,1,0,0:0:0:0:
402,192,45430,1,0,0:0:0:0:
36,192,45430,1,0,0:0:0:0:
109,192,45430,1,0,0:0:0:0:
329,192,45471,1,0,0:0:0:0:
256,192,45511,1,0,0:0:0:0:
182,192,45552,1,0,0:0:0:0:
109,192,45593,1,0,0:0:0:0:
36,192,45593,1,0,0:0:0:0:
402,192,45593,1,0,0:0:0:0:
475,192,45593,1,0,0:0:0:0:
329,192,45633,1,0,0:0:0:0:
256,192,45674,1,0,0:0:0:0:
182,192,45714,1,0,0:0:0:0:
475,192,45755,1,0,0:0:0:0:
402,192,45755,1,0,0:0:0:0:
109,192,45755,1,0,0:0:0:0:
329,192,45836,1,0,0:0:0:0:
256,192,45836,1,0,0:0:0:0:
475,192,45917,1,0,0:0:0:0:
402,192,45917,1,0,0:0:0:0:
36,192,45917,1,0,0:0:0:0:
109,192,45917,1,0,0:0:0:0:
256,192,46079,1,0,0:0:0:0:
182,192,46079,1,0,0:0:0:0:
36,192,46079,1,0,0:0:0:0:
329,192,46160,1,0,0:0:0:0:
182,192,46241,1,0,0:0:0:0:
109,192,46241,1,0,0:0:0:0:
402,192,46241,1,0,0:0:0:0:
475,192,46241,1,0,0:0:0:0:
329,192,46322,1,0,0:0:0:0:
256,192,46322,1,0,0:0:0:0:
402,192,46403,1,0,0:0:0:0:
36,192,46403,1,0,0:0:0:0:
109,192,46403,1,0,0:0:0:0:
256,192,46484,1,0,0:0:0:0:
182,192,46484,1,0,0:0:0:0:
329,192,46525,1,0,0:0:0:0:
36,192,46566,1,0,0:0:0:0:
109,192,46566,1,0,0:0:0:0:
402,192,46566,1,0,0:0:0:0:
475,192,46566,1,0,0:0:0:0:
256,192,46647,1,0,0:0:0:0:
182,192,46647,1,0,0:0:0:0:
402,192,46728,1,0,0:0:0:0:
475,192,46728,1,0,0:0:0:0:
36,192,46728,1,0,0:0:0:0:
109,192,46728,1,0,0:0:0:0:
256,192,46809,1,0,0:0:0:0:
329,192,46809,1,0,0:0:0:0:
109,192,46890,1,0,0:0:0:0:
36,192,46890,1,0,0:0:0:0:
402,192,46890,1,0,0:0:0:0:
475,192,46890,1,0,0:0:0:0:
182,192,46930,1,0,0:0:0:0:
256,192,46971,1,0,0:0:0:0:
329,192,47011,1,0,0:0:0:0:
36,192,47052,1,0,0:0:0:0:
109,192,47052,1,0,0:0:0:0:
475,192,47052,1,0,0:0:0:0:
402,192,47052,1,0,0:0:0:0:
182,192,47052,1,0,0:0:0:0:
475,192,47214,1,0,0:0:0:0:
329,192,47214,1,0,0:0:0:0:
256,192,47214,1,0,0:0:0:0:
109,192,47295,1,0,0:0:0:0:
182,192,47295,1,0,0:0:0:0:
402,192,47376,1,0,0:0:0:0:
329,192,47376,1,0,0:0:0:0:
36,192,47376,1,0,0:0:0:0:
182,192,47457,1,0,0:0:0:0:
256,192,47457,1,0,0:0:0:0:
402,192,47539,1,0,0:0:0:0:
475,192,47539,1,0,0:0:0:0:
109,192,47539,1,0,0:0:0:0:
36,192,47539,1,0,0:0:0:0:
256,192,47620,1,0,0:0:0:0:
329,192,47620,1,0,0:0:0:0:
475,192,47701,1,0,0:0:0:0:
109,192,47701,1,0,0:0:0:0:
182,192,47701,1,0,0:0:0:0:
329,192,47782,1,0,0:0:0:0:
402,192,47782,1,0,0:0:0:0:
36,192,47863,1,0,0:0:0:0:
475,192,47863,1,0,0:0:0:0:
109,192,47863,1,0,0:0:0:0:
182,192,47863,1,0,0:0:0:0:
256,192,47903,1,0,0:0:0:0:
329,192,47944,1,0,0:0:0:0:
402,192,47984,1,0,0:0:0:0:
182,192,48025,1,0,0:0:0:0:
109,192,48025,1,0,0:0:0:0:
256,192,48066,1,0,0:0:0:0:
329,192,48106,1,0,0:0:0:0:
402,192,48187,1,0,0:0:0:0:
475,192,48187,1,0,0:0:0:0:
36,192,48187,1,0,0:0:0:0:
109,192,48187,1,0,0:0:0:0:
256,192,48268,1,0,0:0:0:0:
329,192,48268,1,0,0:0:0:0:
475,192,48349,1,0,0:0:0:0:
109,192,48349,1,0,0:0:0:0:
182,192,48349,1,0,0:0:0:0:
329,192,48430,1,0,0:0:0:0:
402,192,48430,1,0,0:0:0:0:
256,192,48511,128,0,48755:0:0:0:0:
475,192,48511,128,0,48755:0:0:0:0:
182,192,48511,128,0,48755:0:0:0:0:
36,192,48511,128,0,48755:0:0:0:0:
109,192,48511,128,0,48755:0:0:0:0:
475,192,48836,1,0,0:0:0:0:
36,192,48836,1,0,0:0:0:0:
182,192,48836,1,0,0:0:0:0:
402,192,48836,1,0,0:0:0:0:
329,192,48917,1,0,0:0:0:0:
36,192,48998,1,0,0:0:0:0:
475,192,48998,1,0,0:0:0:0:
256,192,48998,1,0,0:0:0:0:
109,192,48998,1,0,0:0:0:0:
109,192,49160,1,0,0:0:0:0:
36,192,49160,1,0,0:0:0:0:
402,192,49160,1,0,0:0:0:0:
475,192,49160,1,0,0:0:0:0:
329,192,49241,1,0,0:0:0:0:
256,192,49241,1,0,0:0:0:0:
36,192,49322,1,0,0:0:0:0:
182,192,49322,1,0,0:0:0:0:
109,192,49322,1,0,0:0:0:0:
329,192,49403,1,0,0:0:0:0:
402,192,49403,1,0,0:0:0:0:
475,192,49403,1,0,0:0:0:0:
256,192,49484,1,0,0:0:0:0:
182,192,49484,1,0,0:0:0:0:
109,192,49484,1,0,0:0:0:0:
36,192,49484,1,0,0:0:0:0:
402,192,49647,1,0,0:0:0:0:
256,192,49647,1,0,0:0:0:0:
329,192,49647,1,0,0:0:0:0:
182,192,49647,1,0,0:0:0:0:
329,192,49809,1,0,0:0:0:0:
475,192,49809,1,0,0:0:0:0:
109,192,49809,1,0,0:0:0:0:
36,192,49809,1,0,0:0:0:0:
182,192,49890,1,0,0:0:0:0:
402,192,49971,1,0,0:0:0:0:
475,192,49971,1,0,0:0:0:0:
256,192,49971,1,0,0:0:0:0:
36,192,49971,1,0,0:0:0:0:
109,192,50052,1,0,0:0:0:0:
36,192,50133,1,0,0:0:0:0:
402,192,50133,1,0,0:0:0:0:
182,192,50133,1,0,0:0:0:0:
329,192,50133,1,0,0:0:0:0:
475,192,50133,1,0,0:0:0:0:
329,192,50295,1,0,0:0:0:0:
109,192,50295,1,0,0:0:0:0:
182,192,50295,1,0,0:0:0:0:
329,192,50457,1,0,0:0:0:0:
256,192,50457,1,0,0:0:0:0:
109,192,50457,1,0,0:0:0:0:
36,192,50457,1,0,0:0:0:0:
402,192,50539,1,0,0:0:0:0:
475,192,50539,1,0,0:0:0:0:
36,192,50620,1,0,0:0:0:0:
182,192,50620,1,0,0:0:0:0:
256,192,50620,1,0,0:0:0:0:
402,192,50701,1,0,0:0:0:0:
329,192,50701,1,0,0:0:0:0:
36,192,50782,1,0,0:0:0:0:
182,192,50782,1,0,0:0:0:0:
475,192,50782,1,0,0:0:0:0:
109,192,50782,1,0,0:0:0:0:
329,192,50863,1,0,0:0:0:0:
256,192,50863,1,0,0:0:0:0:
109,192,50944,1,0,0:0:0:0:
36,192,50944,1,0,0:0:0:0:
402,192,50944,1,0,0:0:0:0:
475,192,50944,1,0,0:0:0:0:
256,192,51025,1,0,0:0:0:0:
182,192,51025,1,0,0:0:0:0:
402,192,51106,128,0,51349:0:0:0:0:
475,192,51106,128,0,51349:0:0:0:0:
329,192,51106,128,0,51349:0:0:0:0:
36,192,51106,128,0,51349:0:0:0:0:
109,192,51106,128,0,51349:0:0:0:0:
475,192,51430,1,0,0:0:0:0:
256,192,51430,1,0,0:0:0:0:
182,192,51430,1,0,0:0:0:0:
329,192,51430,1,0,0:0:0:0:
109,192,51511,1,0,0:0:0:0:
256,192,51593,1,0,0:0:0:0:
475,192,51593,1,0,0:0:0:0:
36,192,51593,1,0,0:0:0:0:
329,192,51593,1,0,0:0:0:0:
182,192,51674,1,0,0:0:0:0:
402,192,51755,1,0,0:0:0:0:
475,192,51755,1,0,0:0:0:0:
109,192,51755,1,0,0:0:0:0:
36,192,51755,1,0,0:0:0:0:
256,192,51836,1,0,0:0:0:0:
329,192,51836,1,0,0:0:0:0:
36,192,51917,1,0,0:0:0:0:
109,192,51917,1,0,0:0:0:0:
182,192,51917,1,0,0:0:0:0:
475,192,51998,1,0,0:0:0:0:
402,192,51998,1,0,0:0:0:0:
329,192,51998,1,0,0:0:0:0:
109,192,52079,1,0,0:0:0:0:
36,192,52079,1,0,0:0:0:0:
182,192,52079,1,0,0:0:0:0:
256,192,52079,1,0,0:0:0:0:
475,192,52160,1,0,0:0:0:0:
402,192,52160,1,0,0:0:0:0:
256,192,52241,1,0,0:0:0:0:
329,192,52241,1,0,0:0:0:0:
36,192,52241,1,0,0:0:0:0:
182,192,52241,1,0,0:0:0:0:
109,192,52241,1,0,0:0:0:0:
475,192,52403,1,0,0:0:0:0:
182,192,52403,1,0,0:0:0:0:
402,192,52403,1,0,0:0:0:0:
329,192,52403,1,0,0:0:0:0:
256,192,52484,1,0,0:0:0:0:
475,192,52566,1,0,0:0:0:0:
109,192,52566,1,0,0:0:0:0:
36,192,52566,1,0,0:0:0:0:
402,192,52566,1,0,0:0:0:0:
256,192,52647,1,0,0:0:0:0:
182,192,52647,1,0,0:0:0:0:
402,192,52728,1,0,0:0:0:0:
475,192,52728,1,0,0:0:0:0:
329,192,52728,1,0,0:0:0:0:
36,192,52728,1,0,0:0:0:0:
109,192,52728,1,0,0:0:0:0:
256,192,52890,1,0,0:0:0:0:
182,192,52890,1,0,0:0:0:0:
329,192,52890,1,0,0:0:0:0:
109,192,53052,1,0,0:0:0:0:
36,192,53052,1,0,0:0:0:0:
402,192,53052,1,0,0:0:0:0:
475,192,53052,1,0,0:0:0:0:
329,192,53093,1,0,0:0:0:0:
256,192,53133,1,0,0:0:0:0:
182,192,53174,1,0,0:0:0:0:
109,192,53214,1,0,0:0:0:0:
36,192,53214,1,0,0:0:0:0:
475,192,53214,1,0,0:0:0:0:
402,192,53214,1,0,0:0:0:0:
256,192,53295,1,0,0:0:0:0:
329,192,53295,1,0,0:0:0:0:
109,192,53376,1,0,0:0:0:0:
36,192,53376,1,0,0:0:0:0:
402,192,53376,1,0,0:0:0:0:
475,192,53376,1,0,0:0:0:0:
256,192,53457,1,0,0:0:0:0:
182,192,53457,1,0,0:0:0:0:
475,192,53539,1,0,0:0:0:0:
329,192,53539,1,0,0:0:0:0:
109,192,53539,1,0,0:0:0:0:
36,192,53539,1,0,0:0:0:0:
36,192,53701,1,0,0:0:0:0:
256,192,53701,1,0,0:0:0:0:
402,192,53701,1,0,0:0:0:0:
475,192,53701,1,0,0:0:0:0:
182,192,53782,1,0,0:0:0:0:
109,192,53863,1,0,0:0:0:0:
329,192,53863,1,0,0:0:0:0:
256,192,53944,1,0,0:0:0:0:
402,192,54025,1,0,0:0:0:0:
475,192,54025,1,0,0:0:0:0:
36,192,54025,1,0,0:0:0:0:
182,192,54025,1,0,0:0:0:0:
256,192,54106,1,0,0:0:0:0:
109,192,54187,1,0,0:0:0:0:
329,192,54187,1,0,0:0:0:0:
182,192,54268,1,0,0:0:0:0:
36,192,54349,1,0,0:0:0:0:
329,192,54349,1,0,0:0:0:0:
402,192,54349,1,0,0:0:0:0:
475,192,54349,1,0,0:0:0:0:
256,192,54390,1,0,0:0:0:0:
182,192,54430,1,0,0:0:0:0:
109,192,54471,1,0,0:0:0:0:
475,192,54511,1,0,0:0:0:0:
36,192,54511,1,0,0:0:0:0:
402,192,54511,1,0,0:0:0:0:
329,192,54552,1,0,0:0:0:0:
256,192,54593,1,0,0:0:0:0:
182,192,54633,1,0,0:0:0:0:
402,192,54674,1,0,0:0:0:0:
36,192,54674,1,0,0:0:0:0:
109,192,54674,1,0,0:0:0:0:
329,192,54755,1,0,0:0:0:0:
256,192,54836,1,0,0:0:0:0:
182,192,54836,1,0,0:0:0:0:
109,192,54836,1,0,0:0:0:0:
329,192,54917,1,0,0:0:0:0:
402,192,54998,1,0,0:0:0:0:
475,192,54998,1,0,0:0:0:0:
109,192,54998,1,0,0:0:0:0:
36,192,54998,1,0,0:0:0:0:
256,192,55079,1,0,0:0:0:0:
402,192,55160,1,0,0:0:0:0:
182,192,55160,1,0,0:0:0:0:
329,192,55241,1,0,0:0:0:0:
109,192,55322,1,0,0:0:0:0:
475,192,55322,1,0,0:0:0:0:
256,192,55322,1,0,0:0:0:0:
36,192,55322,1,0,0:0:0:0:
402,192,55403,1,0,0:0:0:0:
256,192,55484,1,0,0:0:0:0:
329,192,55484,1,0,0:0:0:0:
182,192,55566,1,0,0:0:0:0:
475,192,55647,1,0,0:0:0:0:
109,192,55647,1,0,0:0:0:0:
36,192,55647,1,0,0:0:0:0:
402,192,55647,1,0,0:0:0:0:
329,192,55687,1,0,0:0:0:0:
256,192,55728,1,0,0:0:0:0:
182,192,55768,1,0,0:0:0:0:
475,192,55809,1,0,0:0:0:0:
109,192,55809,1,0,0:0:0:0:
402,192,55849,1,0,0:0:0:0:
329,192,55890,1,0,0:0:0:0:
256,192,55930,1,0,0:0:0:0:
36,192,55971,1,0,0:0:0:0:
475,192,55971,1,0,0:0:0:0:
182,192,55971,1,0,0:0:0:0:
109,192,55971,1,0,0:0:0:0:
329,192,56052,1,0,0:0:0:0:
475,192,56133,1,0,0:0:0:0:
402,192,56133,1,0,0:0:0:0:
182,192,56133,1,0,0:0:0:0:
256,192,56214,1,0,0:0:0:0:
109,192,56295,1,0,0:0:0:0:
36,192,56295,1,0,0:0:0:0:
329,192,56295,1,0,0:0:0:0:
475,192,56295,1,0,0:0:0:0:
182,192,56376,1,0,0:0:0:0:
402,192,56457,1,0,0:0:0:0:
256,192,56457,1,0,0:0:0:0:
36,192,56457,1,0,0:0:0:0:
109,192,56539,1,0,0:0:0:0:
475,192,56620,1,0,0:0:0:0:
402,192,56620,1,0,0:0:0:0:
182,192,56620,1,0,0:0:0:0:
329,192,56620,1,0,0:0:0:0:
36,192,56701,1,0,0:0:0:0:
329,192,56782,1,0,0:0:0:0:
182,192,56782,1,0,0:0:0:0:
109,192,56863,1,0,0:0:0:0:
329,192,56944,1,0,0:0:0:0:
475,192,56944,1,0,0:0:0:0:
36,192,56944,1,0,0:0:0:0:
402,192,56944,1,0,0:0:0:0:
256,192,56984,1,0,0:0:0:0:
182,192,57025,1,0,0:0:0:0:
109,192,57066,1,0,0:0:0:0:
475,192,57106,1,0,0:0:0:0:
402,192,57106,1,0,0:0:0:0:
329,192,57147,1,0,0:0:0:0:
256,192,57187,1,0,0:0:0:0:
182,192,57228,1,0,0:0:0:0:
475,192,57268,1,0,0:0:0:0:
402,192,57268,1,0,0:0:0:0:
109,192,57268,1,0,0:0:0:0:
36,192,57268,1,0,0:0:0:0:
256,192,57349,1,0,0:0:0:0:
475,192,57430,1,0,0:0:0:0:
109,192,57430,1,0,0:0:0:0:
329,192,57430,1,0,0:0:0:0:
182,192,57511,1,0,0:0:0:0:
475,192,57593,1,0,0:0:0:0:
36,192,57593,1,0,0:0:0:0:
256,192,57593,1,0,0:0:0:0:
402,192,57593,1,0,0:0:0:0:
109,192,57674,1,0,0:0:0:0:
402,192,57755,1,0,0:0:0:0:
329,192,57755,1,0,0:0:0:0:
36,192,57755,1,0,0:0:0:0:
182,192,57836,1,0,0:0:0:0:
475,192,57917,1,0,0:0:0:0:
402,192,57917,1,0,0:0:0:0:
109,192,57917,1,0,0:0:0:0:
256,192,57917,1,0,0:0:0:0:
182,192,57998,1,0,0:0:0:0:
109,192,58079,1,0,0:0:0:0:
36,192,58079,1,0,0:0:0:0:
329,192,58079,1,0,0:0:0:0:
475,192,58160,1,0,0:0:0:0:
402,192,58241,1,0,0:0:0:0:
256,192,58241,1,0,0:0:0:0:
182,192,58282,1,0,0:0:0:0:
109,192,58322,1,0,0:0:0:0:
36,192,58363,1,0,0:0:0:0:
475,192,58403,1,0,0:0:0:0:
402,192,58403,1,0,0:0:0:0:
329,192,58403,1,0,0:0:0:0:
256,192,58444,1,0,0:0:0:0:
182,192,58484,1,0,0:0:0:0:
109,192,58525,1,0,0:0:0:0:
402,192,58566,1,0,0:0:0:0:
475,192,58566,1,0,0:0:0:0:
36,192,58566,1,0,0:0:0:0:
329,192,58566,1,0,0:0:0:0:
182,192,58647,1,0,0:0:0:0:
402,192,58728,1,0,0:0:0:0:
256,192,58728,1,0,0:0:0:0:
109,192,58809,1,0,0:0:0:0:
475,192,58890,1,0,0:0:0:0:
36,192,58890,1,0,0:0:0:0:
182,192,58890,1,0,0:0:0:0:
329,192,58890,1,0,0:0:0:0:
256,192,58971,1,0,0:0:0:0:
402,192,59052,1,0,0:0:0:0:
36,192,59052,1,0,0:0:0:0:
109,192,59052,1,0,0:0:0:0:
182,192,59133,1,0,0:0:0:0:
329,192,59133,1,0,0:0:0:0:
402,192,59214,1,0,0:0:0:0:
36,192,59214,1,0,0:0:0:0:
256,192,59214,1,0,0:0:0:0:
475,192,59214,1,0,0:0:0:0:
182,192,59295,1,0,0:0:0:0:
329,192,59376,1,0,0:0:0:0:
475,192,59376,1,0,0:0:0:0:
109,192,59376,1,0,0:0:0:0:
36,192,59376,1,0,0:0:0:0:
256,192,59457,1,0,0:0:0:0:
475,192,59539,1,0,0:0:0:0:
182,192,59539,1,0,0:0:0:0:
402,192,59539,1,0,0:0:0:0:
329,192,59620,1,0,0:0:0:0:
109,192,59620,1,0,0:0:0:0:
402,192,59701,1,0,0:0:0:0:
256,192,59701,1,0,0:0:0:0:
36,192,59701,1,0,0:0:0:0:
182,192,59782,1,0,0:0:0:0:
402,192,59863,1,0,0:0:0:0:
475,192,59863,1,0,0:0:0:0:
109,192,59863,1,0,0:0:0:0:
329,192,59863,1,0,0:0:0:0:
256,192,59944,1,0,0:0:0:0:
36,192,60025,1,0,0:0:0:0:
182,192,60025,1,0,0:0:0:0:
329,192,60106,1,0,0:0:0:0:
402,192,60106,1,0,0:0:0:0:
36,192,60187,1,0,0:0:0:0:
475,192,60187,1,0,0:0:0:0:
256,192,60187,1,0,0:0:0:0:
109,192,60187,1,0,0:0:0:0:
329,192,60268,1,0,0:0:0:0:
36,192,60349,1,0,0:0:0:0:
182,192,60349,1,0,0:0:0:0:
402,192,60349,1,0,0:0:0:0:
109,192,60430,1,0,0:0:0:0:
256,192,60430,1,0,0:0:0:0:
36,192,60511,1,0,0:0:0:0:
402,192,60511,1,0,0:0:0:0:
329,192,60511,1,0,0:0:0:0:
475,192,60511,1,0,0:0:0:0:
182,192,60593,1,0,0:0:0:0:
109,192,60674,1,0,0:0:0:0:
402,192,60674,1,0,0:0:0:0:
475,192,60674,1,0,0:0:0:0:
256,192,60755,1,0,0:0:0:0:
36,192,60836,1,0,0:0:0:0:
475,192,60836,1,0,0:0:0:0:
329,192,60836,1,0,0:0:0:0:
109,192,60836,1,0,0:0:0:0:
402,192,60917,1,0,0:0:0:0:
182,192,60917,1,0,0:0:0:0:
36,192,60998,1,0,0:0:0:0:
109,192,60998,1,0,0:0:0:0:
475,192,60998,1,0,0:0:0:0:
256,192,60998,1,0,0:0:0:0:
329,192,61079,1,0,0:0:0:0:
182,192,61160,1,0,0:0:0:0:
36,192,61160,1,0,0:0:0:0:
402,192,61160,1,0,0:0:0:0:
475,192,61160,1,0,0:0:0:0:
256,192,61322,1,0,0:0:0:0:
402,192,61322,1,0,0:0:0:0:
109,192,61322,1,0,0:0:0:0:
36,192,61322,1,0,0:0:0:0:
182,192,61484,1,0,0:0:0:0:
329,192,61484,1,0,0:0:0:0:
475,192,61484,1,0,0:0:0:0:
36,192,61484,1,0,0:0:0:0:
475,192,61647,1,0,0:0:0:0:
256,192,61647,1,0,0:0:0:0:
109,192,61647,1,0,0:0:0:0:
402,192,61728,1,0,0:0:0:0:
182,192,61728,1,0,0:0:0:0:
329,192,61809,1,0,0:0:0:0:
256,192,61809,1,0,0:0:0:0:
475,192,61809,1,0,0:0:0:0:
109,192,61809,1,0,0:0:0:0:
36,192,61809,1,0,0:0:0:0:
329,192,61971,1,0,0:0:0:0:
36,192,61971,1,0,0:0:0:0:
182,192,61971,1,0,0:0:0:0:
256,192,61971,1,0,0:0:0:0:
475,192,62133,1,0,0:0:0:0:
402,192,62133,1,0,0:0:0:0:
329,192,62133,1,0,0:0:0:0:
109,192,62133,1,0,0:0:0:0:
36,192,62133,1,0,0:0:0:0:
256,192,62214,1,0,0:0:0:0:
402,192,62295,1,0,0:0:0:0:
475,192,62295,1,0,0:0:0:0:
182,192,62295,1,0,0:0:0:0:
36,192,62295,1,0,0:0:0:0:
329,192,62376,1,0,0:0:0:0:
109,192,62457,1,0,0:0:0:0:
36,192,62457,1,0,0:0:0:0:
182,192,62457,1,0,0:0:0:0:
402,192,62457,1,0,0:0:0:0:
475,192,62457,1,0,0:0:0:0:
475,192,62620,1,0,0:0:0:0:
256,192,62620,1,0,0:0:0:0:
109,192,62620,1,0,0:0:0:0:
329,192,62620,1,0,0:0:0:0:
402,192,62782,1,0,0:0:0:0:
475,192,62782,1,0,0:0:0:0:
182,192,62782,1,0,0:0:0:0:
36,192,62782,1,0,0:0:0:0:
329,192,62863,1,0,0:0:0:0:
36,192,62944,1,0,0:0:0:0:
475,192,62944,1,0,0:0:0:0:
256,192,62944,1,0,0:0:0:0:
109,192,62944,1,0,0:0:0:0:
402,192,63025,1,0,0:0:0:0:
109,192,63106,1,0,0:0:0:0:
182,192,63106,1,0,0:0:0:0:
329,192,63106,1,0,0:0:0:0:
475,192,63187,1,0,0:0:0:0:
402,192,63187,1,0,0:0:0:0:
36,192,63268,1,0,0:0:0:0:
182,192,63268,1,0,0:0:0:0:
256,192,63268,1,0,0:0:0:0:
329,192,63349,1,0,0:0:0:0:
182,192,63430,1,0,0:0:0:0:
475,192,63430,1,0,0:0:0:0:
109,192,63430,1,0,0:0:0:0:
36,192,63430,1,0,0:0:0:0:
329,192,63511,1,0,0:0:0:0:
402,192,63593,1,0,0:0:0:0:
182,192,63593,1,0,0:0:0:0:
256,192,63674,1,0,0:0:0:0:
402,192,63755,1,0,0:0:0:0:
109,192,63755,1,0,0:0:0:0:
329,192,63836,1,0,0:0:0:0:
182,192,63917,1,0,0:0:0:0:
402,192,63917,1,0,0:0:0:0:
256,192,63998,1,0,0:0:0:0:
109,192,64079,1,0,0:0:0:0:
36,192,64079,1,0,0:0:0:0:
329,192,64079,1,0,0:0:0:0:
475,192,64079,1,0,0:0:0:0:
402,192,64241,1,0,0:0:0:0:
256,192,64241,1,0,0:0:0:0:
109,192,64241,1,0,0:0:0:0:
475,192,64403,1,0,0:0:0:0:
182,192,64403,1,0,0:0:0:0:
329,192,64403,1,0,0:0:0:0:
109,192,64484,1,0,0:0:0:0:
256,192,64566,1,0,0:0:0:0:
36,192,64566,1,0,0:0:0:0:
402,192,64566,1,0,0:0:0:0:
182,192,64647,1,0,0:0:0:0:
329,192,64728,1,0,0:0:0:0:
475,192,64728,1,0,0:0:0:0:
109,192,64728,1,0,0:0:0:0:
36,192,64728,1,0,0:0:0:0:
109,192,64890,1,0,0:0:0:0:
329,192,64890,1,0,0:0:0:0:
256,192,64890,1,0,0:0:0:0:
402,192,65052,1,0,0:0:0:0:
36,192,65052,1,0,0:0:0:0:
182,192,65052,1,0,0:0:0:0:
256,192,65133,1,0,0:0:0:0:
329,192,65214,1,0,0:0:0:0:
402,192,65214,1,0,0:0:0:0:
109,192,65214,1,0,0:0:0:0:
182,192,65295,1,0,0:0:0:0:
36,192,65376,1,0,0:0:0:0:
475,192,65376,1,0,0:0:0:0:
329,192,65376,1,0,0:0:0:0:
256,192,65376,1,0,0:0:0:0:
402,192,65539,1,0,0:0:0:0:
256,192,65539,1,0,0:0:0:0:
182,192,65539,1,0,0:0:0:0:
36,192,65701,1,0,0:0:0:0:
475,192,65701,1,0,0:0:0:0:
329,192,65701,1,0,0:0:0:0:
256,192,65782,1,0,0:0:0:0:
182,192,65863,1,0,0:0:0:0:
402,192,65863,1,0,0:0:0:0:
109,192,65863,1,0,0:0:0:0:
329,192,65944,1,0,0:0:0:0:
36,192,66025,1,0,0:0:0:0:
402,192,66025,1,0,0:0:0:0:
475,192,66025,1,0,0:0:0:0:
182,192,66025,1,0,0:0:0:0:
256,192,66187,1,0,0:0:0:0:
109,192,66187,1,0,0:0:0:0:
329,192,66187,1,0,0:0:0:0:
182,192,66349,1,0,0:0:0:0:
36,192,66349,1,0,0:0:0:0:
402,192,66349,1,0,0:0:0:0:
329,192,66430,1,0,0:0:0:0:
475,192,66511,1,0,0:0:0:0:
256,192,66511,1,0,0:0:0:0:
182,192,66511,1,0,0:0:0:0:
402,192,66593,1,0,0:0:0:0:
36,192,66674,1,0,0:0:0:0:
182,192,66674,1,0,0:0:0:0:
109,192,66674,1,0,0:0:0:0:
329,192,66674,1,0,0:0:0:0:
402,192,66755,1,0,0:0:0:0:
475,192,66755,1,0,0:0:0:0:
256,192,66836,1,0,0:0:0:0:
182,192,66836,1,0,0:0:0:0:
329,192,66917,1,0,0:0:0:0:
402,192,66917,1,0,0:0:0:0:
475,192,66998,1,0,0:0:0:0:
36,192,66998,1,0,0:0:0:0:
182,192,66998,1,0,0:0:0:0:
109,192,66998,1,0,0:0:0:0:
256,192,67079,1,0,0:0:0:0:
329,192,67079,1,0,0:0:0:0:
402,192,67160,1,0,0:0:0:0:
109,192,67160,1,0,0:0:0:0:
182,192,67241,1,0,0:0:0:0:
256,192,67241,1,0,0:0:0:0:
475,192,67322,1,0,0:0:0:0:
36,192,67322,1,0,0:0:0:0:
402,192,67322,1,0,0:0:0:0:
329,192,67322,1,0,0:0:0:0:
109,192,67403,1,0,0:0:0:0:
182,192,67403,1,0,0:0:0:0:
402,192,67484,1,0,0:0:0:0:
475,192,67484,1,0,0:0:0:0:
36,192,67484,1,0,0:0:0:0:
329,192,67525,1,0,0:0:0:0:
256,192,67566,1,0,0:0:0:0:
475,192,67647,1,0,0:0:0:0:
402,192,67647,1,0,0:0:0:0:
109,192,67647,1,0,0:0:0:0:
36,192,67647,1,0,0:0:0:0:
182,192,67728,1,0,0:0:0:0:
256,192,67728,1,0,0:0:0:0:
475,192,67809,1,0,0:0:0:0:
329,192,67809,1,0,0:0:0:0:
36,192,67809,1,0,0:0:0:0:
109,192,67849,1,0,0:0:0:0:
182,192,67890,1,0,0:0:0:0:
329,192,67971,1,0,0:0:0:0:
36,192,67971,1,0,0:0:0:0:
402,192,67971,1,0,0:0:0:0:
256,192,67971,1,0,0:0:0:0:
109,192,68052,1,0,0:0:0:0:
182,192,68052,1,0,0:0:0:0:
402,192,68133,1,0,0:0:0:0:
475,192,68133,1,0,0:0:0:0:
36,192,68133,1,0,0:0:0:0:
329,192,68133,1,0,0:0:0:0:
256,192,68214,1,0,0:0:0:0:
182,192,68214,1,0,0:0:0:0:
402,192,68295,1,0,0:0:0:0:
475,192,68295,1,0,0:0:0:0:
36,192,68295,1,0,0:0:0:0:
109,192,68295,1,0,0:0:0:0:
256,192,68376,1,0,0:0:0:0:
329,192,68376,1,0,0:0:0:0:
36,192,68457,1,0,0:0:0:0:
475,192,68457,1,0,0:0:0:0:
182,192,68457,1,0,0:0:0:0:
109,192,68457,1,0,0:0:0:0:
329,192,68539,1,0,0:0:0:0:
402,192,68539,1,0,0:0:0:0:
256,192,68620,1,0,0:0:0:0:
182,192,68620,1,0,0:0:0:0:
36,192,68620,1,0,0:0:0:0:
475,192,68620,1,0,0:0:0:0:
182,192,68782,1,0,0:0:0:0:
402,192,68782,1,0,0:0:0:0:
109,192,68863,1,0,0:0:0:0:
329,192,68863,1,0,0:0:0:0:
402,192,68944,1,0,0:0:0:0:
256,192,68944,1,0,0:0:0:0:
36,192,68944,1,0,0:0:0:0:
475,192,68944,1,0,0:0:0:0:
329,192,69025,1,0,0:0:0:0:
109,192,69025,1,0,0:0:0:0:
475,192,69106,1,0,0:0:0:0:
182,192,69106,1,0,0:0:0:0:
402,192,69187,1,0,0:0:0:0:
256,192,69187,1,0,0:0:0:0:
329,192,69268,128,0,69511:0:0:0:0:
475,192,69268,128,0,69511:0:0:0:0:
182,192,69268,128,0,69511:0:0:0:0:
36,192,69268,128,0,69511:0:0:0:0:
109,192,69268,128,0,69511:0:0:0:0:
475,192,69593,1,0,0:0:0:0:
402,192,69593,1,0,0:0:0:0:
182,192,69593,1,0,0:0:0:0:
329,192,69593,1,0,0:0:0:0:
109,192,69674,1,0,0:0:0:0:
256,192,69755,1,0,0:0:0:0:
475,192,69755,1,0,0:0:0:0:
36,192,69755,1,0,0:0:0:0:
329,192,69755,1,0,0:0:0:0:
182,192,69836,1,0,0:0:0:0:
329,192,69917,1,0,0:0:0:0:
109,192,69917,1,0,0:0:0:0:
402,192,69917,1,0,0:0:0:0:
256,192,69998,1,0,0:0:0:0:
109,192,70079,1,0,0:0:0:0:
475,192,70079,1,0,0:0:0:0:
329,192,70079,1,0,0:0:0:0:
36,192,70079,1,0,0:0:0:0:
256,192,70160,1,0,0:0:0:0:
402,192,70241,1,0,0:0:0:0:
182,192,70241,1,0,0:0:0:0:
36,192,70241,1,0,0:0:0:0:
329,192,70322,1,0,0:0:0:0:
109,192,70403,1,0,0:0:0:0:
256,192,70403,1,0,0:0:0:0:
402,192,70403,1,0,0:0:0:0:
475,192,70403,1,0,0:0:0:0:
329,192,70484,1,0,0:0:0:0:
36,192,70566,1,0,0:0:0:0:
182,192,70566,1,0,0:0:0:0:
402,192,70566,1,0,0:0:0:0:
475,192,70566,1,0,0:0:0:0:
256,192,70647,1,0,0:0:0:0:
475,192,70728,1,0,0:0:0:0:
329,192,70728,1,0,0:0:0:0:
109,192,70728,1,0,0:0:0:0:
36,192,70728,1,0,0:0:0:0:
182,192,70809,1,0,0:0:0:0:
329,192,70890,1,0,0:0:0:0:
36,192,70890,1,0,0:0:0:0:
256,192,70890,1,0,0:0:0:0:
402,192,70890,1,0,0:0:0:0:
109,192,70971,1,0,0:0:0:0:
475,192,71052,1,0,0:0:0:0:
329,192,71052,1,0,0:0:0:0:
36,192,71052,1,0,0:0:0:0:
402,192,71052,1,0,0:0:0:0:
256,192,71133,1,0,0:0:0:0:
182,192,71133,1,0,0:0:0:0:
402,192,71214,1,0,0:0:0:0:
475,192,71214,1,0,0:0:0:0:
109,192,71214,1,0,0:0:0:0:
36,192,71214,1,0,0:0:0:0:
329,192,71295,1,0,0:0:0:0:
109,192,71376,1,0,0:0:0:0:
475,192,71376,1,0,0:0:0:0:
256,192,71376,1,0,0:0:0:0:
182,192,71376,1,0,0:0:0:0:
402,192,71457,1,0,0:0:0:0:
182,192,71539,1,0,0:0:0:0:
36,192,71539,1,0,0:0:0:0:
329,192,71539,1,0,0:0:0:0:
475,192,71539,1,0,0:0:0:0:
36,192,71701,1,0,0:0:0:0:
402,192,71701,1,0,0:0:0:0:
109,192,71701,1,0,0:0:0:0:
256,192,71701,1,0,0:0:0:0:
36,192,71863,1,0,0:0:0:0:
475,192,71863,1,0,0:0:0:0:
182,192,71863,1,0,0:0:0:0:
402,192,71863,1,0,0:0:0:0:
329,192,71944,1,0,0:0:0:0:
256,192,71944,1,0,0:0:0:0:
109,192,72025,1,0,0:0:0:0:
182,192,72025,1,0,0:0:0:0:
475,192,72025,1,0,0:0:0:0:
402,192,72106,1,0,0:0:0:0:
36,192,72187,1,0,0:0:0:0:
109,192,72187,1,0,0:0:0:0:
256,192,72187,1,0,0:0:0:0:
329,192,72187,1,0,0:0:0:0:
402,192,72268,1,0,0:0:0:0:
256,192,72349,1,0,0:0:0:0:
182,192,72349,1,0,0:0:0:0:
36,192,72349,1,0,0:0:0:0:
475,192,72430,1,0,0:0:0:0:
329,192,72430,1,0,0:0:0:0:
36,192,72511,1,0,0:0:0:0:
109,192,72511,1,0,0:0:0:0:
182,192,72511,1,0,0:0:0:0:
329,192,72593,1,0,0:0:0:0:
109,192,72674,1,0,0:0:0:0:
182,192,72674,1,0,0:0:0:0:
475,192,72674,1,0,0:0:0:0:
402,192,72674,1,0,0:0:0:0:
256,192,72755,1,0,0:0:0:0:
329,192,72836,1,0,0:0:0:0:
36,192,72836,1,0,0:0:0:0:
402,192,72836,1,0,0:0:0:0:
475,192,72836,1,0,0:0:0:0:
182,192,72917,1,0,0:0:0:0:
109,192,72917,1,0,0:0:0:0:
329,192,72998,1,0,0:0:0:0:
402,192,72998,1,0,0:0:0:0:
36,192,72998,1,0,0:0:0:0:
256,192,73079,1,0,0:0:0:0:
182,192,73079,1,0,0:0:0:0:
109,192,73160,1,0,0:0:0:0:
36,192,73160,1,0,0:0:0:0:
402,192,73160,1,0,0:0:0:0:
475,192,73160,1,0,0:0:0:0:
329,192,73241,1,0,0:0:0:0:
109,192,73322,1,0,0:0:0:0:
256,192,73322,1,0,0:0:0:0:
475,192,73322,1,0,0:0:0:0:
182,192,73403,1,0,0:0:0:0:
402,192,73403,1,0,0:0:0:0:
109,192,73484,1,0,0:0:0:0:
36,192,73484,1,0,0:0:0:0:
329,192,73484,1,0,0:0:0:0:
475,192,73484,1,0,0:0:0:0:
182,192,73525,1,0,0:0:0:0:
256,192,73566,1,0,0:0:0:0:
402,192,73647,1,0,0:0:0:0:
329,192,73647,1,0,0:0:0:0:
36,192,73647,1,0,0:0:0:0:
109,192,73687,1,0,0:0:0:0:
182,192,73728,1,0,0:0:0:0:
109,192,73809,1,0,0:0:0:0:
36,192,73809,1,0,0:0:0:0:
402,192,73809,1,0,0:0:0:0:
475,192,73809,1,0,0:0:0:0:
329,192,73849,1,0,0:0:0:0:
256,192,73890,1,0,0:0:0:0:
109,192,73971,1,0,0:0:0:0:
182,192,73971,1,0,0:0:0:0:
475,192,73971,1,0,0:0:0:0:
402,192,74011,1,0,0:0:0:0:
256,192,74052,1,0,0:0:0:0:
329,192,74052,1,0,0:0:0:0:
475,192,74133,1,0,0:0:0:0:
402,192,74133,1,0,0:0:0:0:
109,192,74133,1,0,0:0:0:0:
36,192,74133,1,0,0:0:0:0:
329,192,74214,1,0,0:0:0:0:
256,192,74214,1,0,0:0:0:0:
475,192,74295,1,0,0:0:0:0:
36,192,74295,1,0,0:0:0:0:
182,192,74295,1,0,0:0:0:0:
329,192,74376,1,0,0:0:0:0:
402,192,74376,1,0,0:0:0:0:
475,192,74457,1,0,0:0:0:0:
36,192,74457,1,0,0:0:0:0:
256,192,74457,1,0,0:0:0:0:
109,192,74457,1,0,0:0:0:0:
256,192,74620,1,0,0:0:0:0:
109,192,74620,1,0,0:0:0:0:
475,192,74620,1,0,0:0:0:0:
329,192,74620,1,0,0:0:0:0:
402,192,74782,1,0,0:0:0:0:
182,192,74782,1,0,0:0:0:0:
36,192,74782,1,0,0:0:0:0:
329,192,74863,1,0,0:0:0:0:
182,192,74944,1,0,0:0:0:0:
109,192,74944,1,0,0:0:0:0:
475,192,74944,1,0,0:0:0:0:
402,192,74944,1,0,0:0:0:0:
256,192,75025,1,0,0:0:0:0:
329,192,75106,1,0,0:0:0:0:
475,192,75106,1,0,0:0:0:0:
109,192,75106,1,0,0:0:0:0:
182,192,75187,1,0,0:0:0:0:
402,192,75268,1,0,0:0:0:0:
36,192,75268,1,0,0:0:0:0:
256,192,75268,1,0,0:0:0:0:
475,192,75268,1,0,0:0:0:0:
182,192,75349,1,0,0:0:0:0:
329,192,75430,1,0,0:0:0:0:
402,192,75430,1,0,0:0:0:0:
109,192,75430,1,0,0:0:0:0:
36,192,75430,1,0,0:0:0:0:
256,192,75511,1,0,0:0:0:0:
109,192,75593,1,0,0:0:0:0:
329,192,75593,1,0,0:0:0:0:
475,192,75593,1,0,0:0:0:0:
182,192,75674,1,0,0:0:0:0:
402,192,75755,1,0,0:0:0:0:
475,192,75755,1,0,0:0:0:0:
256,192,75755,1,0,0:0:0:0:
36,192,75755,1,0,0:0:0:0:
329,192,75917,1,0,0:0:0:0:
402,192,75917,1,0,0:0:0:0:
182,192,75917,1,0,0:0:0:0:
109,192,75917,1,0,0:0:0:0:
36,192,76079,1,0,0:0:0:0:
256,192,76079,1,0,0:0:0:0:
475,192,76079,1,0,0:0:0:0:
329,192,76079,1,0,0:0:0:0:
402,192,76241,1,0,0:0:0:0:
109,192,76241,1,0,0:0:0:0:
475,192,76241,1,0,0:0:0:0:
256,192,76241,1,0,0:0:0:0:
329,192,76322,1,0,0:0:0:0:
182,192,76322,1,0,0:0:0:0:
475,192,76403,1,0,0:0:0:0:
402,192,76403,1,0,0:0:0:0:
109,192,76403,1,0,0:0:0:0:
36,192,76403,1,0,0:0:0:0:
329,192,76484,1,0,0:0:0:0:
109,192,76566,1,0,0:0:0:0:
475,192,76566,1,0,0:0:0:0:
256,192,76566,1,0,0:0:0:0:
182,192,76566,1,0,0:0:0:0:
402,192,76647,1,0,0:0:0:0:
182,192,76728,1,0,0:0:0:0:
36,192,76728,1,0,0:0:0:0:
256,192,76728,1,0,0:0:0:0:
402,192,76809,1,0,0:0:0:0:
329,192,76809,1,0,0:0:0:0:
109,192,76890,1,0,0:0:0:0:
36,192,76890,1,0,0:0:0:0:
182,192,76890,1,0,0:0:0:0:
475,192,76890,1,0,0:0:0:0:
329,192,76971,1,0,0:0:0:0:
256,192,76971,1,0,0:0:0:0:
36,192,77052,1,0,0:0:0:0:
109,192,77052,1,0,0:0:0:0:
402,192,77052,1,0,0:0:0:0:
475,192,77052,1,0,0:0:0:0:
182,192,77133,1,0,0:0:0:0:
256,192,77214,1,0,0:0:0:0:
36,192,77214,1,0,0:0:0:0:
402,192,77214,1,0,0:0:0:0:
475,192,77214,1,0,0:0:0:0:
109,192,77295,1,0,0:0:0:0:
329,192,77295,1,0,0:0:0:0:
182,192,77376,1,0,0:0:0:0:
36,192,77376,1,0,0:0:0:0:
402,192,77376,1,0,0:0:0:0:
475,192,77376,1,0,0:0:0:0:
256,192,77457,1,0,0:0:0:0:
329,192,77539,1,0,0:0:0:0:
109,192,77539,1,0,0:0:0:0:
256,192,77620,1,0,0:0:0:0:
402,192,77620,1,0,0:0:0:0:
475,192,77620,1,0,0:0:0:0:
182,192,77660,1,0,0:0:0:0:
109,192,77701,1,0,0:0:0:0:
329,192,77741,1,0,0:0:0:0:
256,192,77782,1,0,0:0:0:0:
475,192,77863,1,0,0:0:0:0:
36,192,77863,1,0,0:0:0:0:
182,192,77863,1,0,0:0:0:0:
109,192,77863,1,0,0:0:0:0:
256,192,77944,1,0,0:0:0:0:
402,192,78025,1,0,0:0:0:0:
475,192,78025,1,0,0:0:0:0:
36,192,78025,1,0,0:0:0:0:
329,192,78066,1,0,0:0:0:0:
256,192,78106,1,0,0:0:0:0:
182,192,78147,1,0,0:0:0:0:
402,192,78187,1,0,0:0:0:0:
109,192,78187,1,0,0:0:0:0:
329,192,78228,1,0,0:0:0:0:
256,192,78268,1,0,0:0:0:0:
182,192,78309,1,0,0:0:0:0:
402,192,78349,1,0,0:0:0:0:
36,192,78349,1,0,0:0:0:0:
475,192,78349,1,0,0:0:0:0:
109,192,78349,1,0,0:0:0:0:
475,192,78511,1,0,0:0:0:0:
182,192,78511,1,0,0:0:0:0:
329,192,78511,1,0,0:0:0:0:
256,192,78593,1,0,0:0:0:0:
475,192,78674,1,0,0:0:0:0:
36,192,78674,1,0,0:0:0:0:
109,192,78674,1,0,0:0:0:0:
329,192,78674,1,0,0:0:0:0:
109,192,78836,1,0,0:0:0:0:
256,192,78836,1,0,0:0:0:0:
182,192,78836,1,0,0:0:0:0:
329,192,78917,1,0,0:0:0:0:
402,192,78998,1,0,0:0:0:0:
475,192,78998,1,0,0:0:0:0:
109,192,78998,1,0,0:0:0:0:
36,192,78998,1,0,0:0:0:0:
256,192,79079,1,0,0:0:0:0:
182,192,79160,1,0,0:0:0:0:
402,192,79160,1,0,0:0:0:0:
475,192,79160,1,0,0:0:0:0:
36,192,79160,1,0,0:0:0:0:
256,192,79241,1,0,0:0:0:0:
329,192,79241,1,0,0:0:0:0:
109,192,79322,1,0,0:0:0:0:
36,192,79322,1,0,0:0:0:0:
402,192,79322,1,0,0:0:0:0:
475,192,79322,1,0,0:0:0:0:
182,192,79403,1,0,0:0:0:0:
256,192,79403,1,0,0:0:0:0:
109,192,79484,1,0,0:0:0:0:
36,192,79484,1,0,0:0:0:0:
402,192,79484,1,0,0:0:0:0:
329,192,79484,1,0,0:0:0:0:
256,192,79566,1,0,0:0:0:0:
402,192,79647,128,0,79890:0:0:0:0:
475,192,79647,128,0,79890:0:0:0:0:
182,192,79647,128,0,79890:0:0:0:0:
36,192,79647,128,0,79890:0:0:0:0:
109,192,79647,128,0,79890:0:0:0:0:
182,192,79971,1,0,0:0:0:0:
36,192,79971,1,0,0:0:0:0:
256,192,79971,1,0,0:0:0:0:
475,192,79971,1,0,0:0:0:0:
329,192,80052,1,0,0:0:0:0:
182,192,80133,1,0,0:0:0:0:
36,192,80133,1,0,0:0:0:0:
402,192,80133,1,0,0:0:0:0:
475,192,80133,1,0,0:0:0:0:
256,192,80214,1,0,0:0:0:0:
109,192,80295,1,0,0:0:0:0:
475,192,80295,1,0,0:0:0:0:
329,192,80295,1,0,0:0:0:0:
182,192,80376,1,0,0:0:0:0:
329,192,80457,1,0,0:0:0:0:
402,192,80457,1,0,0:0:0:0:
256,192,80457,1,0,0:0:0:0:
36,192,80457,1,0,0:0:0:0:
109,192,80539,1,0,0:0:0:0:
182,192,80539,1,0,0:0:0:0:
475,192,80620,1,0,0:0:0:0:
402,192,80620,1,0,0:0:0:0:
36,192,80620,1,0,0:0:0:0:
329,192,80620,1,0,0:0:0:0:
256,192,80701,1,0,0:0:0:0:
475,192,80782,1,0,0:0:0:0:
402,192,80782,1,0,0:0:0:0:
182,192,80782,1,0,0:0:0:0:
109,192,80782,1,0,0:0:0:0:
109,192,80944,1,0,0:0:0:0:
36,192,80944,1,0,0:0:0:0:
256,192,80944,1,0,0:0:0:0:
329,192,80944,1,0,0:0:0:0:
402,192,81025,1,0,0:0:0:0:
182,192,81106,1,0,0:0:0:0:
36,192,81106,1,0,0:0:0:0:
475,192,81106,1,0,0:0:0:0:
256,192,81106,1,0,0:0:0:0:
329,192,81187,1,0,0:0:0:0:
182,192,81268,1,0,0:0:0:0:
109,192,81268,1,0,0:0:0:0:
402,192,81268,1,0,0:0:0:0:
475,192,81268,1,0,0:0:0:0:
256,192,81349,1,0,0:0:0:0:
36,192,81430,1,0,0:0:0:0:
475,192,81430,1,0,0:0:0:0:
329,192,81430,1,0,0:0:0:0:
109,192,81430,1,0,0:0:0:0:
182,192,81511,1,0,0:0:0:0:
256,192,81511,1,0,0:0:0:0:
475,192,81593,1,0,0:0:0:0:
36,192,81593,1,0,0:0:0:0:
402,192,81593,1,0,0:0:0:0:
329,192,81593,1,0,0:0:0:0:
329,192,81755,1,0,0:0:0:0:
109,192,81755,1,0,0:0:0:0:
182,192,81755,1,0,0:0:0:0:
256,192,81755,1,0,0:0:0:0:
475,192,81917,1,0,0:0:0:0:
402,192,81917,1,0,0:0:0:0:
182,192,81917,1,0,0:0:0:0:
36,192,81917,1,0,0:0:0:0:
329,192,81998,1,0,0:0:0:0:
182,192,82079,1,0,0:0:0:0:
109,192,82079,1,0,0:0:0:0:
402,192,82079,1,0,0:0:0:0:
475,192,82079,1,0,0:0:0:0:
256,192,82160,1,0,0:0:0:0:
475,192,82241,1,0,0:0:0:0:
36,192,82241,1,0,0:0:0:0:
182,192,82241,1,0,0:0:0:0:
402,192,82241,1,0,0:0:0:0:
329,192,82322,1,0,0:0:0:0:
402,192,82403,1,0,0:0:0:0:
256,192,82403,1,0,0:0:0:0:
109,192,82403,1,0,0:0:0:0:
36,192,82403,1,0,0:0:0:0:
182,192,82484,1,0,0:0:0:0:
329,192,82484,1,0,0:0:0:0:
256,192,82566,1,0,0:0:0:0:
475,192,82566,1,0,0:0:0:0:
109,192,82566,1,0,0:0:0:0:
36,192,82566,1,0,0:0:0:0:
402,192,82647,1,0,0:0:0:0:
109,192,82728,1,0,0:0:0:0:
182,192,82728,1,0,0:0:0:0:
329,192,82728,1,0,0:0:0:0:
402,192,82809,1,0,0:0:0:0:
329,192,82890,1,0,0:0:0:0:
475,192,82890,1,0,0:0:0:0:
256,192,82890,1,0,0:0:0:0:
182,192,82890,1,0,0:0:0:0:
109,192,82971,1,0,0:0:0:0:
36,192,82971,1,0,0:0:0:0:
402,192,83052,1,0,0:0:0:0:
475,192,83052,1,0,0:0:0:0:
256,192,83052,1,0,0:0:0:0:
329,192,83133,1,0,0:0:0:0:
182,192,83133,1,0,0:0:0:0:
36,192,83214,1,0,0:0:0:0:
109,192,83214,1,0,0:0:0:0:
475,192,83214,1,0,0:0:0:0:
402,192,83214,1,0,0:0:0:0:
256,192,83295,1,0,0:0:0:0:
329,192,83295,1,0,0:0:0:0:
109,192,83376,1,0,0:0:0:0:
182,192,83376,1,0,0:0:0:0:
475,192,83376,1,0,0:0:0:0:
402,192,83457,1,0,0:0:0:0:
329,192,83457,1,0,0:0:0:0:
36,192,83539,1,0,0:0:0:0:
182,192,83539,1,0,0:0:0:0:
256,192,83539,1,0,0:0:0:0:
109,192,83539,1,0,0:0:0:0:
329,192,83620,1,0,0:0:0:0:
475,192,83701,1,0,0:0:0:0:
402,192,83701,1,0,0:0:0:0:
182,192,83701,1,0,0:0:0:0:
109,192,83782,1,0,0:0:0:0:
36,192,83782,1,0,0:0:0:0:
402,192,83863,1,0,0:0:0:0:
475,192,83863,1,0,0:0:0:0:
256,192,83863,1,0,0:0:0:0:
329,192,83863,1,0,0:0:0:0:
182,192,83903,1,0,0:0:0:0:
109,192,83944,1,0,0:0:0:0:
475,192,84025,1,0,0:0:0:0:
36,192,84025,1,0,0:0:0:0:
402,192,84025,1,0,0:0:0:0:
329,192,84066,1,0,0:0:0:0:
182,192,84106,1,0,0:0:0:0:
256,192,84106,1,0,0:0:0:0:
475,192,84187,1,0,0:0:0:0:
402,192,84187,1,0,0:0:0:0:
109,192,84187,1,0,0:0:0:0:
36,192,84187,1,0,0:0:0:0:
182,192,84228,1,0,0:0:0:0:
256,192,84268,1,0,0:0:0:0:
475,192,84349,1,0,0:0:0:0:
329,192,84349,1,0,0:0:0:0:
36,192,84349,1,0,0:0:0:0:
402,192,84349,1,0,0:0:0:0:
109,192,84390,1,0,0:0:0:0:
256,192,84430,1,0,0:0:0:0:
182,192,84430,1,0,0:0:0:0:
402,192,84511,1,0,0:0:0:0:
475,192,84511,1,0,0:0:0:0:
109,192,84511,1,0,0:0:0:0:
36,192,84511,1,0,0:0:0:0:
329,192,84593,1,0,0:0:0:0:
256,192,84593,1,0,0:0:0:0:
182,192,84674,1,0,0:0:0:0:
109,192,84674,1,0,0:0:0:0:
402,192,84755,1,0,0:0:0:0:
329,192,84755,1,0,0:0:0:0:
36,192,84836,1,0,0:0:0:0:
109,192,84836,1,0,0:0:0:0:
475,192,84836,1,0,0:0:0:0:
256,192,84836,1,0,0:0:0:0:
329,192,84998,1,0,0:0:0:0:
475,192,84998,1,0,0:0:0:0:
182,192,84998,1,0,0:0:0:0:
109,192,84998,1,0,0:0:0:0:
475,192,85160,1,0,0:0:0:0:
36,192,85160,1,0,0:0:0:0:
256,192,85160,1,0,0:0:0:0:
402,192,85160,1,0,0:0:0:0:
182,192,85241,1,0,0:0:0:0:
36,192,85322,1,0,0:0:0:0:
109,192,85322,1,0,0:0:0:0:
402,192,85322,1,0,0:0:0:0:
475,192,85322,1,0,0:0:0:0:
329,192,85363,1,0,0:0:0:0:
256,192,85403,1,0,0:0:0:0:
182,192,85444,1,0,0:0:0:0:
36,192,85484,1,0,0:0:0:0:
109,192,85484,1,0,0:0:0:0:
402,192,85484,1,0,0:0:0:0:
329,192,85566,1,0,0:0:0:0:
109,192,85647,1,0,0:0:0:0:
182,192,85647,1,0,0:0:0:0:
256,192,85647,1,0,0:0:0:0:
475,192,85647,1,0,0:0:0:0:
402,192,85728,1,0,0:0:0:0:
329,192,85728,1,0,0:0:0:0:
475,192,85809,1,0,0:0:0:0:
36,192,85809,1,0,0:0:0:0:
182,192,85809,1,0,0:0:0:0:
109,192,85809,1,0,0:0:0:0:
329,192,85890,1,0,0:0:0:0:
256,192,85890,1,0,0:0:0:0:
182,192,85971,1,0,0:0:0:0:
402,192,85971,1,0,0:0:0:0:
36,192,85971,1,0,0:0:0:0:
256,192,86052,1,0,0:0:0:0:
109,192,86133,1,0,0:0:0:0:
36,192,86133,1,0,0:0:0:0:
475,192,86133,1,0,0:0:0:0:
329,192,86133,1,0,0:0:0:0:
256,192,86214,1,0,0:0:0:0:
36,192,86295,1,0,0:0:0:0:
475,192,86295,1,0,0:0:0:0:
182,192,86295,1,0,0:0:0:0:
402,192,86295,1,0,0:0:0:0:
256,192,86376,1,0,0:0:0:0:
329,192,86457,1,0,0:0:0:0:
475,192,86457,1,0,0:0:0:0:
109,192,86457,1,0,0:0:0:0:
402,192,86457,1,0,0:0:0:0:
182,192,86511,1,0,0:0:0:0:
256,192,86566,1,0,0:0:0:0:
36,192,86620,1,0,0:0:0:0:
402,192,86620,1,0,0:0:0:0:
329,192,86620,1,0,0:0:0:0:
109,192,86620,1,0,0:0:0:0:
475,192,86701,1,0,0:0:0:0:
182,192,86701,1,0,0:0:0:0:
109,192,86782,1,0,0:0:0:0:
256,192,86782,1,0,0:0:0:0:
329,192,86782,1,0,0:0:0:0:
36,192,86782,1,0,0:0:0:0:
402,192,86863,1,0,0:0:0:0:
36,192,86944,1,0,0:0:0:0:
182,192,86944,1,0,0:0:0:0:
256,192,86944,1,0,0:0:0:0:
475,192,86944,1,0,0:0:0:0:
329,192,87025,1,0,0:0:0:0:
402,192,87106,1,0,0:0:0:0:
475,192,87106,1,0,0:0:0:0:
109,192,87106,1,0,0:0:0:0:
36,192,87106,1,0,0:0:0:0:
256,192,87214,1,0,0:0:0:0:
182,192,87268,1,0,0:0:0:0:
109,192,87268,1,0,0:0:0:0:
402,192,87268,1,0,0:0:0:0:
475,192,87268,1,0,0:0:0:0:
329,192,87322,1,0,0:0:0:0:
109,192,87430,1,0,0:0:0:0:
36,192,87430,1,0,0:0:0:0:
182,192,87430,1,0,0:0:0:0:
402,192,87430,1,0,0:0:0:0:
475,192,87430,1,0,0:0:0:0:
329,192,87593,1,0,0:0:0:0:
109,192,87593,1,0,0:0:0:0:
36,192,87593,1,0,0:0:0:0:
475,192,87593,1,0,0:0:0:0:
256,192,87674,1,0,0:0:0:0:
182,192,87755,1,0,0:0:0:0:
402,192,87755,1,0,0:0:0:0:
109,192,87755,1,0,0:0:0:0:
36,192,87755,1,0,0:0:0:0:
475,192,87755,1,0,0:0:0:0:
329,192,87836,1,0,0:0:0:0:
256,192,87917,1,0,0:0:0:0:
109,192,87917,1,0,0:0:0:0:
36,192,87917,1,0,0:0:0:0:
402,192,87917,1,0,0:0:0:0:
182,192,87998,1,0,0:0:0:0:
256,192,88079,1,0,0:0:0:0:
36,192,88079,1,0,0:0:0:0:
329,192,88079,1,0,0:0:0:0:
402,192,88079,1,0,0:0:0:0:
475,192,88079,1,0,0:0:0:0:
182,192,88160,1,0,0:0:0:0:
109,192,88241,1,0,0:0:0:0:
329,192,88241,1,0,0:0:0:0:
402,192,88241,1,0,0:0:0:0:
475,192,88241,1,0,0:0:0:0:
256,192,88322,1,0,0:0:0:0:
36,192,88403,1,0,0:0:0:0:
329,192,88403,1,0,0:0:0:0:
109,192,88403,1,0,0:0:0:0:
475,192,88403,1,0,0:0:0:0:
256,192,88484,1,0,0:0:0:0:
182,192,88484,1,0,0:0:0:0:
36,192,88566,1,0,0:0:0:0:
329,192,88566,1,0,0:0:0:0:
402,192,88566,1,0,0:0:0:0:
475,192,88566,1,0,0:0:0:0:
256,192,88647,1,0,0:0:0:0:
182,192,88647,1,0,0:0:0:0:
402,192,88728,1,0,0:0:0:0:
36,192,88728,1,0,0:0:0:0:
109,192,88728,1,0,0:0:0:0:
475,192,88728,1,0,0:0:0:0:
329,192,88809,1,0,0:0:0:0:
182,192,88809,1,0,0:0:0:0:
109,192,88890,1,0,0:0:0:0:
256,192,88890,1,0,0:0:0:0:
475,192,88890,1,0,0:0:0:0:
182,192,88971,1,0,0:0:0:0:
402,192,88971,1,0,0:0:0:0:
36,192,89052,1,0,0:0:0:0:
109,192,89052,1,0,0:0:0:0:
329,192,89052,1,0,0:0:0:0:
256,192,89052,1,0,0:0:0:0:
182,192,89133,1,0,0:0:0:0:
402,192,89133,1,0,0:0:0:0:
36,192,89214,1,0,0:0:0:0:
256,192,89214,1,0,0:0:0:0:
475,192,89214,1,0,0:0:0:0:
329,192,89295,1,0,0:0:0:0:
109,192,89295,1,0,0:0:0:0:
475,192,89376,1,0,0:0:0:0:
36,192,89376,1,0,0:0:0:0:
182,192,89376,1,0,0:0:0:0:
402,192,89376,1,0,0:0:0:0:
256,192,89457,1,0,0:0:0:0:
402,192,89539,1,0,0:0:0:0:
329,192,89539,1,0,0:0:0:0:
109,192,89620,1,0,0:0:0:0:
182,192,89620,1,0,0:0:0:0:
475,192,89701,1,0,0:0:0:0:
402,192,89701,1,0,0:0:0:0:
256,192,89701,1,0,0:0:0:0:
36,192,89782,1,0,0:0:0:0:
109,192,89782,1,0,0:0:0:0:
475,192,89863,1,0,0:0:0:0:
329,192,89863,1,0,0:0:0:0:
182,192,89944,1,0,0:0:0:0:
256,192,89944,1,0,0:0:0:0:
109,192,90025,1,0,0:0:0:0:
36,192,90025,1,0,0:0:0:0:
402,192,90025,1,0,0:0:0:0:
475,192,90025,1,0,0:0:0:0:
182,192,90187,1,0,0:0:0:0:
109,192,90268,1,0,0:0:0:0:
329,192,90349,1,0,0:0:0:0:
475,192,90349,1,0,0:0:0:0:
182,192,90349,1,0,0:0:0:0:
109,192,90511,1,0,0:0:0:0:
256,192,90593,1,0,0:0:0:0:
109,192,90674,1,0,0:0:0:0:
402,192,90674,1,0,0:0:0:0:
475,192,90674,1,0,0:0:0:0:
329,192,90755,1,0,0:0:0:0:
36,192,90755,1,0,0:0:0:0:
256,192,90836,1,0,0:0:0:0:
182,192,90836,1,0,0:0:0:0:
402,192,90917,1,0,0:0:0:0:
475,192,90917,1,0,0:0:0:0:
182,192,90998,1,0,0:0:0:0:
109,192,90998,1,0,0:0:0:0:
36,192,90998,1,0,0:0:0:0:
329,192,91079,1,0,0:0:0:0:
475,192,91079,1,0,0:0:0:0:
182,192,91160,1,0,0:0:0:0:
36,192,91160,1,0,0:0:0:0:
256,192,91241,1,0,0:0:0:0:
402,192,91241,1,0,0:0:0:0:
475,192,91322,1,0,0:0:0:0:
329,192,91322,1,0,0:0:0:0:
109,192,91322,1,0,0:0:0:0:
182,192,91403,1,0,0:0:0:0:
256,192,91403,1,0,0:0:0:0:
36,192,91484,1,0,0:0:0:0:
402,192,91484,1,0,0:0:0:0:
475,192,91484,1,0,0:0:0:0:
329,192,91566,1,0,0:0:0:0:
182,192,91566,1,0,0:0:0:0:
109,192,91647,1,0,0:0:0:0:
36,192,91647,1,0,0:0:0:0:
256,192,91647,1,0,0:0:0:0:
402,192,91728,1,0,0:0:0:0:
475,192,91728,1,0,0:0:0:0:
182,192,91809,1,0,0:0:0:0:
109,192,91809,1,0,0:0:0:0:
256,192,91890,1,0,0:0:0:0:
329,192,91890,1,0,0:0:0:0:
402,192,91971,1,0,0:0:0:0:
475,192,91971,1,0,0:0:0:0:
36,192,91971,1,0,0:0:0:0:
256,192,92052,1,0,0:0:0:0:
182,192,92052,1,0,0:0:0:0:
109,192,92133,1,0,0:0:0:0:
402,192,92133,1,0,0:0:0:0:
329,192,92214,1,0,0:0:0:0:
256,192,92214,1,0,0:0:0:0:
182,192,92295,1,0,0:0:0:0:
36,192,92295,1,0,0:0:0:0:
475,192,92295,1,0,0:0:0:0:
329,192,92376,1,0,0:0:0:0:
402,192,92376,1,0,0:0:0:0:
182,192,92457,1,0,0:0:0:0:
109,192,92457,1,0,0:0:0:0:
256,192,92539,1,0,0:0:0:0:
329,192,92539,1,0,0:0:0:0:
402,192,92620,1,0,0:0:0:0:
475,192,92620,1,0,0:0:0:0:
109,192,92620,1,0,0:0:0:0:
36,192,92620,1,0,0:0:0:0:
109,192,92782,1,0,0:0:0:0:
182,192,92782,1,0,0:0:0:0:
329,192,92782,1,0,0:0:0:0:
182,192,92944,1,0,0:0:0:0:
256,192,92944,1,0,0:0:0:0:
402,192,92944,1,0,0:0:0:0:
475,192,92944,1,0,0:0:0:0:
36,192,93106,1,0,0:0:0:0:
329,192,93106,1,0,0:0:0:0:
402,192,93106,1,0,0:0:0:0:
256,192,93187,1,0,0:0:0:0:
109,192,93268,1,0,0:0:0:0:
36,192,93268,1,0,0:0:0:0:
329,192,93268,1,0,0:0:0:0:
475,192,93268,1,0,0:0:0:0:
182,192,93349,1,0,0:0:0:0:
402,192,93430,1,0,0:0:0:0:
475,192,93430,1,0,0:0:0:0:
256,192,93430,1,0,0:0:0:0:
182,192,93511,1,0,0:0:0:0:
329,192,93593,1,0,0:0:0:0:
475,192,93593,1,0,0:0:0:0:
36,192,93593,1,0,0:0:0:0:
109,192,93593,1,0,0:0:0:0:
256,192,93674,1,0,0:0:0:0:
182,192,93755,1,0,0:0:0:0:
402,192,93755,1,0,0:0:0:0:
329,192,93755,1,0,0:0:0:0:
256,192,93836,1,0,0:0:0:0:
182,192,93917,1,0,0:0:0:0:
36,192,93917,1,0,0:0:0:0:
475,192,93917,1,0,0:0:0:0:
402,192,93917,1,0,0:0:0:0:
329,192,93998,1,0,0:0:0:0:
109,192,94079,1,0,0:0:0:0:
36,192,94079,1,0,0:0:0:0:
475,192,94079,1,0,0:0:0:0:
182,192,94120,1,0,0:0:0:0:
256,192,94160,1,0,0:0:0:0:
329,192,94201,1,0,0:0:0:0:
402,192,94241,1,0,0:0:0:0:
475,192,94241,1,0,0:0:0:0:
109,192,94241,1,0,0:0:0:0:
36,192,94241,1,0,0:0:0:0:
182,192,94322,1,0,0:0:0:0:
256,192,94322,1,0,0:0:0:0:
475,192,94403,1,0,0:0:0:0:
329,192,94403,1,0,0:0:0:0:
109,192,94484,1,0,0:0:0:0:
182,192,94484,1,0,0:0:0:0:
36,192,94566,1,0,0:0:0:0:
329,192,94566,1,0,0:0:0:0:
402,192,94566,1,0,0:0:0:0:
256,192,94647,1,0,0:0:0:0:
182,192,94647,1,0,0:0:0:0:
109,192,94728,1,0,0:0:0:0:
36,192,94728,1,0,0:0:0:0:
475,192,94728,1,0,0:0:0:0:
329,192,94809,1,0,0:0:0:0:
402,192,94809,1,0,0:0:0:0:
109,192,94890,1,0,0:0:0:0:
475,192,94890,1,0,0:0:0:0:
36,192,94890,1,0,0:0:0:0:
256,192,94971,1,0,0:0:0:0:
182,192,94971,1,0,0:0:0:0:
475,192,95052,1,0,0:0:0:0:
109,192,95052,1,0,0:0:0:0:
329,192,95133,1,0,0:0:0:0:
256,192,95133,1,0,0:0:0:0:
182,192,95214,128,0,95457:0:0:0:0:
109,192,95214,128,0,95457:0:0:0:0:
36,192,95214,128,0,95457:0:0:0:0:
402,192,95214,128,0,95457:0:0:0:0:
475,192,95214,128,0,95457:0:0:0:0:
329,192,95539,1,0,0:0:0:0:
256,192,95575,1,0,0:0:0:0:
182,192,95611,1,0,0:0:0:0:
109,192,95647,1,0,0:0:0:0:
475,192,95683,1,0,0:0:0:0:
402,192,95719,1,0,0:0:0:0:
329,192,95755,1,0,0:0:0:0:
256,192,95791,1,0,0:0:0:0:
182,192,95827,1,0,0:0:0:0:
36,192,95863,1,0,0:0:0:0:
402,192,95863,1,0,0:0:0:0:
475,192,95863,1,0,0:0:0:0:
109,192,95863,1,0,0:0:0:0:
256,192,96025,1,0,0:0:0:0:
182,192,96187,1,0,0:0:0:0:
109,192,96223,1,0,0:0:0:0:
329,192,96259,1,0,0:0:0:0:
256,192,96295,1,0,0:0:0:0:
182,192,96331,1,0,0:0:0:0:
402,192,96367,1,0,0:0:0:0:
329,192,96403,1,0,0:0:0:0:
256,192,96439,1,0,0:0:0:0:
182,192,96475,1,0,0:0:0:0:
109,192,96511,128,0,96755:0:0:0:0:
36,192,96511,128,0,96755:0:0:0:0:
402,192,96511,128,0,96755:0:0:0:0:
475,192,96511,128,0,96755:0:0:0:0:
329,192,96836,1,0,0:0:0:0:
402,192,96872,1,0,0:0:0:0:
182,192,96908,1,0,0:0:0:0:
256,192,96944,1,0,0:0:0:0:
329,192,96980,1,0,0:0:0:0:
109,192,97016,1,0,0:0:0:0:
182,192,97052,1,0,0:0:0:0:
256,192,97088,1,0,0:0:0:0:
329,192,97124,1,0,0:0:0:0:
475,192,97160,1,0,0:0:0:0:
402,192,97160,1,0,0:0:0:0:
109,192,97160,1,0,0:0:0:0:
36,192,97160,1,0,0:0:0:0:
256,192,97322,1,0,0:0:0:0:
182,192,97322,1,0,0:0:0:0:
329,192,97403,1,0,0:0:0:0:
402,192,97403,1,0,0:0:0:0:
182,192,97484,1,0,0:0:0:0:
109,192,97484,1,0,0:0:0:0:
256,192,97566,1,0,0:0:0:0:
329,192,97566,1,0,0:0:0:0:
109,192,97647,1,0,0:0:0:0:
36,192,97647,1,0,0:0:0:0:
256,192,97728,1,0,0:0:0:0:
182,192,97728,1,0,0:0:0:0:
475,192,97809,1,0,0:0:0:0:
36,192,97809,1,0,0:0:0:0:
109,192,97809,1,0,0:0:0:0:
402,192,97849,1,0,0:0:0:0:
329,192,97890,1,0,0:0:0:0:
182,192,97930,1,0,0:0:0:0:
256,192,97971,1,0,0:0:0:0:
329,192,98052,1,0,0:0:0:0:
109,192,98133,1,0,0:0:0:0:
402,192,98133,1,0,0:0:0:0:
182,192,98174,1,0,0:0:0:0:
475,192,98174,1,0,0:0:0:0:
256,192,98214,1,0,0:0:0:0:
36,192,98214,1,0,0:0:0:0:
329,192,98255,1,0,0:0:0:0:
109,192,98255,1,0,0:0:0:0:
182,192,98295,1,0,0:0:0:0:
402,192,98295,1,0,0:0:0:0:
256,192,98376,1,0,0:0:0:0:
329,192,98457,1,0,0:0:0:0:
475,192,98457,1,0,0:0:0:0:
109,192,98457,1,0,0:0:0:0:
36,192,98457,1,0,0:0:0:0:
182,192,98539,1,0,0:0:0:0:
256,192,98579,1,0,0:0:0:0:
329,192,98620,1,0,0:0:0:0:
402,192,98660,1,0,0:0:0:0:
109,192,98701,1,0,0:0:0:0:
182,192,98741,1,0,0:0:0:0:
256,192,98782,1,0,0:0:0:0:
475,192,98822,1,0,0:0:0:0:
402,192,98863,1,0,0:0:0:0:
329,192,98903,1,0,0:0:0:0:
256,192,98944,1,0,0:0:0:0:
182,192,98984,1,0,0:0:0:0:
109,192,99025,1,0,0:0:0:0:
36,192,99066,1,0,0:0:0:0:
256,192,99106,1,0,0:0:0:0:
402,192,99106,1,0,0:0:0:0:
475,192,99106,1,0,0:0:0:0:
109,192,99147,1,0,0:0:0:0:
329,192,99187,1,0,0:0:0:0:
182,192,99228,1,0,0:0:0:0:
402,192,99268,1,0,0:0:0:0:
256,192,99309,1,0,0:0:0:0:
109,192,99430,1,0,0:0:0:0:
36,192,99430,1,0,0:0:0:0:
475,192,99430,1,0,0:0:0:0:
329,192,99471,1,0,0:0:0:0:
182,192,99511,1,0,0:0:0:0:
402,192,99552,1,0,0:0:0:0:
256,192,99593,1,0,0:0:0:0:
109,192,99593,1,0,0:0:0:0:
475,192,99633,1,0,0:0:0:0:
329,192,99674,1,0,0:0:0:0:
182,192,99674,1,0,0:0:0:0:
36,192,99755,1,0,0:0:0:0:
256,192,99755,1,0,0:0:0:0:
109,192,99755,1,0,0:0:0:0:
402,192,99755,1,0,0:0:0:0:
182,192,99917,1,0,0:0:0:0:
402,192,99917,1,0,0:0:0:0:
329,192,99917,1,0,0:0:0:0:
256,192,99998,1,0,0:0:0:0:
109,192,99998,1,0,0:0:0:0:
182,192,100079,1,0,0:0:0:0:
402,192,100079,1,0,0:0:0:0:
475,192,100079,1,0,0:0:0:0:
109,192,100160,1,0,0:0:0:0:
36,192,100160,1,0,0:0:0:0:
329,192,100160,1,0,0:0:0:0:
256,192,100241,1,0,0:0:0:0:
402,192,100241,1,0,0:0:0:0:
475,192,100241,1,0,0:0:0:0:
182,192,100322,1,0,0:0:0:0:
329,192,100322,1,0,0:0:0:0:
256,192,100403,128,0,100647:0:0:0:0:
109,192,100403,128,0,100647:0:0:0:0:
36,192,100403,128,0,100647:0:0:0:0:
402,192,100403,128,0,100647:0:0:0:0:
475,192,100403,128,0,100647:0:0:0:0:
329,192,100728,1,0,0:0:0:0:
256,192,100764,1,0,0:0:0:0:
182,192,100800,1,0,0:0:0:0:
109,192,100836,1,0,0:0:0:0:
402,192,100872,1,0,0:0:0:0:
329,192,100908,1,0,0:0:0:0:
256,192,100944,1,0,0:0:0:0:
182,192,100980,1,0,0:0:0:0:
109,192,101016,1,0,0:0:0:0:
36,192,101052,1,0,0:0:0:0:
402,192,101052,1,0,0:0:0:0:
475,192,101052,1,0,0:0:0:0:
329,192,101052,1,0,0:0:0:0:
256,192,101214,1,0,0:0:0:0:
109,192,101295,1,0,0:0:0:0:
329,192,101376,1,0,0:0:0:0:
402,192,101412,1,0,0:0:0:0:
182,192,101448,1,0,0:0:0:0:
256,192,101484,1,0,0:0:0:0:
329,192,101521,1,0,0:0:0:0:
109,192,101557,1,0,0:0:0:0:
182,192,101593,1,0,0:0:0:0:
256,192,101629,1,0,0:0:0:0:
329,192,101665,1,0,0:0:0:0:
36,192,101701,128,0,101944:0:0:0:0:
475,192,101701,128,0,101944:0:0:0:0:
402,192,101701,128,0,101944:0:0:0:0:
109,192,101701,128,0,101944:0:0:0:0:
182,192,102025,1,0,0:0:0:0:
109,192,102061,1,0,0:0:0:0:
329,192,102097,1,0,0:0:0:0:
256,192,102133,1,0,0:0:0:0:
182,192,102169,1,0,0:0:0:0:
402,192,102205,1,0,0:0:0:0:
329,192,102241,1,0,0:0:0:0:
256,192,102277,1,0,0:0:0:0:
182,192,102313,1,0,0:0:0:0:
109,192,102349,1,0,0:0:0:0:
36,192,102349,1,0,0:0:0:0:
475,192,102349,1,0,0:0:0:0:
402,192,102349,1,0,0:0:0:0:
256,192,102511,1,0,0:0:0:0:
182,192,102511,1,0,0:0:0:0:
329,192,102593,1,0,0:0:0:0:
402,192,102593,1,0,0:0:0:0:
109,192,102674,1,0,0:0:0:0:
182,192,102674,1,0,0:0:0:0:
256,192,102755,1,0,0:0:0:0:
329,192,102755,1,0,0:0:0:0:
109,192,102836,1,0,0:0:0:0:
36,192,102836,1,0,0:0:0:0:
182,192,102917,1,0,0:0:0:0:
256,192,102917,1,0,0:0:0:0:
329,192,102998,1,0,0:0:0:0:
402,192,102998,1,0,0:0:0:0:
475,192,102998,1,0,0:0:0:0:
36,192,102998,1,0,0:0:0:0:
109,192,103039,1,0,0:0:0:0:
182,192,103079,1,0,0:0:0:0:
329,192,103120,1,0,0:0:0:0:
256,192,103160,1,0,0:0:0:0:
182,192,103241,1,0,0:0:0:0:
402,192,103322,1,0,0:0:0:0:
109,192,103322,1,0,0:0:0:0:
329,192,103363,1,0,0:0:0:0:
36,192,103363,1,0,0:0:0:0:
256,192,103403,1,0,0:0:0:0:
475,192,103403,1,0,0:0:0:0:
182,192,103444,1,0,0:0:0:0:
402,192,103444,1,0,0:0:0:0:
329,192,103484,1,0,0:0:0:0:
109,192,103484,1,0,0:0:0:0:
256,192,103566,1,0,0:0:0:0:
182,192,103647,1,0,0:0:0:0:
36,192,103647,1,0,0:0:0:0:
402,192,103647,1,0,0:0:0:0:
475,192,103647,1,0,0:0:0:0:
329,192,103768,1,0,0:0:0:0:
256,192,103809,1,0,0:0:0:0:
182,192,103849,1,0,0:0:0:0:
475,192,103890,1,0,0:0:0:0:
402,192,103930,1,0,0:0:0:0:
329,192,103971,1,0,0:0:0:0:
36,192,104011,1,0,0:0:0:0:
109,192,104052,1,0,0:0:0:0:
182,192,104093,1,0,0:0:0:0:
256,192,104133,1,0,0:0:0:0:
329,192,104174,1,0,0:0:0:0:
402,192,104214,1,0,0:0:0:0:
475,192,104255,1,0,0:0:0:0:
182,192,104295,1,0,0:0:0:0:
109,192,104295,1,0,0:0:0:0:
36,192,104295,1,0,0:0:0:0:
329,192,104376,1,0,0:0:0:0:
182,192,104457,1,0,0:0:0:0:
109,192,104457,1,0,0:0:0:0:
402,192,104539,1,0,0:0:0:0:
182,192,104620,1,0,0:0:0:0:
109,192,104620,1,0,0:0:0:0:
475,192,104701,1,0,0:0:0:0:
329,192,104782,1,0,0:0:0:0:
182,192,104782,1,0,0:0:0:0:
109,192,104863,1,0,0:0:0:0:
36,192,104863,1,0,0:0:0:0:
256,192,104944,1,0,0:0:0:0:
402,192,104944,1,0,0:0:0:0:
475,192,104944,1,0,0:0:0:0:
329,192,104944,1,0,0:0:0:0:
182,192,105106,1,0,0:0:0:0:
256,192,105160,1,0,0:0:0:0:
329,192,105214,1,0,0:0:0:0:
182,192,105268,1,0,0:0:0:0:
109,192,105268,1,0,0:0:0:0:
475,192,105268,1,0,0:0:0:0:
329,192,105430,1,0,0:0:0:0:
256,192,105430,1,0,0:0:0:0:
36,192,105430,1,0,0:0:0:0:
475,192,105593,128,0,105998:0:0:0:0:
329,192,105593,128,0,105998:0:0:0:0:
402,192,105593,128,0,105998:0:0:0:0:
109,192,105593,128,0,105998:0:0:0:0:
36,192,105593,128,0,105998:0:0:0:0:
329,192,106079,1,0,0:0:0:0:
256,192,106120,1,0,0:0:0:0:
182,192,106160,1,0,0:0:0:0:
109,192,106241,1,0,0:0:0:0:
475,192,106241,1,0,0:0:0:0:
36,192,106241,1,0,0:0:0:0:
402,192,106282,1,0,0:0:0:0:
182,192,106322,1,0,0:0:0:0:
329,192,106322,1,0,0:0:0:0:
109,192,106403,1,0,0:0:0:0:
475,192,106403,1,0,0:0:0:0:
402,192,106444,1,0,0:0:0:0:
182,192,106484,1,0,0:0:0:0:
329,192,106484,1,0,0:0:0:0:
109,192,106566,1,0,0:0:0:0:
475,192,106566,1,0,0:0:0:0:
36,192,106566,1,0,0:0:0:0:
402,192,106606,1,0,0:0:0:0:
329,192,106647,1,0,0:0:0:0:
182,192,106728,1,0,0:0:0:0:
256,192,106768,1,0,0:0:0:0:
329,192,106809,1,0,0:0:0:0:
402,192,106849,1,0,0:0:0:0:
36,192,106890,1,0,0:0:0:0:
109,192,106890,1,0,0:0:0:0:
475,192,106890,1,0,0:0:0:0:
182,192,106930,1,0,0:0:0:0:
329,192,106971,1,0,0:0:0:0:
256,192,106971,1,0,0:0:0:0:
475,192,107052,1,0,0:0:0:0:
36,192,107052,1,0,0:0:0:0:
109,192,107093,1,0,0:0:0:0:
329,192,107133,1,0,0:0:0:0:
182,192,107133,1,0,0:0:0:0:
475,192,107214,1,0,0:0:0:0:
36,192,107214,1,0,0:0:0:0:
109,192,107255,1,0,0:0:0:0:
402,192,107295,1,0,0:0:0:0:
182,192,107295,1,0,0:0:0:0:
36,192,107376,1,0,0:0:0:0:
329,192,107376,1,0,0:0:0:0:
256,192,107376,1,0,0:0:0:0:
182,192,107457,1,0,0:0:0:0:
402,192,107457,1,0,0:0:0:0:
36,192,107539,1,0,0:0:0:0:
475,192,107539,1,0,0:0:0:0:
256,192,107539,1,0,0:0:0:0:
109,192,107539,1,0,0:0:0:0:
329,192,107620,1,0,0:0:0:0:
182,192,107701,1,0,0:0:0:0:
256,192,107741,1,0,0:0:0:0:
329,192,107782,1,0,0:0:0:0:
402,192,107822,1,0,0:0:0:0:
36,192,107863,1,0,0:0:0:0:
109,192,107863,1,0,0:0:0:0:
475,192,107863,1,0,0:0:0:0:
329,192,107944,1,0,0:0:0:0:
256,192,107944,1,0,0:0:0:0:
475,192,108025,1,0,0:0:0:0:
36,192,108025,1,0,0:0:0:0:
109,192,108025,1,0,0:0:0:0:
256,192,108106,1,0,0:0:0:0:
182,192,108106,1,0,0:0:0:0:
475,192,108187,1,0,0:0:0:0:
36,192,108187,1,0,0:0:0:0:
329,192,108187,1,0,0:0:0:0:
402,192,108187,1,0,0:0:0:0:
109,192,108228,1,0,0:0:0:0:
182,192,108268,1,0,0:0:0:0:
256,192,108309,1,0,0:0:0:0:
402,192,108349,1,0,0:0:0:0:
329,192,108349,1,0,0:0:0:0:
182,192,108390,1,0,0:0:0:0:
109,192,108430,1,0,0:0:0:0:
36,192,108471,1,0,0:0:0:0:
402,192,108511,1,0,0:0:0:0:
475,192,108511,1,0,0:0:0:0:
329,192,108511,1,0,0:0:0:0:
256,192,108552,1,0,0:0:0:0:
182,192,108593,1,0,0:0:0:0:
475,192,108674,1,0,0:0:0:0:
36,192,108674,1,0,0:0:0:0:
329,192,108674,1,0,0:0:0:0:
256,192,108728,1,0,0:0:0:0:
182,192,108782,1,0,0:0:0:0:
475,192,108836,1,0,0:0:0:0:
109,192,108836,1,0,0:0:0:0:
36,192,108836,1,0,0:0:0:0:
402,192,108836,1,0,0:0:0:0:
329,192,108890,1,0,0:0:0:0:
256,192,108944,1,0,0:0:0:0:
182,192,108998,1,0,0:0:0:0:
402,192,108998,1,0,0:0:0:0:
329,192,109052,1,0,0:0:0:0:
256,192,109106,1,0,0:0:0:0:
182,192,109160,1,0,0:0:0:0:
36,192,109160,1,0,0:0:0:0:
475,192,109160,1,0,0:0:0:0:
402,192,109214,1,0,0:0:0:0:
329,192,109268,1,0,0:0:0:0:
182,192,109322,1,0,0:0:0:0:
109,192,109322,1,0,0:0:0:0:
256,192,109376,1,0,0:0:0:0:
329,192,109430,1,0,0:0:0:0:
475,192,109484,1,0,0:0:0:0:
36,192,109484,1,0,0:0:0:0:
109,192,109484,1,0,0:0:0:0:
402,192,109484,1,0,0:0:0:0:
182,192,109539,1,0,0:0:0:0:
256,192,109593,1,0,0:0:0:0:
475,192,109647,1,0,0:0:0:0:
329,192,109647,1,0,0:0:0:0:
109,192,109647,1,0,0:0:0:0:
182,192,109701,1,0,0:0:0:0:
256,192,109755,1,0,0:0:0:0:
36,192,109809,1,0,0:0:0:0:
475,192,109809,1,0,0:0:0:0:
402,192,109809,1,0,0:0:0:0:
329,192,109863,1,0,0:0:0:0:
256,192,109917,1,0,0:0:0:0:
182,192,109971,1,0,0:0:0:0:
109,192,109971,1,0,0:0:0:0:
329,192,110025,1,0,0:0:0:0:
256,192,110079,1,0,0:0:0:0:
402,192,110133,1,0,0:0:0:0:
475,192,110133,1,0,0:0:0:0:
182,192,110133,1,0,0:0:0:0:
36,192,110133,1,0,0:0:0:0:
329,192,110214,1,0,0:0:0:0:
475,192,110295,1,0,0:0:0:0:
256,192,110295,1,0,0:0:0:0:
182,192,110349,1,0,0:0:0:0:
402,192,110376,1,0,0:0:0:0:
109,192,110403,1,0,0:0:0:0:
475,192,110457,1,0,0:0:0:0:
329,192,110457,1,0,0:0:0:0:
36,192,110457,1,0,0:0:0:0:
256,192,110511,1,0,0:0:0:0:
182,192,110566,1,0,0:0:0:0:
109,192,110620,1,0,0:0:0:0:
329,192,110620,1,0,0:0:0:0:
256,192,110674,1,0,0:0:0:0:
182,192,110728,1,0,0:0:0:0:
475,192,110782,128,0,111025:0:0:0:0:
329,192,110782,128,0,111025:0:0:0:0:
402,192,110782,128,0,111025:0:0:0:0:
109,192,110782,128,0,111025:0:0:0:0:
36,192,110782,128,0,111025:0:0:0:0:
36,192,111106,1,0,0:0:0:0:
475,192,111106,1,0,0:0:0:0:
109,192,111106,1,0,0:0:0:0:
402,192,111106,1,0,0:0:0:0:
329,192,111147,1,0,0:0:0:0:
256,192,111187,1,0,0:0:0:0:
182,192,111228,1,0,0:0:0:0:
402,192,111268,1,0,0:0:0:0:
109,192,111268,1,0,0:0:0:0:
329,192,111309,1,0,0:0:0:0:
256,192,111349,1,0,0:0:0:0:
402,192,111430,1,0,0:0:0:0:
475,192,111430,1,0,0:0:0:0:
36,192,111430,1,0,0:0:0:0:
109,192,111471,1,0,0:0:0:0:
329,192,111511,1,0,0:0:0:0:
182,192,111511,1,0,0:0:0:0:
475,192,111593,1,0,0:0:0:0:
36,192,111593,1,0,0:0:0:0:
109,192,111633,1,0,0:0:0:0:
329,192,111674,1,0,0:0:0:0:
182,192,111674,1,0,0:0:0:0:
475,192,111755,1,0,0:0:0:0:
402,192,111755,1,0,0:0:0:0:
36,192,111755,1,0,0:0:0:0:
109,192,111795,1,0,0:0:0:0:
182,192,111836,1,0,0:0:0:0:
402,192,111917,1,0,0:0:0:0:
329,192,111917,1,0,0:0:0:0:
109,192,111998,1,0,0:0:0:0:
182,192,111998,1,0,0:0:0:0:
256,192,112079,1,0,0:0:0:0:
36,192,112079,1,0,0:0:0:0:
475,192,112079,1,0,0:0:0:0:
402,192,112120,1,0,0:0:0:0:
182,192,112160,1,0,0:0:0:0:
329,192,112160,1,0,0:0:0:0:
36,192,112241,1,0,0:0:0:0:
475,192,112241,1,0,0:0:0:0:
402,192,112282,1,0,0:0:0:0:
182,192,112322,1,0,0:0:0:0:
329,192,112322,1,0,0:0:0:0:
109,192,112403,1,0,0:0:0:0:
36,192,112403,1,0,0:0:0:0:
475,192,112403,1,0,0:0:0:0:
402,192,112444,1,0,0:0:0:0:
182,192,112484,1,0,0:0:0:0:
256,192,112484,1,0,0:0:0:0:
109,192,112566,1,0,0:0:0:0:
475,192,112566,1,0,0:0:0:0:
402,192,112566,1,0,0:0:0:0:
329,192,112647,1,0,0:0:0:0:
256,192,112647,1,0,0:0:0:0:
36,192,112728,1,0,0:0:0:0:
402,192,112728,1,0,0:0:0:0:
475,192,112728,1,0,0:0:0:0:
109,192,112728,1,0,0:0:0:0:
182,192,112809,1,0,0:0:0:0:
256,192,112809,1,0,0:0:0:0:
109,192,112890,1,0,0:0:0:0:
36,192,112890,1,0,0:0:0:0:
329,192,112890,1,0,0:0:0:0:
475,192,112971,1,0,0:0:0:0:
182,192,112971,1,0,0:0:0:0:
402,192,112971,1,0,0:0:0:0:
329,192,113052,1,0,0:0:0:0:
256,192,113052,1,0,0:0:0:0:
109,192,113052,1,0,0:0:0:0:
36,192,113052,1,0,0:0:0:0:
402,192,113133,1,0,0:0:0:0:
256,192,113214,1,0,0:0:0:0:
475,192,113214,1,0,0:0:0:0:
109,192,113214,1,0,0:0:0:0:
36,192,113214,1,0,0:0:0:0:
182,192,113295,1,0,0:0:0:0:
36,192,113376,1,0,0:0:0:0:
475,192,113376,1,0,0:0:0:0:
329,192,113376,1,0,0:0:0:0:
402,192,113376,1,0,0:0:0:0:
109,192,113417,1,0,0:0:0:0:
182,192,113457,1,0,0:0:0:0:
256,192,113498,1,0,0:0:0:0:
36,192,113539,1,0,0:0:0:0:
475,192,113539,1,0,0:0:0:0:
402,192,113539,1,0,0:0:0:0:
329,192,113579,1,0,0:0:0:0:
256,192,113620,1,0,0:0:0:0:
182,192,113660,1,0,0:0:0:0:
475,192,113701,1,0,0:0:0:0:
402,192,113701,1,0,0:0:0:0:
109,192,113701,1,0,0:0:0:0:
36,192,113701,1,0,0:0:0:0:
256,192,113809,1,0,0:0:0:0:
329,192,113809,1,0,0:0:0:0:
36,192,113863,1,0,0:0:0:0:
109,192,113863,1,0,0:0:0:0:
402,192,113917,1,0,0:0:0:0:
475,192,113917,1,0,0:0:0:0:
36,192,114025,1,0,0:0:0:0:
109,192,114025,1,0,0:0:0:0:
182,192,114025,1,0,0:0:0:0:
329,192,114025,1,0,0:0:0:0:
256,192,114025,1,0,0:0:0:0:
109,192,114187,1,0,0:0:0:0:
256,192,114187,1,0,0:0:0:0:
402,192,114187,1,0,0:0:0:0:
475,192,114187,1,0,0:0:0:0:
329,192,114349,1,0,0:0:0:0:
402,192,114349,1,0,0:0:0:0:
182,192,114349,1,0,0:0:0:0:
475,192,114349,1,0,0:0:0:0:
36,192,114349,1,0,0:0:0:0:
256,192,114430,1,0,0:0:0:0:
109,192,114430,1,0,0:0:0:0:
402,192,114457,1,0,0:0:0:0:
475,192,114457,1,0,0:0:0:0:
36,192,114511,1,0,0:0:0:0:
182,192,114511,1,0,0:0:0:0:
402,192,114566,1,0,0:0:0:0:
475,192,114566,1,0,0:0:0:0:
109,192,114593,1,0,0:0:0:0:
36,192,114674,1,0,0:0:0:0:
329,192,114674,1,0,0:0:0:0:
256,192,114674,1,0,0:0:0:0:
182,192,114674,1,0,0:0:0:0:
402,192,114755,1,0,0:0:0:0:
475,192,114755,1,0,0:0:0:0:
36,192,114836,1,0,0:0:0:0:
109,192,114836,1,0,0:0:0:0:
182,192,114836,1,0,0:0:0:0:
256,192,114917,1,0,0:0:0:0:
329,192,114917,1,0,0:0:0:0:
109,192,114998,1,0,0:0:0:0:
36,192,114998,1,0,0:0:0:0:
182,192,114998,1,0,0:0:0:0:
402,192,114998,1,0,0:0:0:0:
475,192,115079,1,0,0:0:0:0:
329,192,115079,1,0,0:0:0:0:
36,192,115106,1,0,0:0:0:0:
109,192,115106,1,0,0:0:0:0:
256,192,115160,1,0,0:0:0:0:
402,192,115160,1,0,0:0:0:0:
36,192,115214,1,0,0:0:0:0:
109,192,115214,1,0,0:0:0:0:
329,192,115241,1,0,0:0:0:0:
182,192,115322,1,0,0:0:0:0:
256,192,115363,1,0,0:0:0:0:
329,192,115403,1,0,0:0:0:0:
402,192,115444,1,0,0:0:0:0:
109,192,115484,1,0,0:0:0:0:
182,192,115525,1,0,0:0:0:0:
256,192,115566,1,0,0:0:0:0:
329,192,115606,1,0,0:0:0:0:
475,192,115647,1,0,0:0:0:0:
402,192,115647,1,0,0:0:0:0:
36,192,115647,1,0,0:0:0:0:
109,192,115687,1,0,0:0:0:0:
182,192,115728,1,0,0:0:0:0:
256,192,115768,1,0,0:0:0:0:
475,192,115809,1,0,0:0:0:0:
402,192,115849,1,0,0:0:0:0:
329,192,115890,1,0,0:0:0:0:
256,192,115930,1,0,0:0:0:0:
36,192,115971,1,0,0:0:0:0:
182,192,115971,1,0,0:0:0:0:
475,192,115971,1,0,0:0:0:0:
256,192,116457,1,0,0:0:0:0:
329,192,116944,1,0,0:0:0:0:
109,192,116944,1,0,0:0:0:0:
475,192,116944,1,0,0:0:0:0:
36,192,116944,1,0,0:0:0:0:
109,192,117593,1,0,0:0:0:0:
182,192,117755,1,0,0:0:0:0:
256,192,117917,1,0,0:0:0:0:
329,192,118079,1,0,0:0:0:0:
402,192,118241,1,0,0:0:0:0:
475,192,118403,1,0,0:0:0:0:
329,192,119539,1,0,0:0:0:0:
182,192,119579,1,0,0:0:0:0:
256,192,119863,1,0,0:0:0:0:
329,192,120187,1,0,0:0:0:0:
402,192,120349,1,0,0:0:0:0:
109,192,120674,1,0,0:0:0:0:
36,192,120674,1,0,0:0:0:0:
256,192,120674,1,0,0:0:0:0:
402,192,120998,1,0,0:0:0:0:
329,192,120998,1,0,0:0:0:0:
182,192,120998,1,0,0:0:0:0:
475,192,120998,1,0,0:0:0:0:
402,192,121647,1,0,0:0:0:0:
475,192,121809,1,0,0:0:0:0:
329,192,121971,1,0,0:0:0:0:
402,192,122133,1,0,0:0:0:0:
256,192,122295,1,0,0:0:0:0:
329,192,122457,1,0,0:0:0:0:
182,192,122620,1,0,0:0:0:0:
256,192,122782,1,0,0:0:0:0:
109,192,122944,1,0,0:0:0:0:
182,192,123106,1,0,0:0:0:0:
109,192,123430,1,0,0:0:0:0:
256,192,123511,1,0,0:0:0:0:
109,192,123593,1,0,0:0:0:0:
36,192,123755,1,0,0:0:0:0:
329,192,123755,1,0,0:0:0:0:
475,192,123755,1,0,0:0:0:0:
402,192,123755,1,0,0:0:0:0:
256,192,123917,1,0,0:0:0:0:
182,192,124079,1,0,0:0:0:0:
109,192,124566,1,0,0:0:0:0:
182,192,124728,1,0,0:0:0:0:
256,192,124890,1,0,0:0:0:0:
329,192,125052,1,0,0:0:0:0:
402,192,125052,1,0,0:0:0:0:
109,192,125052,1,0,0:0:0:0:
256,192,125376,1,0,0:0:0:0:
182,192,125539,1,0,0:0:0:0:
109,192,125701,1,0,0:0:0:0:
329,192,125701,1,0,0:0:0:0:
475,192,125701,1,0,0:0:0:0:
256,192,125863,1,0,0:0:0:0:
182,192,126025,1,0,0:0:0:0:
329,192,126187,1,0,0:0:0:0:
402,192,126187,1,0,0:0:0:0:
36,192,126187,1,0,0:0:0:0:
475,192,126187,1,0,0:0:0:0:
256,192,126836,1,0,0:0:0:0:
329,192,126998,1,0,0:0:0:0:
182,192,127160,1,0,0:0:0:0:
256,192,127322,1,0,0:0:0:0:
329,192,127484,1,0,0:0:0:0:
256,192,128457,1,0,0:0:0:0:
402,192,128620,1,0,0:0:0:0:
256,192,128782,1,0,0:0:0:0:
109,192,128944,1,0,0:0:0:0:
36,192,128944,1,0,0:0:0:0:
475,192,128944,1,0,0:0:0:0:
402,192,128984,1,0,0:0:0:0:
329,192,129025,1,0,0:0:0:0:
256,192,129066,1,0,0:0:0:0:
182,192,129106,1,0,0:0:0:0:
256,192,129917,1,0,0:0:0:0:
109,192,130241,1,0,0:0:0:0:
36,192,130241,1,0,0:0:0:0:
329,192,130241,1,0,0:0:0:0:
182,192,130403,1,0,0:0:0:0:
256,192,130728,1,0,0:0:0:0:
329,192,131052,1,0,0:0:0:0:
109,192,131052,1,0,0:0:0:0:
109,192,131539,1,0,0:0:0:0:
36,192,131539,1,0,0:0:0:0:
329,192,131539,1,0,0:0:0:0:
475,192,131539,1,0,0:0:0:0:
329,192,132349,1,0,0:0:0:0:
475,192,132511,1,0,0:0:0:0:
402,192,132674,1,0,0:0:0:0:
182,192,132674,1,0,0:0:0:0:
109,192,132836,1,0,0:0:0:0:
36,192,132836,1,0,0:0:0:0:
329,192,132836,1,0,0:0:0:0:
256,192,133647,1,0,0:0:0:0:
402,192,133687,1,0,0:0:0:0:
182,192,133809,1,0,0:0:0:0:
109,192,133971,1,0,0:0:0:0:
36,192,134133,1,0,0:0:0:0:
329,192,134133,1,0,0:0:0:0:
402,192,134133,1,0,0:0:0:0:
256,192,134295,1,0,0:0:0:0:
182,192,134620,1,0,0:0:0:0:
402,192,134620,1,0,0:0:0:0:
256,192,135430,1,0,0:0:0:0:
109,192,135430,1,0,0:0:0:0:
402,192,135430,1,0,0:0:0:0:
182,192,136079,5,0,0:0:0:0:
329,192,136079,1,0,0:0:0:0:
475,192,136079,1,0,0:0:0:0:
256,192,136403,1,0,0:0:0:0:
256,192,136728,5,0,0:0:0:0:
36,192,136728,1,0,0:0:0:0:
475,192,136728,1,0,0:0:0:0:
329,192,136890,5,0,0:0:0:0:
402,192,136971,1,0,0:0:0:0:
256,192,137052,1,0,0:0:0:0:
329,192,137106,1,0,0:0:0:0:
402,192,137160,1,0,0:0:0:0:
182,192,137214,1,0,0:0:0:0:
256,192,137255,1,0,0:0:0:0:
329,192,137295,1,0,0:0:0:0:
402,192,137336,1,0,0:0:0:0:
256,192,137376,128,0,137944:0:0:0:0:
475,192,137376,128,0,137944:0:0:0:0:
182,192,137376,128,0,137944:0:0:0:0:
36,192,137376,128,0,137944:0:0:0:0:
109,192,137376,128,0,137944:0:0:0:0:
329,192,138025,1,0,0:0:0:0:
182,192,138106,1,0,0:0:0:0:
329,192,138187,1,0,0:0:0:0:
256,192,138268,1,0,0:0:0:0:
402,192,138349,128,0,138755:0:0:0:0:
475,192,138349,128,0,138755:0:0:0:0:
329,192,138349,128,0,138755:0:0:0:0:
36,192,138349,128,0,138755:0:0:0:0:
182,192,138349,128,0,138755:0:0:0:0:
36,192,138836,128,0,139241:0:0:0:0:
256,192,138836,128,0,139241:0:0:0:0:
402,192,138836,128,0,139241:0:0:0:0:
475,192,138836,128,0,139241:0:0:0:0:
36,192,139322,1,0,0:0:0:0:
475,192,139322,1,0,0:0:0:0:
329,192,139322,1,0,0:0:0:0:
256,192,139403,1,0,0:0:0:0:
109,192,139484,1,0,0:0:0:0:
182,192,139539,1,0,0:0:0:0:
256,192,139593,1,0,0:0:0:0:
36,192,139647,1,0,0:0:0:0:
329,192,139647,1,0,0:0:0:0:
109,192,139687,1,0,0:0:0:0:
182,192,139728,1,0,0:0:0:0:
256,192,139768,1,0,0:0:0:0:
402,192,139809,1,0,0:0:0:0:
329,192,139809,1,0,0:0:0:0:
109,192,139890,1,0,0:0:0:0:
182,192,139890,1,0,0:0:0:0:
402,192,139971,128,0,140539:0:0:0:0:
475,192,139971,128,0,140539:0:0:0:0:
329,192,139971,128,0,140539:0:0:0:0:
36,192,139971,128,0,140539:0:0:0:0:
256,192,139971,128,0,140539:0:0:0:0:
402,192,140620,1,0,0:0:0:0:
475,192,140620,1,0,0:0:0:0:
109,192,140620,1,0,0:0:0:0:
329,192,140620,1,0,0:0:0:0:
182,192,140701,1,0,0:0:0:0:
36,192,140782,1,0,0:0:0:0:
109,192,140863,1,0,0:0:0:0:
329,192,140944,1,0,0:0:0:0:
36,192,140944,1,0,0:0:0:0:
182,192,141025,1,0,0:0:0:0:
402,192,141106,1,0,0:0:0:0:
109,192,141106,1,0,0:0:0:0:
329,192,141187,1,0,0:0:0:0:
109,192,141268,1,0,0:0:0:0:
182,192,141268,1,0,0:0:0:0:
475,192,141268,1,0,0:0:0:0:
402,192,141349,1,0,0:0:0:0:
36,192,141430,1,0,0:0:0:0:
475,192,141430,1,0,0:0:0:0:
329,192,141511,1,0,0:0:0:0:
36,192,141593,1,0,0:0:0:0:
182,192,141593,1,0,0:0:0:0:
475,192,141593,1,0,0:0:0:0:
109,192,141593,1,0,0:0:0:0:
109,192,141755,1,0,0:0:0:0:
36,192,141755,1,0,0:0:0:0:
475,192,141755,1,0,0:0:0:0:
182,192,141755,1,0,0:0:0:0:
402,192,141809,1,0,0:0:0:0:
329,192,141863,1,0,0:0:0:0:
256,192,141917,1,0,0:0:0:0:
475,192,141971,1,0,0:0:0:0:
402,192,142025,1,0,0:0:0:0:
329,192,142079,1,0,0:0:0:0:
182,192,142133,1,0,0:0:0:0:
109,192,142187,1,0,0:0:0:0:
475,192,142241,1,0,0:0:0:0:
329,192,142241,1,0,0:0:0:0:
36,192,142241,1,0,0:0:0:0:
256,192,142322,1,0,0:0:0:0:
182,192,142403,1,0,0:0:0:0:
109,192,142484,1,0,0:0:0:0:
329,192,142566,1,0,0:0:0:0:
36,192,142566,1,0,0:0:0:0:
256,192,142647,1,0,0:0:0:0:
475,192,142728,1,0,0:0:0:0:
182,192,142728,1,0,0:0:0:0:
402,192,142768,1,0,0:0:0:0:
36,192,142809,1,0,0:0:0:0:
329,192,142809,1,0,0:0:0:0:
109,192,142849,1,0,0:0:0:0:
475,192,142890,1,0,0:0:0:0:
182,192,142890,1,0,0:0:0:0:
402,192,142930,1,0,0:0:0:0:
36,192,142971,1,0,0:0:0:0:
329,192,142971,1,0,0:0:0:0:
109,192,143011,1,0,0:0:0:0:
475,192,143052,1,0,0:0:0:0:
182,192,143052,1,0,0:0:0:0:
402,192,143093,1,0,0:0:0:0:
36,192,143133,1,0,0:0:0:0:
329,192,143133,1,0,0:0:0:0:
109,192,143174,1,0,0:0:0:0:
402,192,143214,1,0,0:0:0:0:
182,192,143214,1,0,0:0:0:0:
329,192,143255,1,0,0:0:0:0:
109,192,143295,1,0,0:0:0:0:
402,192,143336,1,0,0:0:0:0:
182,192,143336,1,0,0:0:0:0:
329,192,143376,1,0,0:0:0:0:
109,192,143417,1,0,0:0:0:0:
402,192,143457,1,0,0:0:0:0:
182,192,143457,1,0,0:0:0:0:
329,192,143498,1,0,0:0:0:0:
109,192,143539,1,0,0:0:0:0:
182,192,143579,1,0,0:0:0:0:
256,192,143620,1,0,0:0:0:0:
475,192,143660,1,0,0:0:0:0:
402,192,143701,1,0,0:0:0:0:
329,192,143741,1,0,0:0:0:0:
182,192,143782,1,0,0:0:0:0:
109,192,143822,1,0,0:0:0:0:
36,192,143863,1,0,0:0:0:0:
475,192,143863,1,0,0:0:0:0:
402,192,143863,1,0,0:0:0:0:
182,192,143903,1,0,0:0:0:0:
256,192,143944,1,0,0:0:0:0:
329,192,143984,1,0,0:0:0:0:
109,192,144025,1,0,0:0:0:0:
36,192,144025,1,0,0:0:0:0:
402,192,144025,1,0,0:0:0:0:
182,192,144066,1,0,0:0:0:0:
256,192,144106,1,0,0:0:0:0:
329,192,144147,1,0,0:0:0:0:
475,192,144187,1,0,0:0:0:0:
36,192,144187,1,0,0:0:0:0:
402,192,144187,1,0,0:0:0:0:
109,192,144228,1,0,0:0:0:0:
182,192,144268,1,0,0:0:0:0:
256,192,144309,1,0,0:0:0:0:
402,192,144349,1,0,0:0:0:0:
475,192,144349,1,0,0:0:0:0:
109,192,144349,1,0,0:0:0:0:
36,192,144349,1,0,0:0:0:0:
329,192,144511,1,0,0:0:0:0:
182,192,144566,1,0,0:0:0:0:
36,192,144620,1,0,0:0:0:0:
475,192,144674,1,0,0:0:0:0:
329,192,144674,1,0,0:0:0:0:
182,192,144728,1,0,0:0:0:0:
36,192,144782,1,0,0:0:0:0:
402,192,144836,1,0,0:0:0:0:
329,192,144836,1,0,0:0:0:0:
182,192,144890,1,0,0:0:0:0:
36,192,144944,1,0,0:0:0:0:
256,192,144998,1,0,0:0:0:0:
329,192,144998,1,0,0:0:0:0:
182,192,145052,1,0,0:0:0:0:
36,192,145106,1,0,0:0:0:0:
402,192,145160,1,0,0:0:0:0:
475,192,145160,1,0,0:0:0:0:
256,192,145160,1,0,0:0:0:0:
329,192,145160,1,0,0:0:0:0:
329,192,145403,1,0,0:0:0:0:
402,192,145403,1,0,0:0:0:0:
182,192,145403,1,0,0:0:0:0:
256,192,145403,1,0,0:0:0:0:
256,192,145647,1,0,0:0:0:0:
329,192,145647,1,0,0:0:0:0:
109,192,145647,1,0,0:0:0:0:
182,192,145647,1,0,0:0:0:0:
475,192,145809,1,0,0:0:0:0:
329,192,145809,1,0,0:0:0:0:
109,192,145809,1,0,0:0:0:0:
36,192,145809,1,0,0:0:0:0:
182,192,145849,1,0,0:0:0:0:
256,192,145890,1,0,0:0:0:0:
402,192,145930,1,0,0:0:0:0:
109,192,145971,1,0,0:0:0:0:
182,192,146011,1,0,0:0:0:0:
329,192,146052,1,0,0:0:0:0:
36,192,146093,1,0,0:0:0:0:
475,192,146133,1,0,0:0:0:0:
402,192,146133,1,0,0:0:0:0:
109,192,146133,1,0,0:0:0:0:
256,192,146174,1,0,0:0:0:0:
329,192,146214,1,0,0:0:0:0:
182,192,146255,1,0,0:0:0:0:
256,192,146295,1,0,0:0:0:0:
36,192,146295,1,0,0:0:0:0:
402,192,146336,1,0,0:0:0:0:
109,192,146376,1,0,0:0:0:0:
182,192,146417,1,0,0:0:0:0:
402,192,146457,1,0,0:0:0:0:
475,192,146457,1,0,0:0:0:0:
36,192,146457,1,0,0:0:0:0:
329,192,146498,1,0,0:0:0:0:
256,192,146539,1,0,0:0:0:0:
182,192,146579,1,0,0:0:0:0:
475,192,146620,1,0,0:0:0:0:
109,192,146620,1,0,0:0:0:0:
36,192,146620,1,0,0:0:0:0:
402,192,146701,1,0,0:0:0:0:
329,192,146701,1,0,0:0:0:0:
36,192,146782,1,0,0:0:0:0:
109,192,146782,1,0,0:0:0:0:
182,192,146782,1,0,0:0:0:0:
475,192,146863,1,0,0:0:0:0:
329,192,146863,1,0,0:0:0:0:
182,192,146944,1,0,0:0:0:0:
329,192,147025,1,0,0:0:0:0:
475,192,147106,1,0,0:0:0:0:
256,192,147106,1,0,0:0:0:0:
36,192,147106,1,0,0:0:0:0:
402,192,147268,1,0,0:0:0:0:
109,192,147268,1,0,0:0:0:0:
329,192,147349,1,0,0:0:0:0:
475,192,147430,1,0,0:0:0:0:
182,192,147430,1,0,0:0:0:0:
329,192,147593,1,0,0:0:0:0:
36,192,147593,1,0,0:0:0:0:
402,192,147674,1,0,0:0:0:0:
329,192,147755,1,0,0:0:0:0:
109,192,147755,1,0,0:0:0:0:
475,192,147917,1,0,0:0:0:0:
182,192,147917,1,0,0:0:0:0:
329,192,147998,1,0,0:0:0:0:
256,192,148079,1,0,0:0:0:0:
475,192,148079,1,0,0:0:0:0:
36,192,148079,1,0,0:0:0:0:
329,192,148241,1,0,0:0:0:0:
109,192,148241,1,0,0:0:0:0:
402,192,148322,1,0,0:0:0:0:
329,192,148403,1,0,0:0:0:0:
182,192,148403,1,0,0:0:0:0:
329,192,148566,1,0,0:0:0:0:
36,192,148566,1,0,0:0:0:0:
475,192,148647,1,0,0:0:0:0:
329,192,148728,1,0,0:0:0:0:
109,192,148728,1,0,0:0:0:0:
475,192,148890,1,0,0:0:0:0:
182,192,148890,1,0,0:0:0:0:
402,192,148971,1,0,0:0:0:0:
256,192,149052,1,0,0:0:0:0:
475,192,149052,1,0,0:0:0:0:
36,192,149052,1,0,0:0:0:0:
256,192,149214,1,0,0:0:0:0:
109,192,149214,1,0,0:0:0:0:
36,192,149214,1,0,0:0:0:0:
402,192,149295,1,0,0:0:0:0:
329,192,149376,1,0,0:0:0:0:
182,192,149376,1,0,0:0:0:0:
402,192,149539,1,0,0:0:0:0:
256,192,149539,1,0,0:0:0:0:
36,192,149539,1,0,0:0:0:0:
36,192,149701,1,0,0:0:0:0:
182,192,149701,1,0,0:0:0:0:
329,192,149701,1,0,0:0:0:0:
475,192,149782,1,0,0:0:0:0:
109,192,149863,1,0,0:0:0:0:
402,192,149863,1,0,0:0:0:0:
182,192,149944,1,0,0:0:0:0:
109,192,150025,1,0,0:0:0:0:
475,192,150025,1,0,0:0:0:0:
36,192,150187,1,0,0:0:0:0:
329,192,150187,1,0,0:0:0:0:
182,192,150268,1,0,0:0:0:0:
256,192,150349,1,0,0:0:0:0:
402,192,150349,1,0,0:0:0:0:
182,192,150511,1,0,0:0:0:0:
475,192,150511,1,0,0:0:0:0:
329,192,150511,1,0,0:0:0:0:
109,192,150593,1,0,0:0:0:0:
182,192,150674,1,0,0:0:0:0:
329,192,150674,1,0,0:0:0:0:
402,192,150836,1,0,0:0:0:0:
182,192,150836,1,0,0:0:0:0:
109,192,150917,1,0,0:0:0:0:
256,192,150998,1,0,0:0:0:0:
475,192,150998,1,0,0:0:0:0:
36,192,150998,1,0,0:0:0:0:
182,192,151079,1,0,0:0:0:0:
402,192,151079,1,0,0:0:0:0:
109,192,151160,1,0,0:0:0:0:
329,192,151160,1,0,0:0:0:0:
182,192,151241,1,0,0:0:0:0:
256,192,151322,1,0,0:0:0:0:
402,192,151322,1,0,0:0:0:0:
109,192,151403,1,0,0:0:0:0:
329,192,151484,1,0,0:0:0:0:
36,192,151484,1,0,0:0:0:0:
256,192,151566,1,0,0:0:0:0:
475,192,151647,1,0,0:0:0:0:
182,192,151647,1,0,0:0:0:0:
402,192,151687,1,0,0:0:0:0:
329,192,151728,1,0,0:0:0:0:
109,192,151809,1,0,0:0:0:0:
256,192,151809,1,0,0:0:0:0:
36,192,151809,1,0,0:0:0:0:
329,192,151890,1,0,0:0:0:0:
402,192,151971,1,0,0:0:0:0:
182,192,151971,1,0,0:0:0:0:
256,192,152052,1,0,0:0:0:0:
475,192,152133,1,0,0:0:0:0:
109,192,152133,1,0,0:0:0:0:
36,192,152295,1,0,0:0:0:0:
182,192,152295,1,0,0:0:0:0:
475,192,152295,1,0,0:0:0:0:
256,192,152295,1,0,0:0:0:0:
329,192,152295,1,0,0:0:0:0:
402,192,152457,1,0,0:0:0:0:
109,192,152457,1,0,0:0:0:0:
182,192,152457,1,0,0:0:0:0:
329,192,152457,1,0,0:0:0:0:
475,192,152620,1,0,0:0:0:0:
402,192,152620,1,0,0:0:0:0:
256,192,152620,1,0,0:0:0:0:
182,192,152620,1,0,0:0:0:0:
36,192,152620,1,0,0:0:0:0:
329,192,152701,1,0,0:0:0:0:
109,192,152782,1,0,0:0:0:0:
475,192,152782,1,0,0:0:0:0:
402,192,152782,1,0,0:0:0:0:
182,192,152782,1,0,0:0:0:0:
36,192,152944,1,0,0:0:0:0:
402,192,152944,1,0,0:0:0:0:
182,192,152944,1,0,0:0:0:0:
329,192,152944,1,0,0:0:0:0:
256,192,153106,1,0,0:0:0:0:
475,192,153106,1,0,0:0:0:0:
329,192,153106,1,0,0:0:0:0:
109,192,153106,1,0,0:0:0:0:
402,192,153268,1,0,0:0:0:0:
475,192,153268,1,0,0:0:0:0:
329,192,153268,1,0,0:0:0:0:
182,192,153268,1,0,0:0:0:0:
36,192,153268,1,0,0:0:0:0:
36,192,153430,1,0,0:0:0:0:
329,192,153430,1,0,0:0:0:0:
256,192,153430,1,0,0:0:0:0:
109,192,153430,1,0,0:0:0:0:
36,192,153593,1,0,0:0:0:0:
109,192,153593,1,0,0:0:0:0:
475,192,153593,1,0,0:0:0:0:
256,192,153593,1,0,0:0:0:0:
402,192,153593,1,0,0:0:0:0:
182,192,153674,1,0,0:0:0:0:
402,192,153755,1,0,0:0:0:0:
475,192,153755,1,0,0:0:0:0:
109,192,153755,1,0,0:0:0:0:
329,192,153755,1,0,0:0:0:0:
256,192,153836,1,0,0:0:0:0:
475,192,153917,1,0,0:0:0:0:
402,192,153917,1,0,0:0:0:0:
109,192,153917,1,0,0:0:0:0:
329,192,153917,1,0,0:0:0:0:
36,192,153917,1,0,0:0:0:0:
182,192,153998,1,0,0:0:0:0:
256,192,154079,1,0,0:0:0:0:
402,192,154079,1,0,0:0:0:0:
109,192,154079,1,0,0:0:0:0:
36,192,154079,1,0,0:0:0:0:
329,192,154160,1,0,0:0:0:0:
109,192,154241,1,0,0:0:0:0:
36,192,154241,1,0,0:0:0:0:
402,192,154241,1,0,0:0:0:0:
475,192,154241,1,0,0:0:0:0:
182,192,154241,1,0,0:0:0:0:
256,192,154322,1,0,0:0:0:0:
475,192,154403,1,0,0:0:0:0:
402,192,154403,1,0,0:0:0:0:
182,192,154403,1,0,0:0:0:0:
109,192,154403,1,0,0:0:0:0:
329,192,154484,1,0,0:0:0:0:
36,192,154566,1,0,0:0:0:0:
475,192,154566,1,0,0:0:0:0:
109,192,154566,1,0,0:0:0:0:
256,192,154566,1,0,0:0:0:0:
182,192,154566,1,0,0:0:0:0:
402,192,154647,1,0,0:0:0:0:
475,192,154728,1,0,0:0:0:0:
256,192,154728,1,0,0:0:0:0:
36,192,154728,1,0,0:0:0:0:
329,192,154728,1,0,0:0:0:0:
182,192,154728,1,0,0:0:0:0:
475,192,154890,1,0,0:0:0:0:
329,192,154890,1,0,0:0:0:0:
402,192,154890,1,0,0:0:0:0:
109,192,154890,1,0,0:0:0:0:
36,192,154890,1,0,0:0:0:0:
182,192,154971,1,0,0:0:0:0:
475,192,155052,1,0,0:0:0:0:
109,192,155052,1,0,0:0:0:0:
256,192,155052,1,0,0:0:0:0:
402,192,155052,1,0,0:0:0:0:
182,192,155133,1,0,0:0:0:0:
256,192,155214,1,0,0:0:0:0:
402,192,155214,1,0,0:0:0:0:
109,192,155214,1,0,0:0:0:0:
36,192,155214,1,0,0:0:0:0:
329,192,155295,1,0,0:0:0:0:
475,192,155376,1,0,0:0:0:0:
402,192,155376,1,0,0:0:0:0:
256,192,155376,1,0,0:0:0:0:
36,192,155376,1,0,0:0:0:0:
329,192,155457,1,0,0:0:0:0:
109,192,155457,1,0,0:0:0:0:
475,192,155539,1,0,0:0:0:0:
402,192,155539,1,0,0:0:0:0:
36,192,155539,1,0,0:0:0:0:
182,192,155539,1,0,0:0:0:0:
256,192,155620,1,0,0:0:0:0:
329,192,155701,1,0,0:0:0:0:
475,192,155701,1,0,0:0:0:0:
109,192,155701,1,0,0:0:0:0:
36,192,155701,1,0,0:0:0:0:
402,192,155782,1,0,0:0:0:0:
182,192,155782,1,0,0:0:0:0:
109,192,155863,1,0,0:0:0:0:
36,192,155863,1,0,0:0:0:0:
475,192,155863,1,0,0:0:0:0:
256,192,155863,1,0,0:0:0:0:
329,192,155944,1,0,0:0:0:0:
36,192,156025,1,0,0:0:0:0:
182,192,156025,1,0,0:0:0:0:
402,192,156025,1,0,0:0:0:0:
475,192,156025,1,0,0:0:0:0:
256,192,156106,1,0,0:0:0:0:
109,192,156106,1,0,0:0:0:0:
329,192,156187,1,0,0:0:0:0:
182,192,156187,1,0,0:0:0:0:
402,192,156187,1,0,0:0:0:0:
475,192,156187,1,0,0:0:0:0:
36,192,156268,1,0,0:0:0:0:
109,192,156268,1,0,0:0:0:0:
402,192,156349,1,0,0:0:0:0:
329,192,156349,1,0,0:0:0:0:
256,192,156349,1,0,0:0:0:0:
109,192,156430,1,0,0:0:0:0:
182,192,156430,1,0,0:0:0:0:
329,192,156511,1,0,0:0:0:0:
475,192,156511,1,0,0:0:0:0:
36,192,156511,1,0,0:0:0:0:
402,192,156511,1,0,0:0:0:0:
182,192,156593,1,0,0:0:0:0:
256,192,156593,1,0,0:0:0:0:
402,192,156674,1,0,0:0:0:0:
475,192,156674,1,0,0:0:0:0:
109,192,156674,1,0,0:0:0:0:
36,192,156674,1,0,0:0:0:0:
256,192,156755,1,0,0:0:0:0:
329,192,156755,1,0,0:0:0:0:
36,192,156836,1,0,0:0:0:0:
475,192,156836,1,0,0:0:0:0:
182,192,156836,1,0,0:0:0:0:
109,192,156836,1,0,0:0:0:0:
402,192,156876,1,0,0:0:0:0:
329,192,156917,1,0,0:0:0:0:
256,192,156957,1,0,0:0:0:0:
36,192,156998,1,0,0:0:0:0:
182,192,156998,1,0,0:0:0:0:
475,192,157079,1,0,0:0:0:0:
329,192,157079,1,0,0:0:0:0:
36,192,157160,1,0,0:0:0:0:
109,192,157160,1,0,0:0:0:0:
182,192,157201,1,0,0:0:0:0:
256,192,157241,1,0,0:0:0:0:
329,192,157282,1,0,0:0:0:0:
475,192,157322,1,0,0:0:0:0:
402,192,157322,1,0,0:0:0:0:
36,192,157403,1,0,0:0:0:0:
109,192,157403,1,0,0:0:0:0:
256,192,157484,1,0,0:0:0:0:
329,192,157484,1,0,0:0:0:0:
475,192,157484,1,0,0:0:0:0:
402,192,157484,1,0,0:0:0:0:
182,192,157566,1,0,0:0:0:0:
402,192,157647,1,0,0:0:0:0:
109,192,157647,1,0,0:0:0:0:
329,192,157701,1,0,0:0:0:0:
256,192,157755,1,0,0:0:0:0:
475,192,157809,1,0,0:0:0:0:
182,192,157809,1,0,0:0:0:0:
36,192,157809,1,0,0:0:0:0:
329,192,157890,1,0,0:0:0:0:
109,192,157971,1,0,0:0:0:0:
182,192,157971,1,0,0:0:0:0:
256,192,158025,1,0,0:0:0:0:
329,192,158079,1,0,0:0:0:0:
36,192,158133,1,0,0:0:0:0:
475,192,158133,1,0,0:0:0:0:
402,192,158133,1,0,0:0:0:0:
256,192,158187,1,0,0:0:0:0:
182,192,158241,1,0,0:0:0:0:
109,192,158295,1,0,0:0:0:0:
402,192,158295,1,0,0:0:0:0:
329,192,158349,1,0,0:0:0:0:
256,192,158403,1,0,0:0:0:0:
36,192,158457,1,0,0:0:0:0:
109,192,158457,1,0,0:0:0:0:
475,192,158457,1,0,0:0:0:0:
182,192,158539,1,0,0:0:0:0:
402,192,158620,1,0,0:0:0:0:
256,192,158620,1,0,0:0:0:0:
109,192,158701,1,0,0:0:0:0:
475,192,158782,1,0,0:0:0:0:
256,192,158782,1,0,0:0:0:0:
36,192,158782,1,0,0:0:0:0:
182,192,158863,1,0,0:0:0:0:
402,192,158944,1,0,0:0:0:0:
109,192,158944,1,0,0:0:0:0:
329,192,158998,1,0,0:0:0:0:
256,192,159052,1,0,0:0:0:0:
182,192,159106,1,0,0:0:0:0:
36,192,159106,1,0,0:0:0:0:
475,192,159106,1,0,0:0:0:0:
329,192,159187,1,0,0:0:0:0:
109,192,159268,1,0,0:0:0:0:
402,192,159268,1,0,0:0:0:0:
182,192,159322,1,0,0:0:0:0:
256,192,159376,1,0,0:0:0:0:
36,192,159430,1,0,0:0:0:0:
109,192,159430,1,0,0:0:0:0:
402,192,159430,1,0,0:0:0:0:
329,192,159484,1,0,0:0:0:0:
256,192,159539,1,0,0:0:0:0:
182,192,159593,1,0,0:0:0:0:
475,192,159593,1,0,0:0:0:0:
402,192,159647,1,0,0:0:0:0:
329,192,159701,1,0,0:0:0:0:
36,192,159755,1,0,0:0:0:0:
182,192,159755,1,0,0:0:0:0:
475,192,159755,1,0,0:0:0:0:
256,192,159836,1,0,0:0:0:0:
109,192,159917,1,0,0:0:0:0:
329,192,159917,1,0,0:0:0:0:
182,192,159998,1,0,0:0:0:0:
402,192,160079,1,0,0:0:0:0:
475,192,160079,1,0,0:0:0:0:
36,192,160079,1,0,0:0:0:0:
256,192,160160,1,0,0:0:0:0:
402,192,160241,1,0,0:0:0:0:
182,192,160241,1,0,0:0:0:0:
329,192,160295,1,0,0:0:0:0:
256,192,160349,1,0,0:0:0:0:
475,192,160403,1,0,0:0:0:0:
36,192,160403,1,0,0:0:0:0:
182,192,160403,1,0,0:0:0:0:
329,192,160484,1,0,0:0:0:0:
402,192,160566,1,0,0:0:0:0:
109,192,160566,1,0,0:0:0:0:
182,192,160620,1,0,0:0:0:0:
256,192,160674,1,0,0:0:0:0:
109,192,160728,1,0,0:0:0:0:
402,192,160728,1,0,0:0:0:0:
36,192,160728,1,0,0:0:0:0:
475,192,160728,1,0,0:0:0:0:
329,192,160782,1,0,0:0:0:0:
256,192,160836,1,0,0:0:0:0:
475,192,160890,1,0,0:0:0:0:
182,192,160890,1,0,0:0:0:0:
402,192,160944,1,0,0:0:0:0:
329,192,160998,1,0,0:0:0:0:
182,192,161052,1,0,0:0:0:0:
36,192,161052,1,0,0:0:0:0:
256,192,161052,1,0,0:0:0:0:
329,192,161133,1,0,0:0:0:0:
109,192,161214,1,0,0:0:0:0:
402,192,161214,1,0,0:0:0:0:
182,192,161295,1,0,0:0:0:0:
475,192,161376,1,0,0:0:0:0:
329,192,161376,1,0,0:0:0:0:
36,192,161376,1,0,0:0:0:0:
256,192,161457,1,0,0:0:0:0:
402,192,161539,1,0,0:0:0:0:
109,192,161539,1,0,0:0:0:0:
182,192,161593,1,0,0:0:0:0:
256,192,161647,1,0,0:0:0:0:
36,192,161701,1,0,0:0:0:0:
329,192,161701,1,0,0:0:0:0:
475,192,161701,1,0,0:0:0:0:
182,192,161782,1,0,0:0:0:0:
109,192,161863,1,0,0:0:0:0:
402,192,161863,1,0,0:0:0:0:
329,192,161917,1,0,0:0:0:0:
256,192,161971,1,0,0:0:0:0:
36,192,162025,1,0,0:0:0:0:
109,192,162025,1,0,0:0:0:0:
475,192,162025,1,0,0:0:0:0:
402,192,162025,1,0,0:0:0:0:
182,192,162079,1,0,0:0:0:0:
256,192,162133,1,0,0:0:0:0:
475,192,162187,1,0,0:0:0:0:
329,192,162187,1,0,0:0:0:0:
109,192,162187,1,0,0:0:0:0:
182,192,162241,1,0,0:0:0:0:
256,192,162295,1,0,0:0:0:0:
109,192,162349,1,0,0:0:0:0:
329,192,162349,1,0,0:0:0:0:
475,192,162349,1,0,0:0:0:0:
36,192,162349,1,0,0:0:0:0:
256,192,162430,1,0,0:0:0:0:
182,192,162430,1,0,0:0:0:0:
402,192,162511,1,0,0:0:0:0:
36,192,162511,1,0,0:0:0:0:
329,192,162511,1,0,0:0:0:0:
256,192,162593,1,0,0:0:0:0:
182,192,162593,1,0,0:0:0:0:
475,192,162674,1,0,0:0:0:0:
402,192,162674,1,0,0:0:0:0:
109,192,162674,1,0,0:0:0:0:
36,192,162674,1,0,0:0:0:0:
256,192,162755,1,0,0:0:0:0:
329,192,162755,1,0,0:0:0:0:
182,192,162836,1,0,0:0:0:0:
36,192,162836,1,0,0:0:0:0:
402,192,162836,1,0,0:0:0:0:
475,192,162836,1,0,0:0:0:0:
256,192,162917,1,0,0:0:0:0:
329,192,162917,1,0,0:0:0:0:
402,192,162998,1,0,0:0:0:0:
475,192,162998,1,0,0:0:0:0:
109,192,162998,1,0,0:0:0:0:
36,192,162998,1,0,0:0:0:0:
182,192,163079,1,0,0:0:0:0:
402,192,163160,1,0,0:0:0:0:
329,192,163160,1,0,0:0:0:0:
256,192,163160,1,0,0:0:0:0:
36,192,163241,1,0,0:0:0:0:
109,192,163241,1,0,0:0:0:0:
182,192,163241,1,0,0:0:0:0:
402,192,163322,1,0,0:0:0:0:
475,192,163322,1,0,0:0:0:0:
256,192,163322,1,0,0:0:0:0:
329,192,163322,1,0,0:0:0:0:
36,192,163403,1,0,0:0:0:0:
109,192,163403,1,0,0:0:0:0:
402,192,163484,1,0,0:0:0:0:
256,192,163484,1,0,0:0:0:0:
182,192,163484,1,0,0:0:0:0:
475,192,163484,1,0,0:0:0:0:
36,192,163566,1,0,0:0:0:0:
109,192,163566,1,0,0:0:0:0:
402,192,163647,1,0,0:0:0:0:
475,192,163647,1,0,0:0:0:0:
182,192,163647,1,0,0:0:0:0:
256,192,163647,1,0,0:0:0:0:
109,192,163728,1,0,0:0:0:0:
402,192,163809,1,0,0:0:0:0:
329,192,163809,1,0,0:0:0:0:
36,192,163809,1,0,0:0:0:0:
256,192,163863,1,0,0:0:0:0:
182,192,163917,1,0,0:0:0:0:
109,192,163971,1,0,0:0:0:0:
402,192,163971,1,0,0:0:0:0:
36,192,163971,1,0,0:0:0:0:
475,192,163971,1,0,0:0:0:0:
182,192,164052,1,0,0:0:0:0:
256,192,164052,1,0,0:0:0:0:
329,192,164133,1,0,0:0:0:0:
475,192,164133,1,0,0:0:0:0:
109,192,164133,1,0,0:0:0:0:
36,192,164133,1,0,0:0:0:0:
256,192,164214,1,0,0:0:0:0:
182,192,164214,1,0,0:0:0:0:
402,192,164295,1,0,0:0:0:0:
475,192,164295,1,0,0:0:0:0:
109,192,164295,1,0,0:0:0:0:
36,192,164295,1,0,0:0:0:0:
329,192,164376,1,0,0:0:0:0:
182,192,164457,1,0,0:0:0:0:
109,192,164457,1,0,0:0:0:0:
402,192,164539,1,0,0:0:0:0:
329,192,164539,1,0,0:0:0:0:
36,192,164620,1,0,0:0:0:0:
475,192,164620,1,0,0:0:0:0:
182,192,164620,1,0,0:0:0:0:
109,192,164620,1,0,0:0:0:0:
329,192,164701,1,0,0:0:0:0:
256,192,164701,1,0,0:0:0:0:
402,192,164782,1,0,0:0:0:0:
475,192,164782,1,0,0:0:0:0:
182,192,164782,1,0,0:0:0:0:
109,192,164782,1,0,0:0:0:0:
329,192,164863,1,0,0:0:0:0:
256,192,164863,1,0,0:0:0:0:
109,192,164944,1,0,0:0:0:0:
36,192,164944,1,0,0:0:0:0:
402,192,164944,1,0,0:0:0:0:
475,192,164944,1,0,0:0:0:0:
182,192,165025,1,0,0:0:0:0:
109,192,165106,1,0,0:0:0:0:
329,192,165106,1,0,0:0:0:0:
256,192,165187,1,0,0:0:0:0:
475,192,165268,1,0,0:0:0:0:
402,192,165268,1,0,0:0:0:0:
182,192,165268,1,0,0:0:0:0:
36,192,165268,1,0,0:0:0:0:
329,192,165349,1,0,0:0:0:0:
109,192,165349,1,0,0:0:0:0:
475,192,165430,1,0,0:0:0:0:
36,192,165430,1,0,0:0:0:0:
256,192,165430,1,0,0:0:0:0:
182,192,165511,1,0,0:0:0:0:
402,192,165511,1,0,0:0:0:0:
36,192,165593,1,0,0:0:0:0:
475,192,165593,1,0,0:0:0:0:
329,192,165593,1,0,0:0:0:0:
109,192,165593,1,0,0:0:0:0:
402,192,165674,1,0,0:0:0:0:
256,192,165674,1,0,0:0:0:0:
475,192,165755,1,0,0:0:0:0:
36,192,165755,1,0,0:0:0:0:
329,192,165755,1,0,0:0:0:0:
182,192,165755,1,0,0:0:0:0:
109,192,165836,1,0,0:0:0:0:
256,192,165836,1,0,0:0:0:0:
475,192,165917,1,0,0:0:0:0:
36,192,165917,1,0,0:0:0:0:
182,192,165917,1,0,0:0:0:0:
402,192,165917,1,0,0:0:0:0:
256,192,165998,1,0,0:0:0:0:
329,192,165998,1,0,0:0:0:0:
475,192,166079,1,0,0:0:0:0:
182,192,166079,1,0,0:0:0:0:
109,192,166079,1,0,0:0:0:0:
36,192,166079,1,0,0:0:0:0:
329,192,166160,1,0,0:0:0:0:
402,192,166160,1,0,0:0:0:0:
36,192,166241,1,0,0:0:0:0:
475,192,166241,1,0,0:0:0:0:
182,192,166241,1,0,0:0:0:0:
109,192,166241,1,0,0:0:0:0:
329,192,166322,1,0,0:0:0:0:
256,192,166322,1,0,0:0:0:0:
475,192,166403,1,0,0:0:0:0:
36,192,166403,1,0,0:0:0:0:
109,192,166403,1,0,0:0:0:0:
402,192,166403,1,0,0:0:0:0:
329,192,166457,1,0,0:0:0:0:
256,192,166511,1,0,0:0:0:0:
36,192,166566,1,0,0:0:0:0:
182,192,166566,1,0,0:0:0:0:
475,192,166566,1,0,0:0:0:0:
402,192,166566,1,0,0:0:0:0:
256,192,166647,1,0,0:0:0:0:
109,192,166647,1,0,0:0:0:0:
402,192,166728,1,0,0:0:0:0:
475,192,166728,1,0,0:0:0:0:
36,192,166728,1,0,0:0:0:0:
182,192,166728,1,0,0:0:0:0:
109,192,166809,1,0,0:0:0:0:
329,192,166809,1,0,0:0:0:0:
475,192,166890,1,0,0:0:0:0:
402,192,166890,1,0,0:0:0:0:
36,192,166890,1,0,0:0:0:0:
256,192,166890,1,0,0:0:0:0:
182,192,166971,1,0,0:0:0:0:
329,192,166971,1,0,0:0:0:0:
256,192,167052,1,0,0:0:0:0:
475,192,167052,1,0,0:0:0:0:
36,192,167052,1,0,0:0:0:0:
109,192,167052,1,0,0:0:0:0:
329,192,167133,1,0,0:0:0:0:
402,192,167133,1,0,0:0:0:0:
36,192,167214,1,0,0:0:0:0:
475,192,167214,1,0,0:0:0:0:
109,192,167214,1,0,0:0:0:0:
182,192,167255,1,0,0:0:0:0:
256,192,167295,1,0,0:0:0:0:
329,192,167336,1,0,0:0:0:0:
109,192,167376,1,0,0:0:0:0:
402,192,167376,1,0,0:0:0:0:
182,192,167417,1,0,0:0:0:0:
256,192,167457,1,0,0:0:0:0:
329,192,167498,1,0,0:0:0:0:
475,192,167539,1,0,0:0:0:0:
402,192,167539,1,0,0:0:0:0:
36,192,167620,1,0,0:0:0:0:
109,192,167620,1,0,0:0:0:0:
475,192,167701,1,0,0:0:0:0:
402,192,167701,1,0,0:0:0:0:
109,192,167782,1,0,0:0:0:0:
36,192,167782,1,0,0:0:0:0:
329,192,167863,1,0,0:0:0:0:
475,192,167863,1,0,0:0:0:0:
402,192,167863,1,0,0:0:0:0:
182,192,167863,1,0,0:0:0:0:
256,192,167863,1,0,0:0:0:0:
109,192,167971,1,0,0:0:0:0:
36,192,168079,1,0,0:0:0:0:
182,192,168187,1,0,0:0:0:0:
109,192,168295,1,0,0:0:0:0:
256,192,168403,1,0,0:0:0:0:
182,192,168511,1,0,0:0:0:0:
109,192,168566,1,0,0:0:0:0:
36,192,168620,1,0,0:0:0:0:
329,192,168674,1,0,0:0:0:0:
256,192,168728,1,0,0:0:0:0:
182,192,168782,1,0,0:0:0:0:
475,192,168836,1,0,0:0:0:0:
402,192,168876,1,0,0:0:0:0:
329,192,168917,1,0,0:0:0:0:
256,192,168957,1,0,0:0:0:0:
402,192,168998,1,0,0:0:0:0:
475,192,168998,1,0,0:0:0:0:
36,192,168998,1,0,0:0:0:0:
109,192,169039,1,0,0:0:0:0:
182,192,169079,1,0,0:0:0:0:
256,192,169120,1,0,0:0:0:0:
329,192,169160,1,0,0:0:0:0:
402,192,169241,1,0,0:0:0:0:
36,192,169322,1,0,0:0:0:0:
182,192,169322,1,0,0:0:0:0:
475,192,169322,1,0,0:0:0:0:
256,192,169403,1,0,0:0:0:0:
109,192,169484,1,0,0:0:0:0:
182,192,169566,1,0,0:0:0:0:
475,192,169647,1,0,0:0:0:0:
329,192,169647,1,0,0:0:0:0:
36,192,169647,1,0,0:0:0:0:
109,192,169728,1,0,0:0:0:0:
475,192,169809,1,0,0:0:0:0:
402,192,169809,1,0,0:0:0:0:
182,192,169809,1,0,0:0:0:0:
36,192,169890,1,0,0:0:0:0:
402,192,169971,1,0,0:0:0:0:
329,192,169971,1,0,0:0:0:0:
109,192,169971,1,0,0:0:0:0:
256,192,170052,1,0,0:0:0:0:
402,192,170133,1,0,0:0:0:0:
475,192,170133,1,0,0:0:0:0:
182,192,170133,1,0,0:0:0:0:
36,192,170133,1,0,0:0:0:0:
109,192,170214,1,0,0:0:0:0:
329,192,170214,1,0,0:0:0:0:
402,192,170295,128,0,170539:0:0:0:0:
475,192,170295,128,0,170539:0:0:0:0:
36,192,170295,128,0,170539:0:0:0:0:
256,192,170295,128,0,170539:0:0:0:0:
402,192,170620,1,0,0:0:0:0:
36,192,170620,1,0,0:0:0:0:
182,192,170620,1,0,0:0:0:0:
256,192,170701,1,0,0:0:0:0:
36,192,170782,1,0,0:0:0:0:
475,192,170782,1,0,0:0:0:0:
329,192,170782,1,0,0:0:0:0:
109,192,170782,1,0,0:0:0:0:
182,192,170863,1,0,0:0:0:0:
36,192,170944,1,0,0:0:0:0:
475,192,170944,1,0,0:0:0:0:
256,192,170944,1,0,0:0:0:0:
329,192,171025,1,0,0:0:0:0:
475,192,171106,1,0,0:0:0:0:
109,192,171106,1,0,0:0:0:0:
182,192,171106,1,0,0:0:0:0:
402,192,171106,1,0,0:0:0:0:
256,192,171187,1,0,0:0:0:0:
36,192,171268,1,0,0:0:0:0:
402,192,171268,1,0,0:0:0:0:
329,192,171268,1,0,0:0:0:0:
109,192,171309,1,0,0:0:0:0:
182,192,171349,1,0,0:0:0:0:
256,192,171390,1,0,0:0:0:0:
329,192,171430,1,0,0:0:0:0:
36,192,171430,1,0,0:0:0:0:
402,192,171430,1,0,0:0:0:0:
475,192,171430,1,0,0:0:0:0:
182,192,171511,1,0,0:0:0:0:
475,192,171593,1,0,0:0:0:0:
329,192,171593,1,0,0:0:0:0:
109,192,171593,1,0,0:0:0:0:
256,192,171674,1,0,0:0:0:0:
36,192,171755,1,0,0:0:0:0:
475,192,171755,1,0,0:0:0:0:
182,192,171755,1,0,0:0:0:0:
402,192,171755,1,0,0:0:0:0:
329,192,171809,1,0,0:0:0:0:
256,192,171863,1,0,0:0:0:0:
109,192,171917,1,0,0:0:0:0:
182,192,171917,1,0,0:0:0:0:
475,192,171917,1,0,0:0:0:0:
402,192,171971,1,0,0:0:0:0:
329,192,172025,1,0,0:0:0:0:
475,192,172079,1,0,0:0:0:0:
36,192,172079,1,0,0:0:0:0:
109,192,172079,1,0,0:0:0:0:
182,192,172133,1,0,0:0:0:0:
256,192,172187,1,0,0:0:0:0:
402,192,172241,1,0,0:0:0:0:
36,192,172241,1,0,0:0:0:0:
329,192,172241,1,0,0:0:0:0:
109,192,172322,1,0,0:0:0:0:
402,192,172403,1,0,0:0:0:0:
475,192,172403,1,0,0:0:0:0:
36,192,172403,1,0,0:0:0:0:
256,192,172403,1,0,0:0:0:0:
182,192,172484,1,0,0:0:0:0:
329,192,172566,1,0,0:0:0:0:
475,192,172566,1,0,0:0:0:0:
109,192,172566,1,0,0:0:0:0:
36,192,172566,1,0,0:0:0:0:
402,192,172647,1,0,0:0:0:0:
256,192,172647,1,0,0:0:0:0:
109,192,172728,1,0,0:0:0:0:
36,192,172728,1,0,0:0:0:0:
329,192,172728,1,0,0:0:0:0:
475,192,172728,1,0,0:0:0:0:
256,192,172809,1,0,0:0:0:0:
182,192,172809,1,0,0:0:0:0:
402,192,172890,1,0,0:0:0:0:
109,192,172890,1,0,0:0:0:0:
475,192,172890,1,0,0:0:0:0:
256,192,172971,1,0,0:0:0:0:
329,192,172971,1,0,0:0:0:0:
475,192,173052,1,0,0:0:0:0:
402,192,173052,1,0,0:0:0:0:
182,192,173052,1,0,0:0:0:0:
36,192,173052,1,0,0:0:0:0:
329,192,173133,1,0,0:0:0:0:
36,192,173214,1,0,0:0:0:0:
182,192,173214,1,0,0:0:0:0:
402,192,173214,1,0,0:0:0:0:
475,192,173214,1,0,0:0:0:0:
109,192,173295,1,0,0:0:0:0:
256,192,173295,1,0,0:0:0:0:
182,192,173376,1,0,0:0:0:0:
402,192,173376,1,0,0:0:0:0:
475,192,173376,1,0,0:0:0:0:
36,192,173376,1,0,0:0:0:0:
329,192,173457,1,0,0:0:0:0:
36,192,173539,1,0,0:0:0:0:
182,192,173539,1,0,0:0:0:0:
402,192,173539,1,0,0:0:0:0:
256,192,173620,1,0,0:0:0:0:
109,192,173701,1,0,0:0:0:0:
36,192,173701,1,0,0:0:0:0:
329,192,173701,1,0,0:0:0:0:
475,192,173701,1,0,0:0:0:0:
182,192,173782,1,0,0:0:0:0:
402,192,173782,1,0,0:0:0:0:
256,192,173863,1,0,0:0:0:0:
475,192,173863,1,0,0:0:0:0:
109,192,173944,1,0,0:0:0:0:
329,192,173944,1,0,0:0:0:0:
36,192,174025,1,0,0:0:0:0:
182,192,174025,1,0,0:0:0:0:
475,192,174025,1,0,0:0:0:0:
402,192,174025,1,0,0:0:0:0:
256,192,174106,1,0,0:0:0:0:
109,192,174106,1,0,0:0:0:0:
182,192,174187,1,0,0:0:0:0:
402,192,174187,1,0,0:0:0:0:
36,192,174187,1,0,0:0:0:0:
329,192,174268,1,0,0:0:0:0:
475,192,174349,1,0,0:0:0:0:
109,192,174349,1,0,0:0:0:0:
402,192,174349,1,0,0:0:0:0:
36,192,174349,1,0,0:0:0:0:
256,192,174430,1,0,0:0:0:0:
329,192,174511,1,0,0:0:0:0:
475,192,174511,1,0,0:0:0:0:
182,192,174511,1,0,0:0:0:0:
36,192,174511,1,0,0:0:0:0:
109,192,174593,1,0,0:0:0:0:
256,192,174593,1,0,0:0:0:0:
475,192,174674,1,0,0:0:0:0:
36,192,174674,1,0,0:0:0:0:
182,192,174674,1,0,0:0:0:0:
402,192,174674,1,0,0:0:0:0:
329,192,174755,1,0,0:0:0:0:
109,192,174836,1,0,0:0:0:0:
256,192,174836,1,0,0:0:0:0:
402,192,174836,1,0,0:0:0:0:
329,192,174917,1,0,0:0:0:0:
182,192,174998,1,0,0:0:0:0:
36,192,174998,1,0,0:0:0:0:
402,192,174998,1,0,0:0:0:0:
475,192,174998,1,0,0:0:0:0:
256,192,175052,1,0,0:0:0:0:
329,192,175106,1,0,0:0:0:0:
402,192,175160,1,0,0:0:0:0:
109,192,175160,1,0,0:0:0:0:
182,192,175160,1,0,0:0:0:0:
256,192,175214,1,0,0:0:0:0:
329,192,175268,1,0,0:0:0:0:
36,192,175322,1,0,0:0:0:0:
402,192,175322,1,0,0:0:0:0:
475,192,175322,1,0,0:0:0:0:
109,192,175322,1,0,0:0:0:0:
182,192,175403,1,0,0:0:0:0:
36,192,175484,1,0,0:0:0:0:
329,192,175484,1,0,0:0:0:0:
475,192,175484,1,0,0:0:0:0:
256,192,175484,1,0,0:0:0:0:
182,192,175566,1,0,0:0:0:0:
36,192,175647,1,0,0:0:0:0:
475,192,175647,1,0,0:0:0:0:
329,192,175647,1,0,0:0:0:0:
109,192,175647,1,0,0:0:0:0:
256,192,175728,1,0,0:0:0:0:
475,192,175809,1,0,0:0:0:0:
402,192,175809,1,0,0:0:0:0:
182,192,175809,1,0,0:0:0:0:
109,192,175890,1,0,0:0:0:0:
329,192,175890,1,0,0:0:0:0:
475,192,175971,1,0,0:0:0:0:
36,192,175971,1,0,0:0:0:0:
256,192,175971,1,0,0:0:0:0:
182,192,176052,1,0,0:0:0:0:
402,192,176052,1,0,0:0:0:0:
36,192,176133,1,0,0:0:0:0:
109,192,176133,1,0,0:0:0:0:
329,192,176133,1,0,0:0:0:0:
475,192,176214,1,0,0:0:0:0:
256,192,176214,1,0,0:0:0:0:
36,192,176295,1,0,0:0:0:0:
109,192,176295,1,0,0:0:0:0:
402,192,176295,1,0,0:0:0:0:
329,192,176295,1,0,0:0:0:0:
182,192,176376,1,0,0:0:0:0:
36,192,176457,1,0,0:0:0:0:
475,192,176457,1,0,0:0:0:0:
329,192,176457,1,0,0:0:0:0:
109,192,176539,1,0,0:0:0:0:
256,192,176539,1,0,0:0:0:0:
402,192,176620,1,0,0:0:0:0:
475,192,176620,1,0,0:0:0:0:
182,192,176620,1,0,0:0:0:0:
36,192,176620,1,0,0:0:0:0:
256,192,176701,1,0,0:0:0:0:
329,192,176701,1,0,0:0:0:0:
475,192,176782,1,0,0:0:0:0:
109,192,176782,1,0,0:0:0:0:
182,192,176782,1,0,0:0:0:0:
329,192,176863,1,0,0:0:0:0:
402,192,176863,1,0,0:0:0:0:
36,192,176944,1,0,0:0:0:0:
475,192,176944,1,0,0:0:0:0:
182,192,176944,1,0,0:0:0:0:
109,192,176944,1,0,0:0:0:0:
256,192,177025,1,0,0:0:0:0:
109,192,177106,1,0,0:0:0:0:
36,192,177106,1,0,0:0:0:0:
402,192,177106,1,0,0:0:0:0:
329,192,177106,1,0,0:0:0:0:
182,192,177187,1,0,0:0:0:0:
256,192,177187,1,0,0:0:0:0:
329,192,177268,1,0,0:0:0:0:
109,192,177268,1,0,0:0:0:0:
475,192,177268,1,0,0:0:0:0:
402,192,177268,1,0,0:0:0:0:
182,192,177349,1,0,0:0:0:0:
475,192,177430,1,0,0:0:0:0:
36,192,177430,1,0,0:0:0:0:
256,192,177430,1,0,0:0:0:0:
402,192,177430,1,0,0:0:0:0:
109,192,177511,1,0,0:0:0:0:
475,192,177593,1,0,0:0:0:0:
36,192,177593,1,0,0:0:0:0:
182,192,177593,1,0,0:0:0:0:
329,192,177593,1,0,0:0:0:0:
256,192,177674,1,0,0:0:0:0:
402,192,177755,1,0,0:0:0:0:
182,192,177755,1,0,0:0:0:0:
36,192,177755,1,0,0:0:0:0:
256,192,177836,1,0,0:0:0:0:
329,192,177836,1,0,0:0:0:0:
36,192,177917,1,0,0:0:0:0:
475,192,177917,1,0,0:0:0:0:
182,192,177917,1,0,0:0:0:0:
109,192,177917,1,0,0:0:0:0:
402,192,177998,1,0,0:0:0:0:
109,192,178079,1,0,0:0:0:0:
256,192,178079,1,0,0:0:0:0:
329,192,178079,1,0,0:0:0:0:
475,192,178160,1,0,0:0:0:0:
402,192,178160,1,0,0:0:0:0:
109,192,178241,1,0,0:0:0:0:
256,192,178241,1,0,0:0:0:0:
36,192,178241,1,0,0:0:0:0:
182,192,178241,1,0,0:0:0:0:
329,192,178322,1,0,0:0:0:0:
36,192,178403,1,0,0:0:0:0:
475,192,178403,1,0,0:0:0:0:
402,192,178403,1,0,0:0:0:0:
182,192,178403,1,0,0:0:0:0:
256,192,178484,1,0,0:0:0:0:
109,192,178566,1,0,0:0:0:0:
36,192,178566,1,0,0:0:0:0:
329,192,178566,1,0,0:0:0:0:
475,192,178566,1,0,0:0:0:0:
182,192,178647,1,0,0:0:0:0:
109,192,178728,1,0,0:0:0:0:
402,192,178728,1,0,0:0:0:0:
256,192,178728,1,0,0:0:0:0:
329,192,178809,1,0,0:0:0:0:
182,192,178890,1,0,0:0:0:0:
475,192,178890,1,0,0:0:0:0:
402,192,178890,1,0,0:0:0:0:
36,192,178890,1,0,0:0:0:0:
256,192,178971,1,0,0:0:0:0:
109,192,179052,1,0,0:0:0:0:
402,192,179052,1,0,0:0:0:0:
36,192,179052,1,0,0:0:0:0:
329,192,179133,1,0,0:0:0:0:
36,192,179214,1,0,0:0:0:0:
475,192,179214,1,0,0:0:0:0:
402,192,179214,1,0,0:0:0:0:
182,192,179214,1,0,0:0:0:0:
256,192,179295,1,0,0:0:0:0:
329,192,179376,1,0,0:0:0:0:
475,192,179376,1,0,0:0:0:0:
36,192,179376,1,0,0:0:0:0:
109,192,179376,1,0,0:0:0:0:
182,192,179457,1,0,0:0:0:0:
402,192,179539,1,0,0:0:0:0:
475,192,179539,1,0,0:0:0:0:
109,192,179539,1,0,0:0:0:0:
36,192,179539,1,0,0:0:0:0:
256,192,179620,1,0,0:0:0:0:
402,192,179701,1,0,0:0:0:0:
109,192,179701,1,0,0:0:0:0:
182,192,179701,1,0,0:0:0:0:
329,192,179782,1,0,0:0:0:0:
109,192,179863,1,0,0:0:0:0:
36,192,179863,1,0,0:0:0:0:
256,192,179863,1,0,0:0:0:0:
475,192,179863,1,0,0:0:0:0:
182,192,179944,1,0,0:0:0:0:
402,192,179944,1,0,0:0:0:0:
475,192,180025,1,0,0:0:0:0:
109,192,180025,1,0,0:0:0:0:
329,192,180025,1,0,0:0:0:0:
36,192,180106,1,0,0:0:0:0:
256,192,180106,1,0,0:0:0:0:
475,192,180187,1,0,0:0:0:0:
329,192,180187,1,0,0:0:0:0:
182,192,180187,1,0,0:0:0:0:
402,192,180187,1,0,0:0:0:0:
36,192,180268,1,0,0:0:0:0:
109,192,180268,1,0,0:0:0:0:
475,192,180349,1,0,0:0:0:0:
329,192,180349,1,0,0:0:0:0:
256,192,180349,1,0,0:0:0:0:
109,192,180430,1,0,0:0:0:0:
182,192,180430,1,0,0:0:0:0:
329,192,180511,1,0,0:0:0:0:
475,192,180511,1,0,0:0:0:0:
36,192,180511,1,0,0:0:0:0:
402,192,180511,1,0,0:0:0:0:
182,192,180593,1,0,0:0:0:0:
256,192,180593,1,0,0:0:0:0:
402,192,180674,1,0,0:0:0:0:
36,192,180674,1,0,0:0:0:0:
109,192,180674,1,0,0:0:0:0:
182,192,180755,1,0,0:0:0:0:
329,192,180755,1,0,0:0:0:0:
475,192,180836,1,0,0:0:0:0:
256,192,180836,1,0,0:0:0:0:
36,192,180836,1,0,0:0:0:0:
402,192,180836,1,0,0:0:0:0:
182,192,180917,1,0,0:0:0:0:
475,192,180998,1,0,0:0:0:0:
329,192,180998,1,0,0:0:0:0:
109,192,180998,1,0,0:0:0:0:
256,192,181079,1,0,0:0:0:0:
402,192,181160,1,0,0:0:0:0:
475,192,181160,1,0,0:0:0:0:
182,192,181160,1,0,0:0:0:0:
36,192,181160,1,0,0:0:0:0:
256,192,181241,1,0,0:0:0:0:
329,192,181241,1,0,0:0:0:0:
36,192,181322,1,0,0:0:0:0:
109,192,181322,1,0,0:0:0:0:
402,192,181322,1,0,0:0:0:0:
182,192,181403,1,0,0:0:0:0:
475,192,181484,1,0,0:0:0:0:
36,192,181484,1,0,0:0:0:0:
256,192,181484,1,0,0:0:0:0:
402,192,181484,1,0,0:0:0:0:
182,192,181566,1,0,0:0:0:0:
475,192,181647,1,0,0:0:0:0:
329,192,181647,1,0,0:0:0:0:
109,192,181647,1,0,0:0:0:0:
182,192,181728,1,0,0:0:0:0:
256,192,181728,1,0,0:0:0:0:
109,192,181809,1,0,0:0:0:0:
36,192,181809,1,0,0:0:0:0:
402,192,181809,1,0,0:0:0:0:
475,192,181809,1,0,0:0:0:0:
329,192,181890,1,0,0:0:0:0:
36,192,181971,1,0,0:0:0:0:
182,192,181971,1,0,0:0:0:0:
402,192,181971,1,0,0:0:0:0:
256,192,182052,1,0,0:0:0:0:
109,192,182133,1,0,0:0:0:0:
36,192,182133,1,0,0:0:0:0:
475,192,182133,1,0,0:0:0:0:
329,192,182133,1,0,0:0:0:0:
182,192,182214,1,0,0:0:0:0:
402,192,182295,1,0,0:0:0:0:
329,192,182295,1,0,0:0:0:0:
256,192,182295,1,0,0:0:0:0:
109,192,182376,1,0,0:0:0:0:
182,192,182376,1,0,0:0:0:0:
475,192,182457,1,0,0:0:0:0:
36,192,182457,1,0,0:0:0:0:
329,192,182457,1,0,0:0:0:0:
402,192,182457,1,0,0:0:0:0:
256,192,182539,1,0,0:0:0:0:
475,192,182620,1,0,0:0:0:0:
36,192,182620,1,0,0:0:0:0:
182,192,182620,1,0,0:0:0:0:
402,192,182701,1,0,0:0:0:0:
329,192,182701,1,0,0:0:0:0:
36,192,182782,1,0,0:0:0:0:
475,192,182782,1,0,0:0:0:0:
256,192,182782,1,0,0:0:0:0:
109,192,182782,1,0,0:0:0:0:
329,192,182863,1,0,0:0:0:0:
109,192,182944,1,0,0:0:0:0:
475,192,182944,1,0,0:0:0:0:
402,192,182944,1,0,0:0:0:0:
182,192,182944,1,0,0:0:0:0:
256,192,183025,1,0,0:0:0:0:
109,192,183106,1,0,0:0:0:0:
36,192,183106,1,0,0:0:0:0:
329,192,183106,1,0,0:0:0:0:
402,192,183106,1,0,0:0:0:0:
182,192,183187,1,0,0:0:0:0:
475,192,183268,1,0,0:0:0:0:
402,192,183268,1,0,0:0:0:0:
109,192,183268,1,0,0:0:0:0:
36,192,183268,1,0,0:0:0:0:
329,192,183349,1,0,0:0:0:0:
256,192,183349,1,0,0:0:0:0:
36,192,183430,1,0,0:0:0:0:
475,192,183430,1,0,0:0:0:0:
109,192,183430,1,0,0:0:0:0:
182,192,183430,1,0,0:0:0:0:
329,192,183511,1,0,0:0:0:0:
402,192,183593,1,0,0:0:0:0:
182,192,183593,1,0,0:0:0:0:
256,192,183674,1,0,0:0:0:0:
402,192,183755,1,0,0:0:0:0:
329,192,183755,1,0,0:0:0:0:
475,192,183755,1,0,0:0:0:0:
109,192,183755,1,0,0:0:0:0:
182,192,183755,1,0,0:0:0:0:
256,192,183836,1,0,0:0:0:0:
475,192,183917,1,0,0:0:0:0:
109,192,183917,1,0,0:0:0:0:
36,192,183917,1,0,0:0:0:0:
402,192,183917,1,0,0:0:0:0:
182,192,183998,1,0,0:0:0:0:
329,192,183998,1,0,0:0:0:0:
475,192,184079,1,0,0:0:0:0:
109,192,184079,1,0,0:0:0:0:
256,192,184079,1,0,0:0:0:0:
36,192,184079,1,0,0:0:0:0:
402,192,184160,1,0,0:0:0:0:
182,192,184160,1,0,0:0:0:0:
36,192,184241,1,0,0:0:0:0:
329,192,184241,1,0,0:0:0:0:
109,192,184241,1,0,0:0:0:0:
475,192,184322,1,0,0:0:0:0:
402,192,184322,1,0,0:0:0:0:
182,192,184403,1,0,0:0:0:0:
36,192,184403,1,0,0:0:0:0:
329,192,184403,1,0,0:0:0:0:
256,192,184403,1,0,0:0:0:0:
402,192,184484,1,0,0:0:0:0:
109,192,184566,1,0,0:0:0:0:
475,192,184566,1,0,0:0:0:0:
256,192,184566,1,0,0:0:0:0:
329,192,184647,1,0,0:0:0:0:
402,192,184728,1,0,0:0:0:0:
475,192,184728,1,0,0:0:0:0:
182,192,184728,1,0,0:0:0:0:
109,192,184728,1,0,0:0:0:0:
256,192,184809,1,0,0:0:0:0:
402,192,184890,1,0,0:0:0:0:
182,192,184890,1,0,0:0:0:0:
36,192,184890,1,0,0:0:0:0:
329,192,184971,1,0,0:0:0:0:
36,192,185052,1,0,0:0:0:0:
475,192,185052,1,0,0:0:0:0:
256,192,185052,1,0,0:0:0:0:
109,192,185052,1,0,0:0:0:0:
402,192,185133,1,0,0:0:0:0:
329,192,185133,1,0,0:0:0:0:
475,192,185214,1,0,0:0:0:0:
36,192,185214,1,0,0:0:0:0:
182,192,185214,1,0,0:0:0:0:
256,192,185295,1,0,0:0:0:0:
475,192,185376,1,0,0:0:0:0:
109,192,185376,1,0,0:0:0:0:
329,192,185376,1,0,0:0:0:0:
402,192,185376,1,0,0:0:0:0:
182,192,185457,1,0,0:0:0:0:
402,192,185539,1,0,0:0:0:0:
36,192,185539,1,0,0:0:0:0:
256,192,185539,1,0,0:0:0:0:
109,192,185620,1,0,0:0:0:0:
329,192,185701,1,0,0:0:0:0:
475,192,185701,1,0,0:0:0:0:
36,192,185701,1,0,0:0:0:0:
402,192,185701,1,0,0:0:0:0:
256,192,185782,1,0,0:0:0:0:
182,192,185782,1,0,0:0:0:0:
402,192,185863,1,0,0:0:0:0:
36,192,185863,1,0,0:0:0:0:
109,192,185863,1,0,0:0:0:0:
329,192,185944,1,0,0:0:0:0:
475,192,186025,1,0,0:0:0:0:
36,192,186025,1,0,0:0:0:0:
256,192,186025,1,0,0:0:0:0:
182,192,186025,1,0,0:0:0:0:
329,192,186106,1,0,0:0:0:0:
182,192,186187,1,0,0:0:0:0:
109,192,186187,1,0,0:0:0:0:
475,192,186187,1,0,0:0:0:0:
402,192,186187,1,0,0:0:0:0:
256,192,186268,1,0,0:0:0:0:
109,192,186349,1,0,0:0:0:0:
36,192,186349,1,0,0:0:0:0:
475,192,186349,1,0,0:0:0:0:
329,192,186349,1,0,0:0:0:0:
182,192,186430,1,0,0:0:0:0:
256,192,186511,1,0,0:0:0:0:
36,192,186511,1,0,0:0:0:0:
475,192,186511,1,0,0:0:0:0:
329,192,186593,1,0,0:0:0:0:
109,192,186674,1,0,0:0:0:0:
36,192,186674,1,0,0:0:0:0:
402,192,186674,1,0,0:0:0:0:
182,192,186674,1,0,0:0:0:0:
329,192,186755,1,0,0:0:0:0:
109,192,186836,1,0,0:0:0:0:
182,192,186836,1,0,0:0:0:0:
475,192,186836,1,0,0:0:0:0:
329,192,186917,1,0,0:0:0:0:
109,192,186998,1,0,0:0:0:0:
36,192,186998,1,0,0:0:0:0:
475,192,186998,1,0,0:0:0:0:
402,192,186998,1,0,0:0:0:0:
256,192,187079,1,0,0:0:0:0:
182,192,187079,1,0,0:0:0:0:
36,192,187160,1,0,0:0:0:0:
329,192,187160,1,0,0:0:0:0:
475,192,187160,1,0,0:0:0:0:
182,192,187241,1,0,0:0:0:0:
109,192,187241,1,0,0:0:0:0:
475,192,187322,1,0,0:0:0:0:
329,192,187322,1,0,0:0:0:0:
402,192,187322,1,0,0:0:0:0:
36,192,187322,1,0,0:0:0:0:
256,192,187322,1,0,0:0:0:0:
182,192,187403,1,0,0:0:0:0:
329,192,187484,1,0,0:0:0:0:
109,192,187484,1,0,0:0:0:0:
402,192,187484,1,0,0:0:0:0:
256,192,187566,1,0,0:0:0:0:
475,192,187647,1,0,0:0:0:0:
402,192,187647,1,0,0:0:0:0:
36,192,187647,1,0,0:0:0:0:
182,192,187647,1,0,0:0:0:0:
329,192,187728,1,0,0:0:0:0:
109,192,187728,1,0,0:0:0:0:
475,192,187809,1,0,0:0:0:0:
402,192,187809,1,0,0:0:0:0:
36,192,187809,1,0,0:0:0:0:
256,192,187809,1,0,0:0:0:0:
182,192,187890,1,0,0:0:0:0:
36,192,187971,1,0,0:0:0:0:
109,192,187971,1,0,0:0:0:0:
475,192,187971,1,0,0:0:0:0:
329,192,187971,1,0,0:0:0:0:
256,192,188052,1,0,0:0:0:0:
402,192,188052,1,0,0:0:0:0:
182,192,188133,1,0,0:0:0:0:
329,192,188133,1,0,0:0:0:0:
109,192,188133,1,0,0:0:0:0:
36,192,188133,1,0,0:0:0:0:
402,192,188214,1,0,0:0:0:0:
475,192,188214,1,0,0:0:0:0:
109,192,188295,1,0,0:0:0:0:
36,192,188295,1,0,0:0:0:0:
329,192,188295,1,0,0:0:0:0:
256,192,188295,1,0,0:0:0:0:
182,192,188376,1,0,0:0:0:0:
402,192,188376,1,0,0:0:0:0:
475,192,188457,1,0,0:0:0:0:
256,192,188457,1,0,0:0:0:0:
36,192,188457,1,0,0:0:0:0:
109,192,188539,1,0,0:0:0:0:
329,192,188539,1,0,0:0:0:0:
36,192,188620,1,0,0:0:0:0:
182,192,188620,1,0,0:0:0:0:
402,192,188620,1,0,0:0:0:0:
475,192,188620,1,0,0:0:0:0:
329,192,188701,1,0,0:0:0:0:
256,192,188701,1,0,0:0:0:0:
475,192,188782,1,0,0:0:0:0:
182,192,188782,1,0,0:0:0:0:
109,192,188782,1,0,0:0:0:0:
329,192,188863,1,0,0:0:0:0:
402,192,188863,1,0,0:0:0:0:
36,192,188944,1,0,0:0:0:0:
109,192,188944,1,0,0:0:0:0:
256,192,188944,1,0,0:0:0:0:
182,192,188944,1,0,0:0:0:0:
475,192,189025,1,0,0:0:0:0:
402,192,189025,1,0,0:0:0:0:
182,192,189106,1,0,0:0:0:0:
109,192,189106,1,0,0:0:0:0:
36,192,189106,1,0,0:0:0:0:
329,192,189187,1,0,0:0:0:0:
256,192,189187,1,0,0:0:0:0:
475,192,189268,1,0,0:0:0:0:
109,192,189268,1,0,0:0:0:0:
36,192,189268,1,0,0:0:0:0:
402,192,189268,1,0,0:0:0:0:
256,192,189349,1,0,0:0:0:0:
182,192,189349,1,0,0:0:0:0:
402,192,189430,1,0,0:0:0:0:
475,192,189430,1,0,0:0:0:0:
329,192,189430,1,0,0:0:0:0:
36,192,189430,1,0,0:0:0:0:
182,192,189511,1,0,0:0:0:0:
109,192,189511,1,0,0:0:0:0:
256,192,189593,1,0,0:0:0:0:
475,192,189593,1,0,0:0:0:0:
402,192,189593,1,0,0:0:0:0:
36,192,189593,1,0,0:0:0:0:
109,192,189674,1,0,0:0:0:0:
182,192,189674,1,0,0:0:0:0:
329,192,189674,1,0,0:0:0:0:
475,192,189755,1,0,0:0:0:0:
36,192,189755,1,0,0:0:0:0:
256,192,189755,1,0,0:0:0:0:
402,192,189836,1,0,0:0:0:0:
182,192,189836,1,0,0:0:0:0:
475,192,189917,1,0,0:0:0:0:
36,192,189917,1,0,0:0:0:0:
109,192,189917,1,0,0:0:0:0:
329,192,189917,1,0,0:0:0:0:
402,192,189998,1,0,0:0:0:0:
256,192,189998,1,0,0:0:0:0:
182,192,190079,1,0,0:0:0:0:
329,192,190079,1,0,0:0:0:0:
256,192,190160,1,0,0:0:0:0:
109,192,190160,1,0,0:0:0:0:
36,192,190241,1,0,0:0:0:0:
182,192,190241,1,0,0:0:0:0:
329,192,190241,1,0,0:0:0:0:
475,192,190241,1,0,0:0:0:0:
256,192,190322,1,0,0:0:0:0:
109,192,190322,1,0,0:0:0:0:
329,192,190403,1,0,0:0:0:0:
182,192,190403,1,0,0:0:0:0:
256,192,190484,1,0,0:0:0:0:
402,192,190484,1,0,0:0:0:0:
329,192,190566,1,0,0:0:0:0:
36,192,190566,1,0,0:0:0:0:
182,192,190566,1,0,0:0:0:0:
475,192,190606,1,0,0:0:0:0:
256,192,190647,1,0,0:0:0:0:
402,192,190687,1,0,0:0:0:0:
182,192,190728,1,0,0:0:0:0:
329,192,190768,1,0,0:0:0:0:
109,192,190809,1,0,0:0:0:0:
256,192,190849,1,0,0:0:0:0:
475,192,190890,1,0,0:0:0:0:
36,192,190890,1,0,0:0:0:0:
329,192,190971,1,0,0:0:0:0:
402,192,190971,1,0,0:0:0:0:
109,192,191052,1,0,0:0:0:0:
182,192,191052,1,0,0:0:0:0:
256,192,191093,1,0,0:0:0:0:
402,192,191133,1,0,0:0:0:0:
329,192,191133,1,0,0:0:0:0:
475,192,191214,1,0,0:0:0:0:
182,192,191214,1,0,0:0:0:0:
36,192,191214,1,0,0:0:0:0:
109,192,191214,1,0,0:0:0:0:
256,192,191295,1,0,0:0:0:0:
402,192,191376,1,0,0:0:0:0:
109,192,191376,1,0,0:0:0:0:
329,192,191457,1,0,0:0:0:0:
182,192,191539,1,0,0:0:0:0:
475,192,191539,1,0,0:0:0:0:
36,192,191539,1,0,0:0:0:0:
256,192,191620,1,0,0:0:0:0:
109,192,191701,1,0,0:0:0:0:
329,192,191701,1,0,0:0:0:0:
182,192,191782,1,0,0:0:0:0:
402,192,191782,1,0,0:0:0:0:
256,192,191863,1,0,0:0:0:0:
475,192,191863,1,0,0:0:0:0:
36,192,191863,1,0,0:0:0:0:
109,192,191944,1,0,0:0:0:0:
402,192,191944,1,0,0:0:0:0:
182,192,192025,1,0,0:0:0:0:
329,192,192025,1,0,0:0:0:0:
256,192,192106,1,0,0:0:0:0:
109,192,192106,1,0,0:0:0:0:
182,192,192187,1,0,0:0:0:0:
36,192,192187,1,0,0:0:0:0:
402,192,192187,1,0,0:0:0:0:
329,192,192268,1,0,0:0:0:0:
475,192,192268,1,0,0:0:0:0:
256,192,192349,1,0,0:0:0:0:
109,192,192349,1,0,0:0:0:0:
182,192,192430,1,0,0:0:0:0:
402,192,192430,1,0,0:0:0:0:
329,192,192511,1,0,0:0:0:0:
475,192,192511,1,0,0:0:0:0:
36,192,192511,1,0,0:0:0:0:
109,192,192511,1,0,0:0:0:0:
256,192,192593,1,0,0:0:0:0:
182,192,192593,1,0,0:0:0:0:
109,192,192674,1,0,0:0:0:0:
402,192,192674,1,0,0:0:0:0:
329,192,192755,1,0,0:0:0:0:
256,192,192755,1,0,0:0:0:0:
475,192,192836,1,0,0:0:0:0:
402,192,192836,1,0,0:0:0:0:
182,192,192836,1,0,0:0:0:0:
329,192,192890,1,0,0:0:0:0:
109,192,192890,1,0,0:0:0:0:
256,192,192944,1,0,0:0:0:0:
36,192,192944,1,0,0:0:0:0:
182,192,192998,1,0,0:0:0:0:
402,192,192998,1,0,0:0:0:0:
109,192,193052,1,0,0:0:0:0:
329,192,193052,1,0,0:0:0:0:
256,192,193106,1,0,0:0:0:0:
475,192,193106,1,0,0:0:0:0:
36,192,193160,1,0,0:0:0:0:
402,192,193160,1,0,0:0:0:0:
182,192,193160,1,0,0:0:0:0:
109,192,193241,1,0,0:0:0:0:
329,192,193241,1,0,0:0:0:0:
256,192,193322,1,0,0:0:0:0:
402,192,193322,1,0,0:0:0:0:
109,192,193403,1,0,0:0:0:0:
329,192,193403,1,0,0:0:0:0:
182,192,193484,1,0,0:0:0:0:
36,192,193484,1,0,0:0:0:0:
475,192,193484,1,0,0:0:0:0:
256,192,193566,1,0,0:0:0:0:
109,192,193647,1,0,0:0:0:0:
475,192,193647,1,0,0:0:0:0:
402,192,193687,1,0,0:0:0:0:
329,192,193728,1,0,0:0:0:0:
256,192,193809,1,0,0:0:0:0:
475,192,193809,1,0,0:0:0:0:
36,192,193809,1,0,0:0:0:0:
182,192,193809,1,0,0:0:0:0:
329,192,193890,1,0,0:0:0:0:
402,192,193971,1,0,0:0:0:0:
182,192,193971,1,0,0:0:0:0:
256,192,194052,1,0,0:0:0:0:
329,192,194133,1,0,0:0:0:0:
475,192,194133,1,0,0:0:0:0:
36,192,194133,1,0,0:0:0:0:
182,192,194214,1,0,0:0:0:0:
256,192,194295,1,0,0:0:0:0:
402,192,194295,1,0,0:0:0:0:
329,192,194376,1,0,0:0:0:0:
182,192,194376,1,0,0:0:0:0:
256,192,194457,1,0,0:0:0:0:
109,192,194457,1,0,0:0:0:0:
36,192,194457,1,0,0:0:0:0:
475,192,194457,1,0,0:0:0:0:
329,192,194539,1,0,0:0:0:0:
402,192,194539,1,0,0:0:0:0:
182,192,194620,1,0,0:0:0:0:
109,192,194620,1,0,0:0:0:0:
256,192,194701,1,0,0:0:0:0:
329,192,194701,1,0,0:0:0:0:
402,192,194782,1,0,0:0:0:0:
475,192,194782,1,0,0:0:0:0:
36,192,194782,1,0,0:0:0:0:
109,192,194863,1,0,0:0:0:0:
182,192,194863,1,0,0:0:0:0:
402,192,194944,1,0,0:0:0:0:
329,192,194944,1,0,0:0:0:0:
256,192,195025,1,0,0:0:0:0:
182,192,195025,1,0,0:0:0:0:
109,192,195106,1,0,0:0:0:0:
36,192,195106,1,0,0:0:0:0:
475,192,195106,1,0,0:0:0:0:
402,192,195106,1,0,0:0:0:0:
329,192,195187,1,0,0:0:0:0:
256,192,195268,1,0,0:0:0:0:
109,192,195268,1,0,0:0:0:0:
182,192,195349,1,0,0:0:0:0:
402,192,195349,1,0,0:0:0:0:
329,192,195430,1,0,0:0:0:0:
475,192,195430,1,0,0:0:0:0:
36,192,195430,1,0,0:0:0:0:
256,192,195511,1,0,0:0:0:0:
402,192,195511,1,0,0:0:0:0:
329,192,195593,1,0,0:0:0:0:
182,192,195593,1,0,0:0:0:0:
109,192,195633,1,0,0:0:0:0:
36,192,195674,1,0,0:0:0:0:
182,192,195755,1,0,0:0:0:0:
256,192,195755,1,0,0:0:0:0:
402,192,195755,1,0,0:0:0:0:
475,192,195755,1,0,0:0:0:0:
109,192,195836,1,0,0:0:0:0:
329,192,195917,1,0,0:0:0:0:
402,192,195917,1,0,0:0:0:0:
256,192,195957,1,0,0:0:0:0:
182,192,195998,1,0,0:0:0:0:
109,192,196079,1,0,0:0:0:0:
36,192,196079,1,0,0:0:0:0:
329,192,196079,1,0,0:0:0:0:
256,192,196160,1,0,0:0:0:0:
182,192,196241,1,0,0:0:0:0:
402,192,196241,1,0,0:0:0:0:
475,192,196241,1,0,0:0:0:0:
329,192,196322,1,0,0:0:0:0:
109,192,196403,1,0,0:0:0:0:
36,192,196403,1,0,0:0:0:0:
182,192,196403,1,0,0:0:0:0:
256,192,196444,1,0,0:0:0:0:
329,192,196484,1,0,0:0:0:0:
402,192,196525,1,0,0:0:0:0:
109,192,196566,1,0,0:0:0:0:
475,192,196566,1,0,0:0:0:0:
182,192,196606,1,0,0:0:0:0:
256,192,196647,1,0,0:0:0:0:
329,192,196687,1,0,0:0:0:0:
475,192,196728,1,0,0:0:0:0:
36,192,196728,1,0,0:0:0:0:
109,192,196728,1,0,0:0:0:0:
256,192,196809,1,0,0:0:0:0:
182,192,196890,1,0,0:0:0:0:
109,192,196890,1,0,0:0:0:0:
329,192,196971,1,0,0:0:0:0:
402,192,196971,1,0,0:0:0:0:
256,192,197052,1,0,0:0:0:0:
36,192,197052,1,0,0:0:0:0:
182,192,197052,1,0,0:0:0:0:
402,192,197133,1,0,0:0:0:0:
182,192,197214,1,0,0:0:0:0:
109,192,197214,1,0,0:0:0:0:
256,192,197295,1,0,0:0:0:0:
329,192,197295,1,0,0:0:0:0:
402,192,197376,1,0,0:0:0:0:
475,192,197376,1,0,0:0:0:0:
36,192,197376,1,0,0:0:0:0:
182,192,197457,1,0,0:0:0:0:
329,192,197539,1,0,0:0:0:0:
475,192,197539,1,0,0:0:0:0:
256,192,197579,1,0,0:0:0:0:
182,192,197620,1,0,0:0:0:0:
109,192,197701,1,0,0:0:0:0:
36,192,197701,1,0,0:0:0:0:
402,192,197701,1,0,0:0:0:0:
475,192,197701,1,0,0:0:0:0:
329,192,197782,1,0,0:0:0:0:
256,192,197863,1,0,0:0:0:0:
182,192,197863,1,0,0:0:0:0:
109,192,197944,1,0,0:0:0:0:
36,192,197944,1,0,0:0:0:0:
256,192,198025,1,0,0:0:0:0:
402,192,198025,1,0,0:0:0:0:
475,192,198025,1,0,0:0:0:0:
329,192,198106,1,0,0:0:0:0:
182,192,198106,1,0,0:0:0:0:
256,192,198187,1,0,0:0:0:0:
109,192,198187,1,0,0:0:0:0:
329,192,198268,1,0,0:0:0:0:
182,192,198268,1,0,0:0:0:0:
256,192,198349,1,0,0:0:0:0:
36,192,198349,1,0,0:0:0:0:
109,192,198349,1,0,0:0:0:0:
475,192,198349,1,0,0:0:0:0:
329,192,198430,1,0,0:0:0:0:
402,192,198430,1,0,0:0:0:0:
256,192,198511,1,0,0:0:0:0:
109,192,198511,1,0,0:0:0:0:
36,192,198593,1,0,0:0:0:0:
182,192,198674,1,0,0:0:0:0:
329,192,198674,1,0,0:0:0:0:
475,192,198674,1,0,0:0:0:0:
256,192,198755,1,0,0:0:0:0:
109,192,198755,1,0,0:0:0:0:
182,192,198836,1,0,0:0:0:0:
36,192,198836,1,0,0:0:0:0:
329,192,198917,1,0,0:0:0:0:
475,192,198917,1,0,0:0:0:0:
256,192,198998,1,0,0:0:0:0:
109,192,198998,1,0,0:0:0:0:
36,192,198998,1,0,0:0:0:0:
182,192,198998,1,0,0:0:0:0:
402,192,199079,1,0,0:0:0:0:
256,192,199160,1,0,0:0:0:0:
182,192,199160,1,0,0:0:0:0:
329,192,199241,1,0,0:0:0:0:
109,192,199322,1,0,0:0:0:0:
36,192,199322,1,0,0:0:0:0:
402,192,199322,1,0,0:0:0:0:
182,192,199363,1,0,0:0:0:0:
256,192,199403,1,0,0:0:0:0:
329,192,199484,1,0,0:0:0:0:
475,192,199484,1,0,0:0:0:0:
182,192,199566,1,0,0:0:0:0:
256,192,199647,1,0,0:0:0:0:
402,192,199647,1,0,0:0:0:0:
475,192,199647,1,0,0:0:0:0:
109,192,199687,1,0,0:0:0:0:
329,192,199728,1,0,0:0:0:0:
182,192,199768,1,0,0:0:0:0:
402,192,199809,1,0,0:0:0:0:
256,192,199849,1,0,0:0:0:0:
475,192,199890,1,0,0:0:0:0:
329,192,199930,1,0,0:0:0:0:
182,192,199971,1,0,0:0:0:0:
109,192,199971,1,0,0:0:0:0:
36,192,199971,1,0,0:0:0:0:
256,192,200052,1,0,0:0:0:0:
329,192,200133,1,0,0:0:0:0:
402,192,200133,1,0,0:0:0:0:
256,192,200214,1,0,0:0:0:0:
109,192,200214,1,0,0:0:0:0:
182,192,200295,1,0,0:0:0:0:
36,192,200295,1,0,0:0:0:0:
475,192,200295,1,0,0:0:0:0:
402,192,200295,1,0,0:0:0:0:
329,192,200376,1,0,0:0:0:0:
182,192,200457,1,0,0:0:0:0:
109,192,200457,1,0,0:0:0:0:
109,192,200539,1,0,0:0:0:0:
182,192,200539,1,0,0:0:0:0:
36,192,200620,1,0,0:0:0:0:
402,192,200620,1,0,0:0:0:0:
475,192,200620,1,0,0:0:0:0:
475,192,200701,1,0,0:0:0:0:
402,192,200701,1,0,0:0:0:0:
329,192,200782,1,0,0:0:0:0:
182,192,200782,1,0,0:0:0:0:
182,192,200863,1,0,0:0:0:0:
329,192,200863,1,0,0:0:0:0:
256,192,200944,1,0,0:0:0:0:
36,192,200944,1,0,0:0:0:0:
109,192,200944,1,0,0:0:0:0:
182,192,201025,1,0,0:0:0:0:
402,192,201025,1,0,0:0:0:0:
109,192,201106,1,0,0:0:0:0:
329,192,201106,1,0,0:0:0:0:
256,192,201187,1,0,0:0:0:0:
475,192,201187,1,0,0:0:0:0:
182,192,201268,1,0,0:0:0:0:
36,192,201268,1,0,0:0:0:0:
402,192,201268,1,0,0:0:0:0:
329,192,201349,1,0,0:0:0:0:
109,192,201349,1,0,0:0:0:0:
256,192,201430,1,0,0:0:0:0:
475,192,201430,1,0,0:0:0:0:
402,192,201430,1,0,0:0:0:0:
329,192,201511,1,0,0:0:0:0:
182,192,201511,1,0,0:0:0:0:
256,192,201593,1,0,0:0:0:0:
109,192,201593,1,0,0:0:0:0:
36,192,201593,1,0,0:0:0:0:
475,192,201593,1,0,0:0:0:0:
329,192,201674,1,0,0:0:0:0:
402,192,201755,1,0,0:0:0:0:
109,192,201755,1,0,0:0:0:0:
182,192,201755,1,0,0:0:0:0:
256,192,201836,1,0,0:0:0:0:
475,192,201836,1,0,0:0:0:0:
109,192,201917,1,0,0:0:0:0:
36,192,201917,1,0,0:0:0:0:
329,192,201917,1,0,0:0:0:0:
402,192,201917,1,0,0:0:0:0:
182,192,201998,1,0,0:0:0:0:
109,192,202079,1,0,0:0:0:0:
329,192,202079,1,0,0:0:0:0:
402,192,202079,1,0,0:0:0:0:
256,192,202160,1,0,0:0:0:0:
182,192,202241,1,0,0:0:0:0:
36,192,202241,1,0,0:0:0:0:
402,192,202241,1,0,0:0:0:0:
475,192,202241,1,0,0:0:0:0:
329,192,202322,1,0,0:0:0:0:
109,192,202322,1,0,0:0:0:0:
256,192,202403,1,0,0:0:0:0:
36,192,202403,1,0,0:0:0:0:
475,192,202403,1,0,0:0:0:0:
402,192,202484,1,0,0:0:0:0:
182,192,202484,1,0,0:0:0:0:
329,192,202484,1,0,0:0:0:0:
256,192,202566,1,0,0:0:0:0:
109,192,202566,1,0,0:0:0:0:
36,192,202566,1,0,0:0:0:0:
182,192,202647,1,0,0:0:0:0:
475,192,202647,1,0,0:0:0:0:
402,192,202728,1,0,0:0:0:0:
329,192,202728,1,0,0:0:0:0:
109,192,202728,1,0,0:0:0:0:
36,192,202728,1,0,0:0:0:0:
402,192,202890,1,0,0:0:0:0:
475,192,202890,1,0,0:0:0:0:
329,192,202890,1,0,0:0:0:0:
182,192,202890,1,0,0:0:0:0:
256,192,202971,1,0,0:0:0:0:
109,192,203052,1,0,0:0:0:0:
36,192,203052,1,0,0:0:0:0:
329,192,203052,1,0,0:0:0:0:
182,192,203133,1,0,0:0:0:0:
109,192,203214,1,0,0:0:0:0:
36,192,203214,1,0,0:0:0:0:
475,192,203214,1,0,0:0:0:0:
256,192,203214,1,0,0:0:0:0:
402,192,203376,1,0,0:0:0:0:
475,192,203376,1,0,0:0:0:0:
182,192,203376,1,0,0:0:0:0:
256,192,203457,1,0,0:0:0:0:
109,192,203539,1,0,0:0:0:0:
36,192,203539,1,0,0:0:0:0:
329,192,203539,1,0,0:0:0:0:
475,192,203539,1,0,0:0:0:0:
182,192,203620,1,0,0:0:0:0:
109,192,203701,1,0,0:0:0:0:
36,192,203701,1,0,0:0:0:0:
402,192,203701,1,0,0:0:0:0:
329,192,203782,1,0,0:0:0:0:
402,192,203863,1,0,0:0:0:0:
475,192,203863,1,0,0:0:0:0:
109,192,203863,1,0,0:0:0:0:
256,192,203863,1,0,0:0:0:0:
182,192,204025,1,0,0:0:0:0:
329,192,204025,1,0,0:0:0:0:
109,192,204025,1,0,0:0:0:0:
36,192,204106,1,0,0:0:0:0:
256,192,204187,1,0,0:0:0:0:
402,192,204187,1,0,0:0:0:0:
475,192,204187,1,0,0:0:0:0:
182,192,204187,1,0,0:0:0:0:
109,192,204268,1,0,0:0:0:0:
182,192,204349,1,0,0:0:0:0:
329,192,204349,1,0,0:0:0:0:
109,192,204430,1,0,0:0:0:0:
256,192,204511,1,0,0:0:0:0:
402,192,204511,1,0,0:0:0:0:
475,192,204511,1,0,0:0:0:0:
109,192,204674,1,0,0:0:0:0:
182,192,204674,1,0,0:0:0:0:
109,192,204755,1,0,0:0:0:0:
182,192,204755,1,0,0:0:0:0:
256,192,204836,1,0,0:0:0:0:
402,192,204836,1,0,0:0:0:0:
475,192,204836,1,0,0:0:0:0:
36,192,204836,1,0,0:0:0:0:
182,192,204917,1,0,0:0:0:0:
109,192,204998,1,0,0:0:0:0:
329,192,204998,1,0,0:0:0:0:
402,192,205079,1,0,0:0:0:0:
475,192,205079,1,0,0:0:0:0:
256,192,205160,1,0,0:0:0:0:
182,192,205160,1,0,0:0:0:0:
109,192,205160,1,0,0:0:0:0:
36,192,205160,1,0,0:0:0:0:
182,192,205322,1,0,0:0:0:0:
329,192,205322,1,0,0:0:0:0:
402,192,205322,1,0,0:0:0:0:
256,192,205484,1,0,0:0:0:0:
402,192,205484,1,0,0:0:0:0:
475,192,205484,1,0,0:0:0:0:
36,192,205484,1,0,0:0:0:0:
182,192,205647,1,0,0:0:0:0:
329,192,205647,1,0,0:0:0:0:
109,192,205728,1,0,0:0:0:0:
36,192,205728,1,0,0:0:0:0:
256,192,205809,1,0,0:0:0:0:
475,192,205809,1,0,0:0:0:0:
402,192,205809,1,0,0:0:0:0:
182,192,205890,1,0,0:0:0:0:
109,192,205890,1,0,0:0:0:0:
329,192,205971,1,0,0:0:0:0:
402,192,205971,1,0,0:0:0:0:
475,192,205971,1,0,0:0:0:0:
182,192,206052,1,0,0:0:0:0:
109,192,206052,1,0,0:0:0:0:
256,192,206133,1,0,0:0:0:0:
36,192,206133,1,0,0:0:0:0:
402,192,206133,1,0,0:0:0:0:
475,192,206133,1,0,0:0:0:0:
109,192,206295,1,0,0:0:0:0:
182,192,206295,1,0,0:0:0:0:
256,192,206376,1,0,0:0:0:0:
329,192,206376,1,0,0:0:0:0:
402,192,206457,1,0,0:0:0:0:
475,192,206457,1,0,0:0:0:0:
109,192,206457,1,0,0:0:0:0:
36,192,206457,1,0,0:0:0:0:
109,192,206620,1,0,0:0:0:0:
256,192,206620,1,0,0:0:0:0:
402,192,206620,1,0,0:0:0:0:
182,192,206782,1,0,0:0:0:0:
475,192,206782,1,0,0:0:0:0:
36,192,206782,1,0,0:0:0:0:
329,192,206782,1,0,0:0:0:0:
256,192,206863,1,0,0:0:0:0:
182,192,206944,1,0,0:0:0:0:
109,192,206944,1,0,0:0:0:0:
402,192,206944,1,0,0:0:0:0:
329,192,207025,1,0,0:0:0:0:
256,192,207106,1,0,0:0:0:0:
402,192,207106,1,0,0:0:0:0:
475,192,207106,1,0,0:0:0:0:
36,192,207106,1,0,0:0:0:0:
182,192,207187,1,0,0:0:0:0:
36,192,207268,1,0,0:0:0:0:
329,192,207268,1,0,0:0:0:0:
402,192,207268,1,0,0:0:0:0:
256,192,207349,1,0,0:0:0:0:
182,192,207430,1,0,0:0:0:0:
109,192,207430,1,0,0:0:0:0:
36,192,207430,1,0,0:0:0:0:
475,192,207430,1,0,0:0:0:0:
329,192,207511,1,0,0:0:0:0:
402,192,207593,1,0,0:0:0:0:
182,192,207593,1,0,0:0:0:0:
109,192,207593,1,0,0:0:0:0:
256,192,207674,1,0,0:0:0:0:
475,192,207674,1,0,0:0:0:0:
329,192,207755,1,0,0:0:0:0:
36,192,207755,1,0,0:0:0:0:
109,192,207755,1,0,0:0:0:0:
402,192,207755,1,0,0:0:0:0:
182,192,207836,1,0,0:0:0:0:
256,192,207836,1,0,0:0:0:0:
109,192,207917,1,0,0:0:0:0:
402,192,207917,1,0,0:0:0:0:
475,192,207917,1,0,0:0:0:0:
329,192,207998,1,0,0:0:0:0:
256,192,207998,1,0,0:0:0:0:
182,192,208079,1,0,0:0:0:0:
36,192,208079,1,0,0:0:0:0:
402,192,208079,1,0,0:0:0:0:
475,192,208079,1,0,0:0:0:0:
256,192,208160,1,0,0:0:0:0:
36,192,208241,1,0,0:0:0:0:
329,192,208241,1,0,0:0:0:0:
109,192,208241,1,0,0:0:0:0:
182,192,208322,1,0,0:0:0:0:
256,192,208403,1,0,0:0:0:0:
402,192,208403,1,0,0:0:0:0:
475,192,208403,1,0,0:0:0:0:
109,192,208403,1,0,0:0:0:0:
182,192,208484,1,0,0:0:0:0:
329,192,208566,1,0,0:0:0:0:
402,192,208566,1,0,0:0:0:0:
36,192,208566,1,0,0:0:0:0:
256,192,208647,1,0,0:0:0:0:
329,192,208728,1,0,0:0:0:0:
36,192,208728,1,0,0:0:0:0:
475,192,208728,1,0,0:0:0:0:
109,192,208728,1,0,0:0:0:0:
256,192,208809,1,0,0:0:0:0:
182,192,208890,1,0,0:0:0:0:
402,192,208890,1,0,0:0:0:0:
475,192,208890,1,0,0:0:0:0:
329,192,208971,1,0,0:0:0:0:
109,192,208971,1,0,0:0:0:0:
402,192,209052,1,0,0:0:0:0:
475,192,209052,1,0,0:0:0:0:
36,192,209052,1,0,0:0:0:0:
256,192,209052,1,0,0:0:0:0:
182,192,209133,1,0,0:0:0:0:
329,192,209214,1,0,0:0:0:0:
109,192,209214,1,0,0:0:0:0:
402,192,209214,1,0,0:0:0:0:
256,192,209295,1,0,0:0:0:0:
475,192,209376,1,0,0:0:0:0:
402,192,209376,1,0,0:0:0:0:
182,192,209376,1,0,0:0:0:0:
36,192,209376,1,0,0:0:0:0:
109,192,209457,1,0,0:0:0:0:
329,192,209457,1,0,0:0:0:0:
256,192,209539,1,0,0:0:0:0:
475,192,209539,1,0,0:0:0:0:
36,192,209539,1,0,0:0:0:0:
182,192,209620,1,0,0:0:0:0:
329,192,209620,1,0,0:0:0:0:
256,192,209701,1,0,0:0:0:0:
475,192,209701,1,0,0:0:0:0:
402,192,209701,1,0,0:0:0:0:
109,192,209701,1,0,0:0:0:0:
36,192,209782,1,0,0:0:0:0:
329,192,209782,1,0,0:0:0:0:
182,192,209782,1,0,0:0:0:0:
109,192,209863,1,0,0:0:0:0:
402,192,209863,1,0,0:0:0:0:
256,192,209863,1,0,0:0:0:0:
182,192,209944,1,0,0:0:0:0:
329,192,209944,1,0,0:0:0:0:
256,192,210025,1,0,0:0:0:0:
402,192,210025,1,0,0:0:0:0:
475,192,210025,1,0,0:0:0:0:
36,192,210025,1,0,0:0:0:0:
109,192,210106,1,0,0:0:0:0:
329,192,210106,1,0,0:0:0:0:
256,192,210187,1,0,0:0:0:0:
36,192,210187,1,0,0:0:0:0:
475,192,210187,1,0,0:0:0:0:
402,192,210268,1,0,0:0:0:0:
182,192,210268,1,0,0:0:0:0:
329,192,210349,1,0,0:0:0:0:
475,192,210349,1,0,0:0:0:0:
109,192,210349,1,0,0:0:0:0:
36,192,210349,1,0,0:0:0:0:
256,192,210430,1,0,0:0:0:0:
402,192,210430,1,0,0:0:0:0:
109,192,210511,1,0,0:0:0:0:
182,192,210511,1,0,0:0:0:0:
329,192,210511,1,0,0:0:0:0:
256,192,210593,1,0,0:0:0:0:
402,192,210593,1,0,0:0:0:0:
109,192,210674,1,0,0:0:0:0:
36,192,210674,1,0,0:0:0:0:
475,192,210674,1,0,0:0:0:0:
329,192,210674,1,0,0:0:0:0:
182,192,210836,1,0,0:0:0:0:
256,192,210836,1,0,0:0:0:0:
402,192,210836,1,0,0:0:0:0:
36,192,210998,1,0,0:0:0:0:
475,192,210998,1,0,0:0:0:0:
182,192,210998,1,0,0:0:0:0:
109,192,211079,1,0,0:0:0:0:
256,192,211079,1,0,0:0:0:0:
182,192,211160,1,0,0:0:0:0:
329,192,211160,1,0,0:0:0:0:
402,192,211241,1,0,0:0:0:0:
475,192,211241,1,0,0:0:0:0:
36,192,211322,1,0,0:0:0:0:
109,192,211322,1,0,0:0:0:0:
256,192,211322,1,0,0:0:0:0:
109,192,211484,1,0,0:0:0:0:
256,192,211484,1,0,0:0:0:0:
402,192,211484,1,0,0:0:0:0:
182,192,211647,1,0,0:0:0:0:
329,192,211647,1,0,0:0:0:0:
475,192,211647,1,0,0:0:0:0:
109,192,211728,1,0,0:0:0:0:
256,192,211809,1,0,0:0:0:0:
402,192,211809,1,0,0:0:0:0:
329,192,211890,1,0,0:0:0:0:
36,192,211971,5,0,0:0:0:0:
182,192,211971,1,0,0:0:0:0:
475,192,211971,1,0,0:0:0:0:
109,192,211971,1,0,0:0:0:0:
329,192,212133,1,0,0:0:0:0:
182,192,212214,1,0,0:0:0:0:
329,192,212295,1,0,0:0:0:0:
109,192,212457,1,0,0:0:0:0:
256,192,212539,1,0,0:0:0:0:
475,192,212620,1,0,0:0:0:0:
109,192,212620,1,0,0:0:0:0:
402,192,212701,1,0,0:0:0:0:
256,192,212701,1,0,0:0:0:0:
329,192,212782,1,0,0:0:0:0:
109,192,212782,1,0,0:0:0:0:
256,192,212863,1,0,0:0:0:0:
402,192,212863,1,0,0:0:0:0:
36,192,212944,1,0,0:0:0:0:
109,192,212944,1,0,0:0:0:0:
475,192,212944,1,0,0:0:0:0:
36,192,213025,1,0,0:0:0:0:
109,192,213025,1,0,0:0:0:0:
475,192,213106,1,0,0:0:0:0:
402,192,213106,1,0,0:0:0:0:
402,192,213187,1,0,0:0:0:0:
475,192,213187,1,0,0:0:0:0:
36,192,213268,1,0,0:0:0:0:
109,192,213268,1,0,0:0:0:0:
182,192,213268,1,0,0:0:0:0:
182,192,213430,1,0,0:0:0:0:
256,192,213511,1,0,0:0:0:0:
36,192,213593,1,0,0:0:0:0:
475,192,213593,1,0,0:0:0:0:
329,192,213593,1,0,0:0:0:0:
109,192,213755,1,0,0:0:0:0:
182,192,213836,1,0,0:0:0:0:
475,192,213917,1,0,0:0:0:0:
402,192,213917,1,0,0:0:0:0:
256,192,213917,1,0,0:0:0:0:
109,192,213998,1,0,0:0:0:0:
475,192,214079,1,0,0:0:0:0:
402,192,214079,1,0,0:0:0:0:
256,192,214079,1,0,0:0:0:0:
36,192,214160,1,0,0:0:0:0:
109,192,214160,1,0,0:0:0:0:
475,192,214241,1,0,0:0:0:0:
402,192,214241,1,0,0:0:0:0:
256,192,214241,1,0,0:0:0:0:
182,192,214322,1,0,0:0:0:0:
36,192,214322,1,0,0:0:0:0:
475,192,214403,1,0,0:0:0:0:
402,192,214403,1,0,0:0:0:0:
256,192,214403,1,0,0:0:0:0:
36,192,214484,1,0,0:0:0:0:
109,192,214484,1,0,0:0:0:0:
182,192,214484,1,0,0:0:0:0:
402,192,214566,1,0,0:0:0:0:
475,192,214566,1,0,0:0:0:0:
256,192,214566,1,0,0:0:0:0:
329,192,214566,1,0,0:0:0:0:
182,192,214647,1,0,0:0:0:0:
329,192,214728,1,0,0:0:0:0:
36,192,214728,1,0,0:0:0:0:
109,192,214728,1,0,0:0:0:0:
256,192,214782,1,0,0:0:0:0:
182,192,214836,1,0,0:0:0:0:
402,192,214890,1,0,0:0:0:0:
475,192,214890,1,0,0:0:0:0:
109,192,214890,1,0,0:0:0:0:
36,192,214890,1,0,0:0:0:0:
329,192,214971,1,0,0:0:0:0:
36,192,215052,1,0,0:0:0:0:
475,192,215052,1,0,0:0:0:0:
256,192,215052,1,0,0:0:0:0:
182,192,215133,1,0,0:0:0:0:
109,192,215133,1,0,0:0:0:0:
402,192,215214,1,0,0:0:0:0:
475,192,215214,1,0,0:0:0:0:
36,192,215214,1,0,0:0:0:0:
329,192,215214,1,0,0:0:0:0:
256,192,215295,1,0,0:0:0:0:
402,192,215376,1,0,0:0:0:0:
36,192,215376,1,0,0:0:0:0:
182,192,215376,1,0,0:0:0:0:
329,192,215457,1,0,0:0:0:0:
182,192,215539,1,0,0:0:0:0:
109,192,215539,1,0,0:0:0:0:
402,192,215539,1,0,0:0:0:0:
475,192,215539,1,0,0:0:0:0:
256,192,215620,1,0,0:0:0:0:
36,192,215701,1,0,0:0:0:0:
475,192,215701,1,0,0:0:0:0:
329,192,215701,1,0,0:0:0:0:
109,192,215701,1,0,0:0:0:0:
182,192,215782,1,0,0:0:0:0:
402,192,215863,1,0,0:0:0:0:
329,192,215863,1,0,0:0:0:0:
109,192,215863,1,0,0:0:0:0:
36,192,215863,1,0,0:0:0:0:
256,192,215944,1,0,0:0:0:0:
475,192,216025,1,0,0:0:0:0:
36,192,216025,1,0,0:0:0:0:
182,192,216025,1,0,0:0:0:0:
402,192,216025,1,0,0:0:0:0:
329,192,216106,1,0,0:0:0:0:
36,192,216187,1,0,0:0:0:0:
475,192,216187,1,0,0:0:0:0:
256,192,216187,1,0,0:0:0:0:
109,192,216187,1,0,0:0:0:0:
402,192,216268,1,0,0:0:0:0:
182,192,216349,1,0,0:0:0:0:
109,192,216349,1,0,0:0:0:0:
329,192,216349,1,0,0:0:0:0:
475,192,216349,1,0,0:0:0:0:
256,192,216430,1,0,0:0:0:0:
402,192,216511,1,0,0:0:0:0:
475,192,216511,1,0,0:0:0:0:
36,192,216511,1,0,0:0:0:0:
182,192,216511,1,0,0:0:0:0:
256,192,216593,1,0,0:0:0:0:
329,192,216593,1,0,0:0:0:0:
109,192,216674,1,0,0:0:0:0:
475,192,216674,1,0,0:0:0:0:
36,192,216674,1,0,0:0:0:0:
256,192,216755,1,0,0:0:0:0:
182,192,216755,1,0,0:0:0:0:
402,192,216836,1,0,0:0:0:0:
36,192,216836,1,0,0:0:0:0:
329,192,216836,1,0,0:0:0:0:
475,192,216836,1,0,0:0:0:0:
182,192,216917,1,0,0:0:0:0:
109,192,216917,1,0,0:0:0:0:
402,192,216998,1,0,0:0:0:0:
329,192,216998,1,0,0:0:0:0:
36,192,216998,1,0,0:0:0:0:
182,192,217079,1,0,0:0:0:0:
109,192,217079,1,0,0:0:0:0:
475,192,217160,1,0,0:0:0:0:
402,192,217160,1,0,0:0:0:0:
36,192,217160,1,0,0:0:0:0:
329,192,217160,1,0,0:0:0:0:
256,192,217241,1,0,0:0:0:0:
402,192,217322,1,0,0:0:0:0:
475,192,217322,1,0,0:0:0:0:
182,192,217322,1,0,0:0:0:0:
109,192,217322,1,0,0:0:0:0:
36,192,217403,1,0,0:0:0:0:
329,192,217403,1,0,0:0:0:0:
402,192,217484,1,0,0:0:0:0:
475,192,217484,1,0,0:0:0:0:
256,192,217484,1,0,0:0:0:0:
109,192,217484,1,0,0:0:0:0:
329,192,217566,1,0,0:0:0:0:
182,192,217566,1,0,0:0:0:0:
36,192,217647,1,0,0:0:0:0:
475,192,217647,1,0,0:0:0:0:
256,192,217647,1,0,0:0:0:0:
402,192,217647,1,0,0:0:0:0:
109,192,217728,1,0,0:0:0:0:
475,192,217809,1,0,0:0:0:0:
402,192,217809,1,0,0:0:0:0:
182,192,217809,1,0,0:0:0:0:
36,192,217809,1,0,0:0:0:0:
329,192,217863,1,0,0:0:0:0:
256,192,217917,1,0,0:0:0:0:
402,192,217971,1,0,0:0:0:0:
109,192,217971,1,0,0:0:0:0:
36,192,217971,1,0,0:0:0:0:
329,192,218052,1,0,0:0:0:0:
36,192,218133,1,0,0:0:0:0:
475,192,218133,1,0,0:0:0:0:
256,192,218133,1,0,0:0:0:0:
182,192,218133,1,0,0:0:0:0:
329,192,218214,1,0,0:0:0:0:
402,192,218214,1,0,0:0:0:0:
109,192,218295,1,0,0:0:0:0:
182,192,218295,1,0,0:0:0:0:
475,192,218295,1,0,0:0:0:0:
329,192,218376,1,0,0:0:0:0:
402,192,218376,1,0,0:0:0:0:
256,192,218457,1,0,0:0:0:0:
475,192,218457,1,0,0:0:0:0:
109,192,218457,1,0,0:0:0:0:
36,192,218457,1,0,0:0:0:0:
182,192,218539,1,0,0:0:0:0:
329,192,218539,1,0,0:0:0:0:
402,192,218620,1,0,0:0:0:0:
109,192,218620,1,0,0:0:0:0:
36,192,218620,1,0,0:0:0:0:
475,192,218701,1,0,0:0:0:0:
182,192,218701,1,0,0:0:0:0:
256,192,218701,1,0,0:0:0:0:
329,192,218782,1,0,0:0:0:0:
402,192,218782,1,0,0:0:0:0:
36,192,218782,1,0,0:0:0:0:
109,192,218782,1,0,0:0:0:0:
475,192,218863,1,0,0:0:0:0:
256,192,218863,1,0,0:0:0:0:
402,192,218944,1,0,0:0:0:0:
109,192,218944,1,0,0:0:0:0:
36,192,218944,1,0,0:0:0:0:
329,192,219025,1,0,0:0:0:0:
256,192,219025,1,0,0:0:0:0:
182,192,219025,1,0,0:0:0:0:
402,192,219106,1,0,0:0:0:0:
475,192,219106,1,0,0:0:0:0:
109,192,219106,1,0,0:0:0:0:
36,192,219106,1,0,0:0:0:0:
329,192,219147,1,0,0:0:0:0:
256,192,219187,1,0,0:0:0:0:
182,192,219228,1,0,0:0:0:0:
402,192,219268,1,0,0:0:0:0:
109,192,219268,1,0,0:0:0:0:
36,192,219268,1,0,0:0:0:0:
329,192,219349,1,0,0:0:0:0:
475,192,219430,1,0,0:0:0:0:
402,192,219430,1,0,0:0:0:0:
109,192,219430,1,0,0:0:0:0:
182,192,219430,1,0,0:0:0:0:
256,192,219511,1,0,0:0:0:0:
402,192,219593,1,0,0:0:0:0:
475,192,219593,1,0,0:0:0:0:
182,192,219593,1,0,0:0:0:0:
36,192,219593,1,0,0:0:0:0:
329,192,219674,1,0,0:0:0:0:
475,192,219755,1,0,0:0:0:0:
109,192,219755,1,0,0:0:0:0:
256,192,219755,1,0,0:0:0:0:
36,192,219755,1,0,0:0:0:0:
329,192,219836,1,0,0:0:0:0:
182,192,219917,1,0,0:0:0:0:
402,192,219917,1,0,0:0:0:0:
109,192,219917,1,0,0:0:0:0:
256,192,219998,1,0,0:0:0:0:
402,192,220079,1,0,0:0:0:0:
329,192,220079,1,0,0:0:0:0:
475,192,220079,1,0,0:0:0:0:
36,192,220079,1,0,0:0:0:0:
256,192,220160,1,0,0:0:0:0:
182,192,220160,1,0,0:0:0:0:
475,192,220241,1,0,0:0:0:0:
329,192,220241,1,0,0:0:0:0:
109,192,220241,1,0,0:0:0:0:
36,192,220241,1,0,0:0:0:0:
256,192,220322,1,0,0:0:0:0:
402,192,220403,1,0,0:0:0:0:
36,192,220403,1,0,0:0:0:0:
182,192,220403,1,0,0:0:0:0:
109,192,220403,1,0,0:0:0:0:
329,192,220484,1,0,0:0:0:0:
402,192,220566,1,0,0:0:0:0:
256,192,220566,1,0,0:0:0:0:
475,192,220566,1,0,0:0:0:0:
182,192,220647,1,0,0:0:0:0:
109,192,220647,1,0,0:0:0:0:
402,192,220728,1,0,0:0:0:0:
475,192,220728,1,0,0:0:0:0:
36,192,220728,1,0,0:0:0:0:
329,192,220728,1,0,0:0:0:0:
256,192,220768,1,0,0:0:0:0:
182,192,220809,1,0,0:0:0:0:
329,192,220890,1,0,0:0:0:0:
475,192,220890,1,0,0:0:0:0:
109,192,220890,1,0,0:0:0:0:
36,192,220890,1,0,0:0:0:0:
256,192,220971,1,0,0:0:0:0:
475,192,221052,1,0,0:0:0:0:
36,192,221052,1,0,0:0:0:0:
182,192,221052,1,0,0:0:0:0:
402,192,221052,1,0,0:0:0:0:
329,192,221133,1,0,0:0:0:0:
182,192,221214,1,0,0:0:0:0:
109,192,221214,1,0,0:0:0:0:
402,192,221214,1,0,0:0:0:0:
256,192,221295,1,0,0:0:0:0:
109,192,221376,1,0,0:0:0:0:
36,192,221376,1,0,0:0:0:0:
329,192,221376,1,0,0:0:0:0:
402,192,221376,1,0,0:0:0:0:
182,192,221457,1,0,0:0:0:0:
475,192,221539,1,0,0:0:0:0:
329,192,221539,1,0,0:0:0:0:
36,192,221539,1,0,0:0:0:0:
109,192,221539,1,0,0:0:0:0:
182,192,221579,1,0,0:0:0:0:
256,192,221620,1,0,0:0:0:0:
329,192,221701,1,0,0:0:0:0:
109,192,221701,1,0,0:0:0:0:
402,192,221701,1,0,0:0:0:0:
475,192,221701,1,0,0:0:0:0:
182,192,221782,1,0,0:0:0:0:
402,192,221863,1,0,0:0:0:0:
36,192,221863,1,0,0:0:0:0:
256,192,221863,1,0,0:0:0:0:
109,192,221944,1,0,0:0:0:0:
475,192,222025,1,0,0:0:0:0:
402,192,222025,1,0,0:0:0:0:
36,192,222025,1,0,0:0:0:0:
182,192,222025,1,0,0:0:0:0:
256,192,222106,1,0,0:0:0:0:
329,192,222106,1,0,0:0:0:0:
475,192,222187,1,0,0:0:0:0:
182,192,222187,1,0,0:0:0:0:
109,192,222187,1,0,0:0:0:0:
36,192,222187,1,0,0:0:0:0:
402,192,222268,1,0,0:0:0:0:
329,192,222268,1,0,0:0:0:0:
475,192,222349,1,0,0:0:0:0:
256,192,222349,1,0,0:0:0:0:
36,192,222349,1,0,0:0:0:0:
182,192,222349,1,0,0:0:0:0:
109,192,222349,1,0,0:0:0:0:
329,192,222511,1,0,0:0:0:0:
256,192,222593,1,0,0:0:0:0:
402,192,222674,1,0,0:0:0:0:
475,192,222674,1,0,0:0:0:0:
36,192,222674,1,0,0:0:0:0:
182,192,222674,1,0,0:0:0:0:
109,192,222674,1,0,0:0:0:0:
329,192,222755,1,0,0:0:0:0:
36,192,222836,1,0,0:0:0:0:
475,192,222836,1,0,0:0:0:0:
256,192,222836,1,0,0:0:0:0:
109,192,222836,1,0,0:0:0:0:
475,192,222998,1,0,0:0:0:0:
36,192,222998,1,0,0:0:0:0:
329,192,222998,1,0,0:0:0:0:
182,192,222998,1,0,0:0:0:0:
402,192,222998,1,0,0:0:0:0:
256,192,223079,1,0,0:0:0:0:
402,192,223160,1,0,0:0:0:0:
109,192,223160,1,0,0:0:0:0:
182,192,223241,1,0,0:0:0:0:
329,192,223241,1,0,0:0:0:0:
475,192,223322,1,0,0:0:0:0:
36,192,223322,1,0,0:0:0:0:
402,192,223322,1,0,0:0:0:0:
109,192,223322,1,0,0:0:0:0:
256,192,223322,1,0,0:0:0:0:
329,192,223403,1,0,0:0:0:0:
182,192,223484,1,0,0:0:0:0:
109,192,223484,1,0,0:0:0:0:
36,192,223484,1,0,0:0:0:0:
256,192,223566,1,0,0:0:0:0:
402,192,223647,1,0,0:0:0:0:
475,192,223647,1,0,0:0:0:0:
329,192,223647,1,0,0:0:0:0:
36,192,223647,1,0,0:0:0:0:
109,192,223647,1,0,0:0:0:0:
36,192,223809,1,0,0:0:0:0:
402,192,223809,1,0,0:0:0:0:
182,192,223809,1,0,0:0:0:0:
256,192,223890,1,0,0:0:0:0:
402,192,223971,1,0,0:0:0:0:
475,192,223971,1,0,0:0:0:0:
329,192,223971,1,0,0:0:0:0:
109,192,223971,1,0,0:0:0:0:
36,192,223971,1,0,0:0:0:0:
182,192,224052,1,0,0:0:0:0:
329,192,224133,1,0,0:0:0:0:
36,192,224133,1,0,0:0:0:0:
256,192,224133,1,0,0:0:0:0:
475,192,224133,1,0,0:0:0:0:
109,192,224214,1,0,0:0:0:0:
475,192,224295,1,0,0:0:0:0:
402,192,224295,1,0,0:0:0:0:
256,192,224295,1,0,0:0:0:0:
182,192,224295,1,0,0:0:0:0:
329,192,224295,1,0,0:0:0:0:
182,192,224457,1,0,0:0:0:0:
402,192,224457,1,0,0:0:0:0:
109,192,224457,1,0,0:0:0:0:
36,192,224457,1,0,0:0:0:0:
329,192,224539,1,0,0:0:0:0:
256,192,224539,1,0,0:0:0:0:
182,192,224620,1,0,0:0:0:0:
402,192,224620,1,0,0:0:0:0:
475,192,224620,1,0,0:0:0:0:
109,192,224620,1,0,0:0:0:0:
36,192,224620,1,0,0:0:0:0:
475,192,224782,1,0,0:0:0:0:
402,192,224782,1,0,0:0:0:0:
182,192,224782,1,0,0:0:0:0:
329,192,224782,1,0,0:0:0:0:
36,192,224944,1,0,0:0:0:0:
329,192,224944,1,0,0:0:0:0:
109,192,224944,1,0,0:0:0:0:
256,192,224944,1,0,0:0:0:0:
182,192,224944,1,0,0:0:0:0:
475,192,225106,1,0,0:0:0:0:
402,192,225106,1,0,0:0:0:0:
256,192,225106,1,0,0:0:0:0:
182,192,225187,1,0,0:0:0:0:
402,192,225268,1,0,0:0:0:0:
475,192,225268,1,0,0:0:0:0:
329,192,225268,1,0,0:0:0:0:
109,192,225268,1,0,0:0:0:0:
36,192,225268,1,0,0:0:0:0:
256,192,225349,1,0,0:0:0:0:
402,192,225430,1,0,0:0:0:0:
475,192,225430,1,0,0:0:0:0:
182,192,225430,1,0,0:0:0:0:
36,192,225430,1,0,0:0:0:0:
329,192,225511,1,0,0:0:0:0:
182,192,225593,1,0,0:0:0:0:
36,192,225593,1,0,0:0:0:0:
109,192,225593,1,0,0:0:0:0:
402,192,225593,1,0,0:0:0:0:
475,192,225593,1,0,0:0:0:0:
256,192,225674,1,0,0:0:0:0:
329,192,225755,1,0,0:0:0:0:
36,192,225755,1,0,0:0:0:0:
109,192,225755,1,0,0:0:0:0:
402,192,225836,1,0,0:0:0:0:
256,192,225836,1,0,0:0:0:0:
182,192,225836,1,0,0:0:0:0:
36,192,225917,1,0,0:0:0:0:
109,192,225917,1,0,0:0:0:0:
329,192,225917,1,0,0:0:0:0:
475,192,225917,1,0,0:0:0:0:
182,192,225998,1,0,0:0:0:0:
402,192,226079,1,0,0:0:0:0:
36,192,226079,1,0,0:0:0:0:
256,192,226079,1,0,0:0:0:0:
475,192,226079,1,0,0:0:0:0:
109,192,226160,1,0,0:0:0:0:
256,192,226241,1,0,0:0:0:0:
475,192,226241,1,0,0:0:0:0:
402,192,226241,1,0,0:0:0:0:
182,192,226241,1,0,0:0:0:0:
329,192,226241,1,0,0:0:0:0:
329,192,226403,1,0,0:0:0:0:
402,192,226403,1,0,0:0:0:0:
182,192,226403,1,0,0:0:0:0:
36,192,226403,1,0,0:0:0:0:
256,192,226484,1,0,0:0:0:0:
402,192,226566,1,0,0:0:0:0:
182,192,226566,1,0,0:0:0:0:
475,192,226566,1,0,0:0:0:0:
109,192,226566,1,0,0:0:0:0:
36,192,226566,1,0,0:0:0:0:
329,192,226647,1,0,0:0:0:0:
36,192,226728,1,0,0:0:0:0:
109,192,226728,1,0,0:0:0:0:
256,192,226728,1,0,0:0:0:0:
475,192,226728,1,0,0:0:0:0:
182,192,226809,1,0,0:0:0:0:
402,192,226890,1,0,0:0:0:0:
475,192,226890,1,0,0:0:0:0:
329,192,226890,1,0,0:0:0:0:
109,192,226890,1,0,0:0:0:0:
36,192,226890,1,0,0:0:0:0:
256,192,226971,1,0,0:0:0:0:
475,192,227052,1,0,0:0:0:0:
402,192,227052,1,0,0:0:0:0:
109,192,227052,1,0,0:0:0:0:
182,192,227093,1,0,0:0:0:0:
256,192,227133,1,0,0:0:0:0:
329,192,227174,1,0,0:0:0:0:
182,192,227214,1,0,0:0:0:0:
475,192,227214,1,0,0:0:0:0:
109,192,227214,1,0,0:0:0:0:
402,192,227214,1,0,0:0:0:0:
36,192,227214,1,0,0:0:0:0:
329,192,227295,1,0,0:0:0:0:
256,192,227295,1,0,0:0:0:0:
475,192,227376,1,0,0:0:0:0:
402,192,227376,1,0,0:0:0:0:
36,192,227376,1,0,0:0:0:0:
109,192,227376,1,0,0:0:0:0:
256,192,227457,1,0,0:0:0:0:
182,192,227457,1,0,0:0:0:0:
329,192,227539,1,0,0:0:0:0:
402,192,227539,1,0,0:0:0:0:
36,192,227539,1,0,0:0:0:0:
475,192,227539,1,0,0:0:0:0:
109,192,227539,1,0,0:0:0:0:
182,192,227620,1,0,0:0:0:0:
256,192,227620,1,0,0:0:0:0:
402,192,227701,1,0,0:0:0:0:
475,192,227701,1,0,0:0:0:0:
109,192,227701,1,0,0:0:0:0:
36,192,227701,1,0,0:0:0:0:
256,192,227782,1,0,0:0:0:0:
329,192,227782,1,0,0:0:0:0:
475,192,227863,1,0,0:0:0:0:
182,192,227863,1,0,0:0:0:0:
402,192,227863,1,0,0:0:0:0:
109,192,227863,1,0,0:0:0:0:
36,192,227863,1,0,0:0:0:0:
329,192,227944,1,0,0:0:0:0:
256,192,227944,1,0,0:0:0:0:
402,192,228025,1,0,0:0:0:0:
475,192,228025,1,0,0:0:0:0:
109,192,228025,1,0,0:0:0:0:
36,192,228025,1,0,0:0:0:0:
256,192,228106,1,0,0:0:0:0:
182,192,228106,1,0,0:0:0:0:
109,192,228187,1,0,0:0:0:0:
36,192,228187,1,0,0:0:0:0:
475,192,228187,1,0,0:0:0:0:
329,192,228187,1,0,0:0:0:0:
402,192,228187,1,0,0:0:0:0:
256,192,228268,1,0,0:0:0:0:
402,192,228349,1,0,0:0:0:0:
182,192,228349,1,0,0:0:0:0:
329,192,228430,1,0,0:0:0:0:
36,192,228430,1,0,0:0:0:0:
109,192,228430,1,0,0:0:0:0:
475,192,228511,1,0,0:0:0:0:
256,192,228511,1,0,0:0:0:0:
182,192,228511,1,0,0:0:0:0:
36,192,228593,1,0,0:0:0:0:
109,192,228593,1,0,0:0:0:0:
329,192,228674,1,0,0:0:0:0:
256,192,228674,1,0,0:0:0:0:
475,192,228674,1,0,0:0:0:0:
109,192,228755,1,0,0:0:0:0:
182,192,228755,1,0,0:0:0:0:
256,192,228836,1,0,0:0:0:0:
329,192,228836,1,0,0:0:0:0:
475,192,228836,1,0,0:0:0:0:
36,192,228836,1,0,0:0:0:0:
402,192,228836,1,0,0:0:0:0:
109,192,228917,1,0,0:0:0:0:
182,192,228917,1,0,0:0:0:0:
475,192,228998,1,0,0:0:0:0:
329,192,228998,1,0,0:0:0:0:
36,192,228998,1,0,0:0:0:0:
402,192,228998,1,0,0:0:0:0:
182,192,229079,1,0,0:0:0:0:
256,192,229079,1,0,0:0:0:0:
402,192,229160,1,0,0:0:0:0:
475,192,229160,1,0,0:0:0:0:
329,192,229160,1,0,0:0:0:0:
36,192,229160,1,0,0:0:0:0:
109,192,229160,1,0,0:0:0:0:
182,192,229241,1,0,0:0:0:0:
256,192,229241,1,0,0:0:0:0:
475,192,229322,1,0,0:0:0:0:
329,192,229322,1,0,0:0:0:0:
36,192,229322,1,0,0:0:0:0:
402,192,229322,1,0,0:0:0:0:
109,192,229403,1,0,0:0:0:0:
182,192,229403,1,0,0:0:0:0:
475,192,229484,1,0,0:0:0:0:
329,192,229484,1,0,0:0:0:0:
36,192,229484,1,0,0:0:0:0:
256,192,229484,1,0,0:0:0:0:
182,192,229566,1,0,0:0:0:0:
109,192,229647,1,0,0:0:0:0:
402,192,229647,1,0,0:0:0:0:
36,192,229728,1,0,0:0:0:0:
256,192,229728,1,0,0:0:0:0:
329,192,229728,1,0,0:0:0:0:
182,192,229809,1,0,0:0:0:0:
109,192,229809,1,0,0:0:0:0:
475,192,229809,1,0,0:0:0:0:
402,192,229809,1,0,0:0:0:0:
329,192,229890,1,0,0:0:0:0:
36,192,229971,1,0,0:0:0:0:
109,192,229971,1,0,0:0:0:0:
256,192,229971,1,0,0:0:0:0:
475,192,230052,1,0,0:0:0:0:
402,192,230052,1,0,0:0:0:0:
36,192,230133,1,0,0:0:0:0:
256,192,230133,1,0,0:0:0:0:
182,192,230133,1,0,0:0:0:0:
109,192,230133,1,0,0:0:0:0:
402,192,230214,1,0,0:0:0:0:
329,192,230214,1,0,0:0:0:0:
36,192,230295,1,0,0:0:0:0:
182,192,230295,1,0,0:0:0:0:
475,192,230295,1,0,0:0:0:0:
109,192,230295,1,0,0:0:0:0:
329,192,230376,1,0,0:0:0:0:
256,192,230376,1,0,0:0:0:0:
109,192,230457,1,0,0:0:0:0:
36,192,230457,1,0,0:0:0:0:
475,192,230457,1,0,0:0:0:0:
402,192,230457,1,0,0:0:0:0:
256,192,230539,1,0,0:0:0:0:
182,192,230539,1,0,0:0:0:0:
475,192,230620,1,0,0:0:0:0:
36,192,230620,1,0,0:0:0:0:
329,192,230620,1,0,0:0:0:0:
402,192,230620,1,0,0:0:0:0:
182,192,230701,1,0,0:0:0:0:
109,192,230701,1,0,0:0:0:0:
475,192,230782,1,0,0:0:0:0:
402,192,230782,1,0,0:0:0:0:
36,192,230782,1,0,0:0:0:0:
256,192,230782,1,0,0:0:0:0:
182,192,230863,1,0,0:0:0:0:
329,192,230863,1,0,0:0:0:0:
36,192,230944,1,0,0:0:0:0:
475,192,230944,1,0,0:0:0:0:
256,192,230944,1,0,0:0:0:0:
109,192,230944,1,0,0:0:0:0:
402,192,231025,1,0,0:0:0:0:
329,192,231025,1,0,0:0:0:0:
475,192,231106,1,0,0:0:0:0:
109,192,231106,1,0,0:0:0:0:
256,192,231106,1,0,0:0:0:0:
182,192,231106,1,0,0:0:0:0:
36,192,231106,1,0,0:0:0:0:
109,192,231268,1,0,0:0:0:0:
36,192,231268,1,0,0:0:0:0:
256,192,231268,1,0,0:0:0:0:
475,192,231268,1,0,0:0:0:0:
182,192,231268,1,0,0:0:0:0:
329,192,231268,1,0,0:0:0:0:
402,192,231268,1,0,0:0:0:0:
475,192,231430,1,0,0:0:0:0:
36,192,231430,1,0,0:0:0:0:
182,192,231430,1,0,0:0:0:0:
329,192,231511,1,0,0:0:0:0:
36,192,231593,1,0,0:0:0:0:
182,192,231593,1,0,0:0:0:0:
329,192,231674,1,0,0:0:0:0:
475,192,231755,1,0,0:0:0:0:
402,192,231755,1,0,0:0:0:0:
182,192,231755,1,0,0:0:0:0:
329,192,231836,1,0,0:0:0:0:
475,192,231917,1,0,0:0:0:0:
109,192,231917,1,0,0:0:0:0:
182,192,231917,1,0,0:0:0:0:
402,192,231917,1,0,0:0:0:0:
256,192,231917,1,0,0:0:0:0:
36,192,231998,1,0,0:0:0:0:
329,192,231998,1,0,0:0:0:0:
475,192,232079,1,0,0:0:0:0:
182,192,232079,1,0,0:0:0:0:
109,192,232160,1,0,0:0:0:0:
402,192,232160,1,0,0:0:0:0:
329,192,232160,1,0,0:0:0:0:
475,192,232241,1,0,0:0:0:0:
256,192,232241,1,0,0:0:0:0:
36,192,232241,1,0,0:0:0:0:
402,192,232322,1,0,0:0:0:0:
182,192,232322,1,0,0:0:0:0:
329,192,232403,1,0,0:0:0:0:
475,192,232403,1,0,0:0:0:0:
109,192,232403,1,0,0:0:0:0:
36,192,232403,1,0,0:0:0:0:
402,192,232484,1,0,0:0:0:0:
256,192,232484,1,0,0:0:0:0:
329,192,232566,128,0,234593:0:0:0:0:
475,192,232566,128,0,234593:0:0:0:0:
36,192,232566,128,0,234593:0:0:0:0:
182,192,232566,128,0,234593:0:0:0:0:
109,192,232566,128,0,234593:0:0:0:0:
329,192,234674,1,0,0:0:0:0:
182,192,234755,1,0,0:0:0:0:
329,192,234836,1,0,0:0:0:0:
109,192,234917,1,0,0:0:0:0:
402,192,234998,1,0,0:0:0:0:
475,192,234998,1,0,0:0:0:0:
256,192,235160,1,0,0:0:0:0:
329,192,235241,1,0,0:0:0:0:
36,192,235322,1,0,0:0:0:0:
182,192,235322,1,0,0:0:0:0:
475,192,235403,1,0,0:0:0:0:
329,192,235403,1,0,0:0:0:0:
109,192,235484,1,0,0:0:0:0:
256,192,235484,1,0,0:0:0:0:
475,192,235566,1,0,0:0:0:0:
402,192,235566,1,0,0:0:0:0:
36,192,235647,1,0,0:0:0:0:
182,192,235647,1,0,0:0:0:0:
256,192,235809,1,0,0:0:0:0:
109,192,235971,1,0,0:0:0:0:
329,192,235971,1,0,0:0:0:0:
402,192,236052,1,0,0:0:0:0:
329,192,236133,1,0,0:0:0:0:
182,192,236133,1,0,0:0:0:0:
36,192,236295,1,0,0:0:0:0:
256,192,236295,1,0,0:0:0:0:
109,192,236457,1,0,0:0:0:0:
329,192,236457,1,0,0:0:0:0:
182,192,236539,1,0,0:0:0:0:
109,192,236620,1,0,0:0:0:0:
36,192,236620,1,0,0:0:0:0:
475,192,236620,1,0,0:0:0:0:
329,192,236701,1,0,0:0:0:0:
256,192,236782,1,0,0:0:0:0:
109,192,236944,1,0,0:0:0:0:
329,192,236944,1,0,0:0:0:0:
402,192,237025,1,0,0:0:0:0:
36,192,237025,1,0,0:0:0:0:
475,192,237106,1,0,0:0:0:0:
256,192,237106,1,0,0:0:0:0:
402,192,237187,1,0,0:0:0:0:
329,192,237268,1,0,0:0:0:0:
256,192,237309,1,0,0:0:0:0:
182,192,237349,1,0,0:0:0:0:
109,192,237390,1,0,0:0:0:0:
329,192,237430,1,0,0:0:0:0:
402,192,237430,1,0,0:0:0:0:
182,192,237511,1,0,0:0:0:0:
329,192,237593,1,0,0:0:0:0:
402,192,237593,1,0,0:0:0:0:
182,192,237674,1,0,0:0:0:0:
329,192,237755,1,0,0:0:0:0:
402,192,237755,1,0,0:0:0:0:
182,192,237836,1,0,0:0:0:0:
475,192,237917,1,0,0:0:0:0:
329,192,237917,1,0,0:0:0:0:
109,192,237917,1,0,0:0:0:0:
182,192,238079,1,0,0:0:0:0:
475,192,238241,1,0,0:0:0:0:
256,192,238241,1,0,0:0:0:0:
329,192,238322,1,0,0:0:0:0:
475,192,238403,1,0,0:0:0:0:
109,192,238403,1,0,0:0:0:0:
182,192,238566,1,0,0:0:0:0:
475,192,238728,1,0,0:0:0:0:
256,192,238728,1,0,0:0:0:0:
329,192,238809,1,0,0:0:0:0:
475,192,238890,1,0,0:0:0:0:
109,192,238890,1,0,0:0:0:0:
182,192,239052,1,0,0:0:0:0:
475,192,239214,1,0,0:0:0:0:
256,192,239214,1,0,0:0:0:0:
329,192,239295,1,0,0:0:0:0:
475,192,239376,1,0,0:0:0:0:
109,192,239376,1,0,0:0:0:0:
182,192,239539,1,0,0:0:0:0:
475,192,239701,1,0,0:0:0:0:
256,192,239701,1,0,0:0:0:0:
329,192,239782,1,0,0:0:0:0:
475,192,239863,1,0,0:0:0:0:
109,192,239863,1,0,0:0:0:0:
329,192,239944,1,0,0:0:0:0:
36,192,239944,1,0,0:0:0:0:
475,192,240025,1,0,0:0:0:0:
182,192,240025,1,0,0:0:0:0:
329,192,240106,1,0,0:0:0:0:
475,192,240187,1,0,0:0:0:0:
256,192,240187,1,0,0:0:0:0:
329,192,240349,1,0,0:0:0:0:
182,192,240349,1,0,0:0:0:0:
402,192,240511,1,0,0:0:0:0:
329,192,240593,1,0,0:0:0:0:
109,192,240674,1,0,0:0:0:0:
475,192,240674,1,0,0:0:0:0:
182,192,240755,1,0,0:0:0:0:
109,192,240836,1,0,0:0:0:0:
329,192,240836,1,0,0:0:0:0:
402,192,240998,1,0,0:0:0:0:
109,192,241160,1,0,0:0:0:0:
475,192,241160,1,0,0:0:0:0:
182,192,241241,1,0,0:0:0:0:
109,192,241322,1,0,0:0:0:0:
329,192,241322,1,0,0:0:0:0:
402,192,241484,1,0,0:0:0:0:
109,192,241647,1,0,0:0:0:0:
475,192,241647,1,0,0:0:0:0:
182,192,241728,1,0,0:0:0:0:
109,192,241809,1,0,0:0:0:0:
329,192,241809,1,0,0:0:0:0:
475,192,241890,1,0,0:0:0:0:
402,192,241971,1,0,0:0:0:0:
182,192,242133,1,0,0:0:0:0:
475,192,242133,1,0,0:0:0:0:
36,192,242214,1,0,0:0:0:0:
182,192,242295,1,0,0:0:0:0:
402,192,242295,1,0,0:0:0:0:
329,192,242457,1,0,0:0:0:0:
256,192,242511,1,0,0:0:0:0:
182,192,242566,1,0,0:0:0:0:
36,192,242620,1,0,0:0:0:0:
109,192,242620,1,0,0:0:0:0:
402,192,242701,1,0,0:0:0:0:
256,192,242782,1,0,0:0:0:0:
109,192,242782,1,0,0:0:0:0:
402,192,242863,1,0,0:0:0:0:
256,192,242944,1,0,0:0:0:0:
109,192,242944,1,0,0:0:0:0:
402,192,243025,1,0,0:0:0:0:
