osu file format v14

[General]
AudioFilename: audio.mp3
AudioLeadIn: 0
PreviewTime: 54169
Countdown: 0
SampleSet: Soft
StackLeniency: 0.7
Mode: 3
LetterboxInBreaks: 0
SpecialStyle: 0
WidescreenStoryboard: 1

[Editor]
Bookmarks: 1522,4618,17005,29392,41780,54167,66554,79603,94603,109603,121016,126349,143683,150349
DistanceSpacing: 1.3
BeatDivisor: 4
GridSize: 4
TimelineZoom: 2.999999

[Metadata]
Title:Glooorious!!
TitleUnicode:Glooorious!!
Artist:Hino Isuka vs. s-don
ArtistUnicode:翡乃イスカ vs. s-don
Creator:_underjoy
Version:Extra!!
Source:osu!mania 7K World Cup 2023
Tags:mwc 2023 world cup mwc2023 mwc7k2023 finals wildcard hybrid mg mpg mappers' guild hybrid jinjin maplesyrup- blocko remuring collab fa featured artist original electronic instrumental glorious gloorious gloooorious bouncing boouncing boooouncing trrricksters!! iriss-frantzz
BeatmapID:4528527
BeatmapSetID:1935691

[Difficulty]
HPDrainRate:8
CircleSize:7
OverallDifficulty:7.5
ApproachRate:5
SliderMultiplier:1.4
SliderTickRate:1

[Events]
//Background and Video events
0,0,"osu_originals2-1.jpg",0,0
//Break Periods
//Storyboard Layer 0 (Background)
//Storyboard Layer 1 (Fail)
//Storyboard Layer 2 (Pass)
//Storyboard Layer 3 (Foreground)
//Storyboard Layer 4 (Overlay)
//Storyboard Sound Samples

[TimingPoints]
1534,387.096774193548,4,2,1,40,1,0
1534,-100,4,2,1,40,0,0
74308,413.793103448276,4,2,1,40,1,0
74308,-93.4579439252336,4,2,1,40,0,0
75963,444.444444444444,4,2,1,40,1,0
75963,-86.9565217391304,4,2,1,40,0,0
77740,468.75,4,2,1,40,1,0
77740,-82.6446280991736,4,2,1,40,0,0
109615,387.096774193548,4,2,1,40,1,0
109615,-100,4,2,1,40,0,0
112711,363.636363636364,4,2,1,40,1,0
112711,-106.382978723404,4,2,1,40,0,0
115620,342.857142857143,4,2,1,40,1,0
115620,-112.359550561798,4,2,1,40,0,0
118362,333.333333333333,4,2,1,40,1,0
118362,-116.279069767442,4,2,1,40,0,0

[HitObjects]
36,192,1534,5,0,0:0:0:0:
182,192,1534,1,0,0:0:0:0:
329,192,1534,1,0,0:0:0:0:
475,192,1727,1,0,0:0:0:0:
329,192,1824,1,0,0:0:0:0:
36,192,1921,1,0,0:0:0:0:
109,192,1945,1,0,0:0:0:0:
182,192,1969,1,0,0:0:0:0:
256,192,1993,1,0,0:0:0:0:
329,192,2017,1,0,0:0:0:0:
36,192,2114,1,0,0:0:0:0:
182,192,2211,1,0,0:0:0:0:
36,192,2308,1,0,0:0:0:0:
329,192,2404,1,0,0:0:0:0:
475,192,2404,1,0,0:0:0:0:
402,192,2501,1,0,0:0:0:0:
256,192,2501,1,0,0:0:0:0:
329,192,2598,1,0,0:0:0:0:
182,192,2598,1,0,0:0:0:0:
475,192,2695,1,0,0:0:0:0:
109,192,2695,1,0,0:0:0:0:
402,192,2743,1,0,0:0:0:0:
329,192,2792,1,0,0:0:0:0:
256,192,2840,1,0,0:0:0:0:
182,192,2888,1,0,0:0:0:0:
36,192,2888,1,0,0:0:0:0:
475,192,2985,1,0,0:0:0:0:
256,192,3082,1,0,0:0:0:0:
109,192,3082,1,0,0:0:0:0:
402,192,3082,1,0,0:0:0:0:
329,192,3179,1,0,0:0:0:0:
402,192,3275,1,0,0:0:0:0:
36,192,3372,1,0,0:0:0:0:
182,192,3372,1,0,0:0:0:0:
475,192,3372,1,0,0:0:0:0:
256,192,3469,1,0,0:0:0:0:
329,192,3566,1,0,0:0:0:0:
402,192,3663,1,0,0:0:0:0:
109,192,3663,1,0,0:0:0:0:
36,192,3663,1,0,0:0:0:0:
182,192,3759,1,0,0:0:0:0:
256,192,3856,1,0,0:0:0:0:
475,192,3856,1,0,0:0:0:0:
36,192,3856,1,0,0:0:0:0:
182,192,3953,1,0,0:0:0:0:
402,192,4050,1,0,0:0:0:0:
109,192,4050,1,0,0:0:0:0:
329,192,4098,1,0,0:0:0:0:
256,192,4146,1,0,0:0:0:0:
182,192,4195,1,0,0:0:0:0:
109,192,4243,1,0,0:0:0:0:
36,192,4243,1,0,0:0:0:0:
329,192,4340,1,0,0:0:0:0:
256,192,4340,1,0,0:0:0:0:
182,192,4437,1,0,0:0:0:0:
109,192,4437,1,0,0:0:0:0:
329,192,4533,1,0,0:0:0:0:
402,192,4533,1,0,0:0:0:0:
256,192,4630,1,0,0:0:0:0:
475,192,4630,1,0,0:0:0:0:
402,192,4630,1,0,0:0:0:0:
36,192,4630,128,0,5792:0:0:0:0:
109,192,4630,128,0,5792:0:0:0:0:
329,192,4824,1,0,0:0:0:0:
182,192,4921,1,0,0:0:0:0:
402,192,5017,1,0,0:0:0:0:
329,192,5114,1,0,0:0:0:0:
256,192,5211,1,0,0:0:0:0:
182,192,5308,1,0,0:0:0:0:
402,192,5404,1,0,0:0:0:0:
256,192,5501,1,0,0:0:0:0:
475,192,5598,1,0,0:0:0:0:
329,192,5663,1,0,0:0:0:0:
475,192,5727,1,0,0:0:0:0:
256,192,5792,1,0,0:0:0:0:
402,192,5792,1,0,0:0:0:0:
182,192,5792,1,0,0:0:0:0:
475,192,5985,128,0,7340:0:0:0:0:
402,192,5985,128,0,7340:0:0:0:0:
256,192,5985,1,0,0:0:0:0:
109,192,5985,1,0,0:0:0:0:
36,192,5985,1,0,0:0:0:0:
182,192,6082,1,0,0:0:0:0:
36,192,6179,1,0,0:0:0:0:
256,192,6275,1,0,0:0:0:0:
109,192,6372,1,0,0:0:0:0:
329,192,6469,1,0,0:0:0:0:
182,192,6566,128,0,6663:0:0:0:0:
256,192,6566,1,0,0:0:0:0:
36,192,6663,128,0,6759:0:0:0:0:
182,192,6759,128,0,7050:0:0:0:0:
256,192,6759,1,0,0:0:0:0:
36,192,6953,128,0,7050:0:0:0:0:
329,192,6953,1,0,0:0:0:0:
329,192,7146,1,0,0:0:0:0:
182,192,7211,1,0,0:0:0:0:
329,192,7275,1,0,0:0:0:0:
256,192,7340,1,0,0:0:0:0:
109,192,7340,1,0,0:0:0:0:
36,192,7340,1,0,0:0:0:0:
182,192,7437,1,0,0:0:0:0:
329,192,7533,1,0,0:0:0:0:
475,192,7533,1,0,0:0:0:0:
36,192,7533,1,0,0:0:0:0:
182,192,7630,1,0,0:0:0:0:
36,192,7727,128,0,8888:0:0:0:0:
109,192,7727,128,0,8888:0:0:0:0:
256,192,7727,1,0,0:0:0:0:
402,192,7727,1,0,0:0:0:0:
475,192,7727,1,0,0:0:0:0:
182,192,7921,1,0,0:0:0:0:
329,192,8017,1,0,0:0:0:0:
182,192,8114,1,0,0:0:0:0:
256,192,8211,1,0,0:0:0:0:
329,192,8308,1,0,0:0:0:0:
402,192,8404,1,0,0:0:0:0:
256,192,8501,1,0,0:0:0:0:
475,192,8598,1,0,0:0:0:0:
329,192,8695,1,0,0:0:0:0:
182,192,8759,1,0,0:0:0:0:
329,192,8824,1,0,0:0:0:0:
256,192,8888,1,0,0:0:0:0:
402,192,8888,1,0,0:0:0:0:
329,192,9082,1,0,0:0:0:0:
182,192,9082,1,0,0:0:0:0:
36,192,9082,1,0,0:0:0:0:
475,192,9082,1,0,0:0:0:0:
36,192,9275,1,0,0:0:0:0:
109,192,9275,1,0,0:0:0:0:
256,192,9275,1,0,0:0:0:0:
402,192,9275,1,0,0:0:0:0:
475,192,9275,1,0,0:0:0:0:
329,192,9372,1,0,0:0:0:0:
109,192,9469,1,0,0:0:0:0:
182,192,9566,1,0,0:0:0:0:
36,192,9566,1,0,0:0:0:0:
256,192,9566,1,0,0:0:0:0:
475,192,9566,1,0,0:0:0:0:
329,192,9566,1,0,0:0:0:0:
402,192,9663,1,0,0:0:0:0:
182,192,9759,1,0,0:0:0:0:
402,192,9856,1,0,0:0:0:0:
256,192,9856,1,0,0:0:0:0:
109,192,9856,1,0,0:0:0:0:
36,192,9856,1,0,0:0:0:0:
329,192,9856,1,0,0:0:0:0:
475,192,9953,1,0,0:0:0:0:
256,192,10050,1,0,0:0:0:0:
475,192,10146,1,0,0:0:0:0:
402,192,10146,1,0,0:0:0:0:
329,192,10146,1,0,0:0:0:0:
182,192,10146,1,0,0:0:0:0:
109,192,10146,1,0,0:0:0:0:
36,192,10243,1,0,0:0:0:0:
182,192,10308,1,0,0:0:0:0:
36,192,10372,1,0,0:0:0:0:
109,192,10437,1,0,0:0:0:0:
402,192,10437,1,0,0:0:0:0:
475,192,10437,1,0,0:0:0:0:
256,192,10437,1,0,0:0:0:0:
182,192,10533,1,0,0:0:0:0:
329,192,10630,1,0,0:0:0:0:
402,192,10630,1,0,0:0:0:0:
475,192,10630,1,0,0:0:0:0:
36,192,10630,1,0,0:0:0:0:
182,192,10727,1,0,0:0:0:0:
475,192,10824,128,0,11985:0:0:0:0:
329,192,10824,128,0,11985:0:0:0:0:
109,192,10824,1,0,0:0:0:0:
36,192,10824,1,0,0:0:0:0:
256,192,10824,1,0,0:0:0:0:
182,192,11017,1,0,0:0:0:0:
402,192,11114,1,0,0:0:0:0:
36,192,11211,1,0,0:0:0:0:
256,192,11308,1,0,0:0:0:0:
182,192,11404,1,0,0:0:0:0:
109,192,11501,1,0,0:0:0:0:
36,192,11598,1,0,0:0:0:0:
256,192,11695,1,0,0:0:0:0:
36,192,11792,1,0,0:0:0:0:
182,192,11856,1,0,0:0:0:0:
36,192,11921,1,0,0:0:0:0:
109,192,11985,1,0,0:0:0:0:
256,192,11985,1,0,0:0:0:0:
182,192,12179,128,0,13533:0:0:0:0:
36,192,12179,128,0,13533:0:0:0:0:
256,192,12179,1,0,0:0:0:0:
402,192,12179,1,0,0:0:0:0:
475,192,12179,1,0,0:0:0:0:
329,192,12275,1,0,0:0:0:0:
475,192,12372,1,0,0:0:0:0:
256,192,12469,1,0,0:0:0:0:
402,192,12566,1,0,0:0:0:0:
109,192,12663,1,0,0:0:0:0:
329,192,12759,128,0,12856:0:0:0:0:
256,192,12759,1,0,0:0:0:0:
475,192,12856,128,0,12953:0:0:0:0:
329,192,12953,128,0,13243:0:0:0:0:
256,192,12953,1,0,0:0:0:0:
475,192,13146,128,0,13243:0:0:0:0:
402,192,13146,1,0,0:0:0:0:
402,192,13340,1,0,0:0:0:0:
256,192,13404,1,0,0:0:0:0:
402,192,13469,1,0,0:0:0:0:
329,192,13533,1,0,0:0:0:0:
475,192,13533,1,0,0:0:0:0:
109,192,13533,1,0,0:0:0:0:
256,192,13630,1,0,0:0:0:0:
182,192,13727,1,0,0:0:0:0:
36,192,13727,1,0,0:0:0:0:
402,192,13727,1,0,0:0:0:0:
256,192,13824,1,0,0:0:0:0:
475,192,13921,128,0,15082:0:0:0:0:
329,192,13921,128,0,15082:0:0:0:0:
109,192,13921,1,0,0:0:0:0:
36,192,13921,1,0,0:0:0:0:
402,192,13921,1,0,0:0:0:0:
182,192,14114,1,0,0:0:0:0:
36,192,14211,1,0,0:0:0:0:
256,192,14308,1,0,0:0:0:0:
109,192,14404,1,0,0:0:0:0:
402,192,14501,1,0,0:0:0:0:
256,192,14598,1,0,0:0:0:0:
182,192,14695,1,0,0:0:0:0:
109,192,14792,1,0,0:0:0:0:
36,192,14888,1,0,0:0:0:0:
182,192,14953,1,0,0:0:0:0:
36,192,15017,1,0,0:0:0:0:
109,192,15082,1,0,0:0:0:0:
256,192,15082,1,0,0:0:0:0:
256,192,15275,128,0,17017:0:0:0:0:
402,192,15275,1,0,0:0:0:0:
475,192,15275,1,0,0:0:0:0:
182,192,15275,1,0,0:0:0:0:
36,192,15275,1,0,0:0:0:0:
329,192,15469,1,0,0:0:0:0:
182,192,15566,1,0,0:0:0:0:
402,192,15663,1,0,0:0:0:0:
109,192,15759,1,0,0:0:0:0:
475,192,15856,1,0,0:0:0:0:
36,192,15953,1,0,0:0:0:0:
402,192,16050,1,0,0:0:0:0:
109,192,16146,1,0,0:0:0:0:
329,192,16243,1,0,0:0:0:0:
182,192,16340,1,0,0:0:0:0:
475,192,16437,1,0,0:0:0:0:
329,192,16533,1,0,0:0:0:0:
182,192,16630,1,0,0:0:0:0:
36,192,16727,1,0,0:0:0:0:
182,192,16824,1,0,0:0:0:0:
329,192,16921,1,0,0:0:0:0:
475,192,17017,128,0,18566:0:0:0:0:
36,192,17017,128,0,18566:0:0:0:0:
109,192,17017,1,0,0:0:0:0:
402,192,17017,1,0,0:0:0:0:
182,192,17211,1,0,0:0:0:0:
329,192,17404,1,0,0:0:0:0:
182,192,17598,1,0,0:0:0:0:
329,192,17792,1,0,0:0:0:0:
182,192,17985,1,0,0:0:0:0:
329,192,18082,1,0,0:0:0:0:
182,192,18275,1,0,0:0:0:0:
109,192,18372,1,0,0:0:0:0:
402,192,18372,128,0,18469:0:0:0:0:
182,192,18469,1,0,0:0:0:0:
329,192,18469,128,0,18566:0:0:0:0:
256,192,18566,1,0,0:0:0:0:
402,192,18566,128,0,18663:0:0:0:0:
182,192,18663,1,0,0:0:0:0:
329,192,18663,128,0,18759:0:0:0:0:
109,192,18759,1,0,0:0:0:0:
256,192,18759,128,0,18953:0:0:0:0:
182,192,18953,128,0,19146:0:0:0:0:
36,192,18953,1,0,0:0:0:0:
475,192,18953,1,0,0:0:0:0:
109,192,19146,128,0,19340:0:0:0:0:
402,192,19146,1,0,0:0:0:0:
36,192,19340,128,0,19437:0:0:0:0:
329,192,19340,1,0,0:0:0:0:
36,192,19533,1,0,0:0:0:0:
182,192,19533,1,0,0:0:0:0:
256,192,19533,1,0,0:0:0:0:
402,192,19533,1,0,0:0:0:0:
475,192,19533,1,0,0:0:0:0:
329,192,19727,1,0,0:0:0:0:
182,192,19727,1,0,0:0:0:0:
109,192,19727,1,0,0:0:0:0:
402,192,19727,1,0,0:0:0:0:
475,192,19727,1,0,0:0:0:0:
182,192,19921,1,0,0:0:0:0:
256,192,19921,1,0,0:0:0:0:
36,192,19921,1,0,0:0:0:0:
402,192,19921,1,0,0:0:0:0:
475,192,19921,1,0,0:0:0:0:
329,192,20114,1,0,0:0:0:0:
109,192,20114,1,0,0:0:0:0:
182,192,20114,1,0,0:0:0:0:
475,192,20114,128,0,21469:0:0:0:0:
36,192,20114,128,0,21469:0:0:0:0:
109,192,20308,1,0,0:0:0:0:
402,192,20501,1,0,0:0:0:0:
109,192,20695,1,0,0:0:0:0:
402,192,20888,1,0,0:0:0:0:
109,192,21082,1,0,0:0:0:0:
402,192,21179,1,0,0:0:0:0:
109,192,21275,1,0,0:0:0:0:
182,192,21324,1,0,0:0:0:0:
256,192,21372,1,0,0:0:0:0:
329,192,21421,1,0,0:0:0:0:
402,192,21469,1,0,0:0:0:0:
182,192,21469,1,0,0:0:0:0:
109,192,21566,1,0,0:0:0:0:
36,192,21566,128,0,21663:0:0:0:0:
329,192,21663,1,0,0:0:0:0:
256,192,21663,128,0,21759:0:0:0:0:
182,192,21759,1,0,0:0:0:0:
109,192,21759,128,0,21856:0:0:0:0:
402,192,21856,1,0,0:0:0:0:
329,192,21856,128,0,21953:0:0:0:0:
256,192,21953,1,0,0:0:0:0:
182,192,21953,128,0,22050:0:0:0:0:
475,192,22050,1,0,0:0:0:0:
402,192,22050,128,0,22146:0:0:0:0:
182,192,22146,1,0,0:0:0:0:
109,192,22146,128,0,22243:0:0:0:0:
402,192,22243,1,0,0:0:0:0:
329,192,22243,1,0,0:0:0:0:
109,192,22308,1,0,0:0:0:0:
36,192,22308,1,0,0:0:0:0:
256,192,22372,1,0,0:0:0:0:
329,192,22372,1,0,0:0:0:0:
182,192,22437,1,0,0:0:0:0:
109,192,22437,1,0,0:0:0:0:
402,192,22437,1,0,0:0:0:0:
475,192,22437,1,0,0:0:0:0:
329,192,22533,1,0,0:0:0:0:
182,192,22630,1,0,0:0:0:0:
109,192,22727,1,0,0:0:0:0:
36,192,22727,1,0,0:0:0:0:
329,192,22727,1,0,0:0:0:0:
402,192,22727,1,0,0:0:0:0:
182,192,22824,1,0,0:0:0:0:
329,192,22921,1,0,0:0:0:0:
182,192,23017,1,0,0:0:0:0:
109,192,23017,1,0,0:0:0:0:
402,192,23017,1,0,0:0:0:0:
475,192,23017,1,0,0:0:0:0:
329,192,23211,128,0,23598:0:0:0:0:
256,192,23211,128,0,23598:0:0:0:0:
182,192,23211,128,0,23598:0:0:0:0:
475,192,23211,128,0,23792:0:0:0:0:
36,192,23211,128,0,23598:0:0:0:0:
36,192,23792,1,0,0:0:0:0:
109,192,23792,1,0,0:0:0:0:
402,192,23792,1,0,0:0:0:0:
256,192,23792,1,0,0:0:0:0:
36,192,23985,128,0,24566:0:0:0:0:
109,192,23985,128,0,24372:0:0:0:0:
256,192,23985,128,0,24372:0:0:0:0:
402,192,23985,128,0,24372:0:0:0:0:
475,192,23985,128,0,24372:0:0:0:0:
475,192,24566,1,0,0:0:0:0:
329,192,24566,1,0,0:0:0:0:
256,192,24566,1,0,0:0:0:0:
402,192,24566,1,0,0:0:0:0:
475,192,24759,128,0,25340:0:0:0:0:
109,192,24759,128,0,25146:0:0:0:0:
402,192,24759,128,0,25146:0:0:0:0:
256,192,24759,128,0,25146:0:0:0:0:
329,192,24759,128,0,25146:0:0:0:0:
109,192,25340,1,0,0:0:0:0:
182,192,25340,1,0,0:0:0:0:
256,192,25340,1,0,0:0:0:0:
36,192,25340,1,0,0:0:0:0:
109,192,25533,128,0,26114:0:0:0:0:
256,192,25533,128,0,25921:0:0:0:0:
182,192,25533,128,0,25921:0:0:0:0:
36,192,25533,128,0,25921:0:0:0:0:
402,192,25533,1,0,0:0:0:0:
475,192,25727,1,0,0:0:0:0:
329,192,25824,1,0,0:0:0:0:
475,192,25921,1,0,0:0:0:0:
329,192,26017,1,0,0:0:0:0:
182,192,26114,1,0,0:0:0:0:
36,192,26211,1,0,0:0:0:0:
475,192,26308,1,0,0:0:0:0:
402,192,26308,1,0,0:0:0:0:
256,192,26308,1,0,0:0:0:0:
36,192,26404,1,0,0:0:0:0:
109,192,26404,1,0,0:0:0:0:
402,192,26501,1,0,0:0:0:0:
475,192,26501,1,0,0:0:0:0:
36,192,26598,1,0,0:0:0:0:
109,192,26598,1,0,0:0:0:0:
329,192,26695,1,0,0:0:0:0:
475,192,26695,1,0,0:0:0:0:
256,192,26695,1,0,0:0:0:0:
182,192,26792,1,0,0:0:0:0:
36,192,26792,1,0,0:0:0:0:
329,192,26888,1,0,0:0:0:0:
475,192,26888,1,0,0:0:0:0:
182,192,26985,1,0,0:0:0:0:
36,192,26985,1,0,0:0:0:0:
475,192,27082,1,0,0:0:0:0:
256,192,27082,1,0,0:0:0:0:
402,192,27179,1,0,0:0:0:0:
182,192,27179,1,0,0:0:0:0:
329,192,27275,1,0,0:0:0:0:
109,192,27275,1,0,0:0:0:0:
256,192,27372,1,0,0:0:0:0:
36,192,27372,1,0,0:0:0:0:
402,192,27469,1,0,0:0:0:0:
475,192,27469,1,0,0:0:0:0:
36,192,27566,1,0,0:0:0:0:
256,192,27566,1,0,0:0:0:0:
109,192,27663,1,0,0:0:0:0:
329,192,27663,1,0,0:0:0:0:
182,192,27759,1,0,0:0:0:0:
402,192,27759,1,0,0:0:0:0:
256,192,27856,1,0,0:0:0:0:
475,192,27856,1,0,0:0:0:0:
36,192,27856,1,0,0:0:0:0:
329,192,28050,1,0,0:0:0:0:
182,192,28146,1,0,0:0:0:0:
329,192,28243,1,0,0:0:0:0:
182,192,28340,1,0,0:0:0:0:
109,192,28437,1,0,0:0:0:0:
36,192,28437,1,0,0:0:0:0:
109,192,28630,1,0,0:0:0:0:
182,192,28679,1,0,0:0:0:0:
256,192,28727,1,0,0:0:0:0:
329,192,28775,1,0,0:0:0:0:
402,192,28824,1,0,0:0:0:0:
475,192,28824,1,0,0:0:0:0:
109,192,28921,1,0,0:0:0:0:
36,192,28921,1,0,0:0:0:0:
329,192,29017,1,0,0:0:0:0:
475,192,29017,1,0,0:0:0:0:
182,192,29114,1,0,0:0:0:0:
36,192,29114,1,0,0:0:0:0:
329,192,29308,1,0,0:0:0:0:
475,192,29308,1,0,0:0:0:0:
36,192,29404,1,0,0:0:0:0:
182,192,29404,1,0,0:0:0:0:
402,192,29404,1,0,0:0:0:0:
329,192,29598,1,0,0:0:0:0:
475,192,29598,1,0,0:0:0:0:
109,192,29598,1,0,0:0:0:0:
36,192,29792,1,0,0:0:0:0:
475,192,29792,1,0,0:0:0:0:
109,192,29792,1,0,0:0:0:0:
402,192,29792,1,0,0:0:0:0:
182,192,29856,1,0,0:0:0:0:
256,192,29921,1,0,0:0:0:0:
329,192,29985,1,0,0:0:0:0:
182,192,30050,1,0,0:0:0:0:
109,192,30114,1,0,0:0:0:0:
36,192,30179,1,0,0:0:0:0:
475,192,30179,1,0,0:0:0:0:
402,192,30179,1,0,0:0:0:0:
256,192,30275,1,0,0:0:0:0:
182,192,30275,1,0,0:0:0:0:
329,192,30372,1,0,0:0:0:0:
402,192,30372,1,0,0:0:0:0:
182,192,30469,1,0,0:0:0:0:
109,192,30469,1,0,0:0:0:0:
475,192,30566,1,0,0:0:0:0:
329,192,30566,1,0,0:0:0:0:
36,192,30566,1,0,0:0:0:0:
182,192,30663,1,0,0:0:0:0:
256,192,30663,1,0,0:0:0:0:
256,192,30856,1,0,0:0:0:0:
329,192,30856,1,0,0:0:0:0:
182,192,30953,1,0,0:0:0:0:
36,192,30953,1,0,0:0:0:0:
109,192,30953,1,0,0:0:0:0:
475,192,31017,1,0,0:0:0:0:
402,192,31082,1,0,0:0:0:0:
329,192,31146,1,0,0:0:0:0:
109,192,31146,1,0,0:0:0:0:
402,192,31211,1,0,0:0:0:0:
475,192,31275,1,0,0:0:0:0:
256,192,31340,1,0,0:0:0:0:
109,192,31340,1,0,0:0:0:0:
36,192,31340,1,0,0:0:0:0:
329,192,31388,1,0,0:0:0:0:
402,192,31437,1,0,0:0:0:0:
475,192,31485,1,0,0:0:0:0:
36,192,31533,1,0,0:0:0:0:
109,192,31582,1,0,0:0:0:0:
182,192,31630,1,0,0:0:0:0:
256,192,31679,1,0,0:0:0:0:
475,192,31727,1,0,0:0:0:0:
329,192,31727,1,0,0:0:0:0:
402,192,31727,1,0,0:0:0:0:
182,192,31775,1,0,0:0:0:0:
109,192,31824,1,0,0:0:0:0:
36,192,31872,1,0,0:0:0:0:
402,192,31921,1,0,0:0:0:0:
329,192,31969,1,0,0:0:0:0:
256,192,32017,1,0,0:0:0:0:
182,192,32066,1,0,0:0:0:0:
109,192,32114,1,0,0:0:0:0:
36,192,32114,1,0,0:0:0:0:
475,192,32114,1,0,0:0:0:0:
329,192,32211,1,0,0:0:0:0:
109,192,32308,1,0,0:0:0:0:
36,192,32308,1,0,0:0:0:0:
329,192,32404,1,0,0:0:0:0:
36,192,32501,1,0,0:0:0:0:
256,192,32501,1,0,0:0:0:0:
475,192,32501,1,0,0:0:0:0:
475,192,32888,1,0,0:0:0:0:
402,192,32888,1,0,0:0:0:0:
109,192,32888,1,0,0:0:0:0:
36,192,32888,1,0,0:0:0:0:
182,192,32985,1,0,0:0:0:0:
329,192,32985,1,0,0:0:0:0:
256,192,33082,1,0,0:0:0:0:
182,192,33179,1,0,0:0:0:0:
329,192,33179,1,0,0:0:0:0:
475,192,33275,1,0,0:0:0:0:
109,192,33275,1,0,0:0:0:0:
36,192,33275,1,0,0:0:0:0:
256,192,33275,1,0,0:0:0:0:
402,192,33372,1,0,0:0:0:0:
182,192,33372,1,0,0:0:0:0:
109,192,33469,1,0,0:0:0:0:
329,192,33469,1,0,0:0:0:0:
402,192,33566,1,0,0:0:0:0:
182,192,33566,1,0,0:0:0:0:
256,192,33663,1,0,0:0:0:0:
475,192,33663,1,0,0:0:0:0:
36,192,33663,1,0,0:0:0:0:
256,192,33759,1,0,0:0:0:0:
109,192,33856,1,0,0:0:0:0:
402,192,33856,1,0,0:0:0:0:
329,192,34050,1,0,0:0:0:0:
475,192,34050,1,0,0:0:0:0:
182,192,34114,1,0,0:0:0:0:
36,192,34114,1,0,0:0:0:0:
329,192,34179,1,0,0:0:0:0:
475,192,34179,1,0,0:0:0:0:
36,192,34243,1,0,0:0:0:0:
109,192,34243,1,0,0:0:0:0:
256,192,34243,1,0,0:0:0:0:
402,192,34243,1,0,0:0:0:0:
182,192,34437,1,0,0:0:0:0:
329,192,34437,1,0,0:0:0:0:
475,192,34437,1,0,0:0:0:0:
475,192,34533,1,0,0:0:0:0:
329,192,34533,1,0,0:0:0:0:
182,192,34533,1,0,0:0:0:0:
402,192,34727,1,0,0:0:0:0:
256,192,34727,1,0,0:0:0:0:
109,192,34727,1,0,0:0:0:0:
329,192,34921,1,0,0:0:0:0:
182,192,34921,1,0,0:0:0:0:
36,192,34921,1,0,0:0:0:0:
36,192,35017,1,0,0:0:0:0:
182,192,35017,1,0,0:0:0:0:
329,192,35017,1,0,0:0:0:0:
475,192,35211,1,0,0:0:0:0:
402,192,35211,1,0,0:0:0:0:
109,192,35211,1,0,0:0:0:0:
36,192,35211,1,0,0:0:0:0:
329,192,35308,1,0,0:0:0:0:
182,192,35308,1,0,0:0:0:0:
256,192,35404,1,0,0:0:0:0:
36,192,35404,1,0,0:0:0:0:
475,192,35404,1,0,0:0:0:0:
182,192,35501,1,0,0:0:0:0:
329,192,35501,1,0,0:0:0:0:
402,192,35598,1,0,0:0:0:0:
475,192,35598,1,0,0:0:0:0:
109,192,35598,1,0,0:0:0:0:
36,192,35598,1,0,0:0:0:0:
256,192,35792,1,0,0:0:0:0:
475,192,35985,1,0,0:0:0:0:
182,192,35985,1,0,0:0:0:0:
109,192,35985,1,0,0:0:0:0:
36,192,35985,1,0,0:0:0:0:
402,192,36050,1,0,0:0:0:0:
329,192,36114,1,0,0:0:0:0:
256,192,36179,1,0,0:0:0:0:
36,192,36179,1,0,0:0:0:0:
329,192,36243,1,0,0:0:0:0:
402,192,36308,1,0,0:0:0:0:
475,192,36372,1,0,0:0:0:0:
182,192,36372,1,0,0:0:0:0:
109,192,36372,1,0,0:0:0:0:
329,192,36469,1,0,0:0:0:0:
402,192,36469,1,0,0:0:0:0:
109,192,36566,1,0,0:0:0:0:
36,192,36566,1,0,0:0:0:0:
256,192,36663,1,0,0:0:0:0:
329,192,36663,1,0,0:0:0:0:
36,192,36759,1,0,0:0:0:0:
475,192,36759,1,0,0:0:0:0:
109,192,36759,1,0,0:0:0:0:
256,192,36856,1,0,0:0:0:0:
182,192,36856,1,0,0:0:0:0:
256,192,37050,1,0,0:0:0:0:
182,192,37050,1,0,0:0:0:0:
109,192,37146,1,0,0:0:0:0:
36,192,37146,1,0,0:0:0:0:
475,192,37146,1,0,0:0:0:0:
402,192,37195,1,0,0:0:0:0:
329,192,37243,1,0,0:0:0:0:
256,192,37292,1,0,0:0:0:0:
36,192,37340,1,0,0:0:0:0:
109,192,37388,1,0,0:0:0:0:
182,192,37437,1,0,0:0:0:0:
256,192,37485,1,0,0:0:0:0:
329,192,37533,1,0,0:0:0:0:
475,192,37533,1,0,0:0:0:0:
36,192,37533,1,0,0:0:0:0:
109,192,37630,1,0,0:0:0:0:
256,192,37630,1,0,0:0:0:0:
182,192,37727,1,0,0:0:0:0:
402,192,37727,1,0,0:0:0:0:
329,192,37824,1,0,0:0:0:0:
475,192,37824,1,0,0:0:0:0:
256,192,37921,1,0,0:0:0:0:
109,192,37921,1,0,0:0:0:0:
36,192,37921,1,0,0:0:0:0:
402,192,38017,1,0,0:0:0:0:
182,192,38114,1,0,0:0:0:0:
36,192,38114,1,0,0:0:0:0:
256,192,38211,1,0,0:0:0:0:
402,192,38211,1,0,0:0:0:0:
329,192,38308,1,0,0:0:0:0:
109,192,38308,1,0,0:0:0:0:
36,192,38308,1,0,0:0:0:0:
475,192,38404,1,0,0:0:0:0:
182,192,38404,1,0,0:0:0:0:
329,192,38501,1,0,0:0:0:0:
109,192,38501,1,0,0:0:0:0:
36,192,38501,1,0,0:0:0:0:
256,192,38598,1,0,0:0:0:0:
402,192,38598,1,0,0:0:0:0:
475,192,38695,1,0,0:0:0:0:
182,192,38695,1,0,0:0:0:0:
329,192,38695,1,0,0:0:0:0:
36,192,39082,1,0,0:0:0:0:
109,192,39082,1,0,0:0:0:0:
256,192,39082,1,0,0:0:0:0:
402,192,39179,1,0,0:0:0:0:
475,192,39179,1,0,0:0:0:0:
182,192,39275,1,0,0:0:0:0:
109,192,39275,1,0,0:0:0:0:
329,192,39340,1,0,0:0:0:0:
402,192,39340,1,0,0:0:0:0:
109,192,39404,1,0,0:0:0:0:
182,192,39404,1,0,0:0:0:0:
256,192,39469,1,0,0:0:0:0:
402,192,39469,1,0,0:0:0:0:
475,192,39469,1,0,0:0:0:0:
182,192,39566,1,0,0:0:0:0:
329,192,39566,1,0,0:0:0:0:
402,192,39663,1,0,0:0:0:0:
475,192,39663,1,0,0:0:0:0:
109,192,39759,1,0,0:0:0:0:
36,192,39759,1,0,0:0:0:0:
256,192,39759,1,0,0:0:0:0:
182,192,39856,1,0,0:0:0:0:
329,192,39856,1,0,0:0:0:0:
109,192,39953,1,0,0:0:0:0:
36,192,39953,1,0,0:0:0:0:
256,192,40050,1,0,0:0:0:0:
402,192,40050,1,0,0:0:0:0:
475,192,40050,1,0,0:0:0:0:
329,192,40146,1,0,0:0:0:0:
182,192,40146,1,0,0:0:0:0:
256,192,40243,1,0,0:0:0:0:
36,192,40243,1,0,0:0:0:0:
475,192,40243,1,0,0:0:0:0:
402,192,40437,1,0,0:0:0:0:
329,192,40533,1,0,0:0:0:0:
109,192,40630,1,0,0:0:0:0:
182,192,40679,1,0,0:0:0:0:
256,192,40727,1,0,0:0:0:0:
329,192,40775,1,0,0:0:0:0:
402,192,40824,1,0,0:0:0:0:
475,192,40824,1,0,0:0:0:0:
109,192,40921,1,0,0:0:0:0:
36,192,40921,1,0,0:0:0:0:
329,192,41017,1,0,0:0:0:0:
475,192,41017,1,0,0:0:0:0:
329,192,41114,1,0,0:0:0:0:
475,192,41114,1,0,0:0:0:0:
182,192,41211,1,0,0:0:0:0:
36,192,41211,1,0,0:0:0:0:
36,192,41308,1,0,0:0:0:0:
182,192,41308,1,0,0:0:0:0:
475,192,41404,1,0,0:0:0:0:
329,192,41453,1,0,0:0:0:0:
182,192,41501,1,0,0:0:0:0:
36,192,41550,1,0,0:0:0:0:
475,192,41598,1,0,0:0:0:0:
329,192,41598,1,0,0:0:0:0:
256,192,41646,1,0,0:0:0:0:
182,192,41695,1,0,0:0:0:0:
402,192,41695,1,0,0:0:0:0:
109,192,41743,1,0,0:0:0:0:
475,192,41792,1,0,0:0:0:0:
329,192,41792,1,0,0:0:0:0:
36,192,41792,1,0,0:0:0:0:
182,192,41985,1,0,0:0:0:0:
36,192,41985,1,0,0:0:0:0:
475,192,41985,1,0,0:0:0:0:
475,192,42179,1,0,0:0:0:0:
36,192,42179,1,0,0:0:0:0:
402,192,42179,1,0,0:0:0:0:
109,192,42179,1,0,0:0:0:0:
329,192,42243,1,0,0:0:0:0:
256,192,42308,1,0,0:0:0:0:
182,192,42372,1,0,0:0:0:0:
329,192,42437,1,0,0:0:0:0:
402,192,42501,1,0,0:0:0:0:
475,192,42566,1,0,0:0:0:0:
36,192,42566,1,0,0:0:0:0:
109,192,42566,1,0,0:0:0:0:
256,192,42663,1,0,0:0:0:0:
329,192,42663,1,0,0:0:0:0:
182,192,42759,1,0,0:0:0:0:
109,192,42759,1,0,0:0:0:0:
329,192,42856,1,0,0:0:0:0:
402,192,42856,1,0,0:0:0:0:
36,192,42953,1,0,0:0:0:0:
182,192,42953,1,0,0:0:0:0:
475,192,42953,1,0,0:0:0:0:
329,192,43050,1,0,0:0:0:0:
256,192,43050,1,0,0:0:0:0:
256,192,43243,1,0,0:0:0:0:
182,192,43243,1,0,0:0:0:0:
36,192,43340,1,0,0:0:0:0:
475,192,43340,1,0,0:0:0:0:
402,192,43340,1,0,0:0:0:0:
329,192,43404,1,0,0:0:0:0:
256,192,43469,1,0,0:0:0:0:
36,192,43533,1,0,0:0:0:0:
402,192,43533,1,0,0:0:0:0:
109,192,43598,1,0,0:0:0:0:
182,192,43663,1,0,0:0:0:0:
256,192,43727,1,0,0:0:0:0:
402,192,43727,1,0,0:0:0:0:
475,192,43727,1,0,0:0:0:0:
329,192,43824,1,0,0:0:0:0:
182,192,43824,1,0,0:0:0:0:
36,192,43921,1,0,0:0:0:0:
109,192,43921,1,0,0:0:0:0:
182,192,44017,1,0,0:0:0:0:
329,192,44017,1,0,0:0:0:0:
475,192,44114,1,0,0:0:0:0:
402,192,44114,1,0,0:0:0:0:
256,192,44114,1,0,0:0:0:0:
182,192,44163,1,0,0:0:0:0:
109,192,44211,1,0,0:0:0:0:
329,192,44211,1,0,0:0:0:0:
402,192,44308,1,0,0:0:0:0:
182,192,44308,1,0,0:0:0:0:
256,192,44404,1,0,0:0:0:0:
109,192,44404,1,0,0:0:0:0:
36,192,44404,1,0,0:0:0:0:
329,192,44453,1,0,0:0:0:0:
402,192,44501,1,0,0:0:0:0:
475,192,44501,1,0,0:0:0:0:
182,192,44501,1,0,0:0:0:0:
256,192,44598,1,0,0:0:0:0:
402,192,44695,1,0,0:0:0:0:
475,192,44695,1,0,0:0:0:0:
109,192,44695,1,0,0:0:0:0:
36,192,44695,1,0,0:0:0:0:
256,192,44792,1,0,0:0:0:0:
475,192,44888,1,0,0:0:0:0:
36,192,44888,1,0,0:0:0:0:
182,192,44888,1,0,0:0:0:0:
329,192,44985,1,0,0:0:0:0:
256,192,45082,1,0,0:0:0:0:
109,192,45082,1,0,0:0:0:0:
182,192,45082,1,0,0:0:0:0:
402,192,45082,1,0,0:0:0:0:
329,192,45275,1,0,0:0:0:0:
475,192,45275,1,0,0:0:0:0:
182,192,45372,1,0,0:0:0:0:
402,192,45469,1,0,0:0:0:0:
256,192,45566,1,0,0:0:0:0:
109,192,45566,1,0,0:0:0:0:
36,192,45663,1,0,0:0:0:0:
402,192,45663,1,0,0:0:0:0:
475,192,45663,1,0,0:0:0:0:
182,192,45663,1,0,0:0:0:0:
329,192,45759,1,0,0:0:0:0:
256,192,45856,1,0,0:0:0:0:
109,192,45856,1,0,0:0:0:0:
402,192,45856,1,0,0:0:0:0:
475,192,45856,1,0,0:0:0:0:
182,192,45953,1,0,0:0:0:0:
36,192,46050,1,0,0:0:0:0:
475,192,46050,1,0,0:0:0:0:
109,192,46050,1,0,0:0:0:0:
256,192,46114,1,0,0:0:0:0:
329,192,46179,1,0,0:0:0:0:
402,192,46243,1,0,0:0:0:0:
329,192,46308,1,0,0:0:0:0:
256,192,46372,1,0,0:0:0:0:
109,192,46437,1,0,0:0:0:0:
36,192,46437,1,0,0:0:0:0:
402,192,46501,1,0,0:0:0:0:
475,192,46501,1,0,0:0:0:0:
109,192,46566,1,0,0:0:0:0:
36,192,46566,1,0,0:0:0:0:
475,192,46630,1,0,0:0:0:0:
402,192,46630,1,0,0:0:0:0:
256,192,46630,1,0,0:0:0:0:
329,192,46630,1,0,0:0:0:0:
329,192,46824,1,0,0:0:0:0:
182,192,46824,1,0,0:0:0:0:
475,192,46824,1,0,0:0:0:0:
475,192,46921,1,0,0:0:0:0:
182,192,46921,1,0,0:0:0:0:
329,192,46921,1,0,0:0:0:0:
109,192,47114,1,0,0:0:0:0:
256,192,47114,1,0,0:0:0:0:
402,192,47114,1,0,0:0:0:0:
182,192,47308,1,0,0:0:0:0:
329,192,47308,1,0,0:0:0:0:
36,192,47308,1,0,0:0:0:0:
36,192,47404,1,0,0:0:0:0:
329,192,47404,1,0,0:0:0:0:
182,192,47404,1,0,0:0:0:0:
36,192,47598,1,0,0:0:0:0:
109,192,47598,1,0,0:0:0:0:
402,192,47598,1,0,0:0:0:0:
475,192,47598,1,0,0:0:0:0:
182,192,47695,1,0,0:0:0:0:
329,192,47695,1,0,0:0:0:0:
256,192,47792,1,0,0:0:0:0:
475,192,47792,1,0,0:0:0:0:
36,192,47792,1,0,0:0:0:0:
329,192,47888,1,0,0:0:0:0:
182,192,47888,1,0,0:0:0:0:
109,192,47985,1,0,0:0:0:0:
36,192,47985,1,0,0:0:0:0:
402,192,47985,1,0,0:0:0:0:
475,192,47985,1,0,0:0:0:0:
256,192,48179,1,0,0:0:0:0:
36,192,48372,1,0,0:0:0:0:
329,192,48372,1,0,0:0:0:0:
402,192,48372,1,0,0:0:0:0:
475,192,48372,1,0,0:0:0:0:
109,192,48437,1,0,0:0:0:0:
182,192,48501,1,0,0:0:0:0:
256,192,48566,1,0,0:0:0:0:
475,192,48566,1,0,0:0:0:0:
182,192,48630,1,0,0:0:0:0:
109,192,48695,1,0,0:0:0:0:
36,192,48759,1,0,0:0:0:0:
475,192,48759,1,0,0:0:0:0:
402,192,48759,1,0,0:0:0:0:
256,192,48856,1,0,0:0:0:0:
109,192,48856,1,0,0:0:0:0:
329,192,48953,1,0,0:0:0:0:
475,192,48953,1,0,0:0:0:0:
182,192,49050,1,0,0:0:0:0:
36,192,49050,1,0,0:0:0:0:
475,192,49146,1,0,0:0:0:0:
256,192,49146,1,0,0:0:0:0:
402,192,49146,1,0,0:0:0:0:
109,192,49243,1,0,0:0:0:0:
36,192,49243,1,0,0:0:0:0:
36,192,49437,1,0,0:0:0:0:
109,192,49437,1,0,0:0:0:0:
402,192,49533,1,0,0:0:0:0:
475,192,49533,1,0,0:0:0:0:
182,192,49533,1,0,0:0:0:0:
256,192,49582,1,0,0:0:0:0:
329,192,49630,1,0,0:0:0:0:
402,192,49679,1,0,0:0:0:0:
256,192,49727,1,0,0:0:0:0:
182,192,49775,1,0,0:0:0:0:
109,192,49824,1,0,0:0:0:0:
36,192,49872,1,0,0:0:0:0:
256,192,49921,1,0,0:0:0:0:
402,192,49921,1,0,0:0:0:0:
475,192,49921,1,0,0:0:0:0:
329,192,50017,1,0,0:0:0:0:
182,192,50017,1,0,0:0:0:0:
256,192,50114,1,0,0:0:0:0:
109,192,50114,1,0,0:0:0:0:
182,192,50211,1,0,0:0:0:0:
36,192,50211,1,0,0:0:0:0:
256,192,50308,1,0,0:0:0:0:
402,192,50308,1,0,0:0:0:0:
475,192,50308,1,0,0:0:0:0:
109,192,50404,1,0,0:0:0:0:
36,192,50404,1,0,0:0:0:0:
329,192,50501,1,0,0:0:0:0:
475,192,50501,1,0,0:0:0:0:
109,192,50598,1,0,0:0:0:0:
182,192,50598,1,0,0:0:0:0:
402,192,50695,1,0,0:0:0:0:
475,192,50695,1,0,0:0:0:0:
256,192,50695,1,0,0:0:0:0:
36,192,50792,1,0,0:0:0:0:
329,192,50792,1,0,0:0:0:0:
402,192,50888,1,0,0:0:0:0:
475,192,50888,1,0,0:0:0:0:
109,192,50888,1,0,0:0:0:0:
329,192,50985,1,0,0:0:0:0:
182,192,50985,1,0,0:0:0:0:
36,192,51082,1,0,0:0:0:0:
475,192,51082,1,0,0:0:0:0:
256,192,51082,1,0,0:0:0:0:
109,192,51082,1,0,0:0:0:0:
182,192,51275,1,0,0:0:0:0:
329,192,51372,1,0,0:0:0:0:
256,192,51469,1,0,0:0:0:0:
36,192,51469,1,0,0:0:0:0:
109,192,51469,1,0,0:0:0:0:
475,192,51469,1,0,0:0:0:0:
329,192,51663,1,0,0:0:0:0:
402,192,51663,1,0,0:0:0:0:
182,192,51727,1,0,0:0:0:0:
109,192,51727,1,0,0:0:0:0:
402,192,51792,1,0,0:0:0:0:
329,192,51792,1,0,0:0:0:0:
256,192,51856,1,0,0:0:0:0:
109,192,51856,1,0,0:0:0:0:
36,192,51856,1,0,0:0:0:0:
475,192,51856,1,0,0:0:0:0:
109,192,52050,1,0,0:0:0:0:
182,192,52098,1,0,0:0:0:0:
256,192,52146,1,0,0:0:0:0:
329,192,52195,1,0,0:0:0:0:
402,192,52243,1,0,0:0:0:0:
109,192,52243,1,0,0:0:0:0:
36,192,52243,1,0,0:0:0:0:
475,192,52243,1,0,0:0:0:0:
256,192,52340,1,0,0:0:0:0:
475,192,52437,1,0,0:0:0:0:
402,192,52469,1,0,0:0:0:0:
329,192,52501,1,0,0:0:0:0:
256,192,52533,1,0,0:0:0:0:
182,192,52566,1,0,0:0:0:0:
109,192,52598,1,0,0:0:0:0:
475,192,52630,1,0,0:0:0:0:
36,192,52630,1,0,0:0:0:0:
402,192,52630,1,0,0:0:0:0:
109,192,52824,1,0,0:0:0:0:
182,192,52921,1,0,0:0:0:0:
402,192,53017,1,0,0:0:0:0:
329,192,53066,1,0,0:0:0:0:
256,192,53114,1,0,0:0:0:0:
182,192,53163,1,0,0:0:0:0:
109,192,53211,1,0,0:0:0:0:
36,192,53211,1,0,0:0:0:0:
402,192,53308,1,0,0:0:0:0:
475,192,53308,1,0,0:0:0:0:
182,192,53404,1,0,0:0:0:0:
36,192,53404,1,0,0:0:0:0:
256,192,53501,1,0,0:0:0:0:
109,192,53501,1,0,0:0:0:0:
329,192,53598,1,0,0:0:0:0:
182,192,53598,1,0,0:0:0:0:
475,192,53695,1,0,0:0:0:0:
256,192,53695,1,0,0:0:0:0:
36,192,53792,1,0,0:0:0:0:
182,192,53840,1,0,0:0:0:0:
329,192,53888,1,0,0:0:0:0:
475,192,53937,1,0,0:0:0:0:
36,192,53985,1,0,0:0:0:0:
182,192,53985,1,0,0:0:0:0:
256,192,54033,1,0,0:0:0:0:
329,192,54082,1,0,0:0:0:0:
109,192,54082,1,0,0:0:0:0:
402,192,54130,1,0,0:0:0:0:
182,192,54179,1,0,0:0:0:0:
475,192,54179,1,0,0:0:0:0:
36,192,54179,1,0,0:0:0:0:
256,192,54372,128,0,54469:0:0:0:0:
402,192,54372,128,0,54566:0:0:0:0:
182,192,54469,128,0,54566:0:0:0:0:
329,192,54566,1,0,0:0:0:0:
109,192,54566,128,0,54663:0:0:0:0:
475,192,54566,128,0,54759:0:0:0:0:
256,192,54663,128,0,54759:0:0:0:0:
182,192,54759,128,0,54856:0:0:0:0:
402,192,54759,128,0,54953:0:0:0:0:
256,192,54856,128,0,54953:0:0:0:0:
329,192,54953,1,0,0:0:0:0:
109,192,54953,128,0,55050:0:0:0:0:
475,192,54953,128,0,55146:0:0:0:0:
182,192,55050,128,0,55146:0:0:0:0:
256,192,55146,128,0,55243:0:0:0:0:
36,192,55146,128,0,55340:0:0:0:0:
329,192,55243,128,0,55340:0:0:0:0:
402,192,55340,128,0,55437:0:0:0:0:
475,192,55340,128,0,55437:0:0:0:0:
256,192,55340,128,0,55727:0:0:0:0:
182,192,55437,128,0,55533:0:0:0:0:
109,192,55437,128,0,55533:0:0:0:0:
329,192,55533,128,0,55630:0:0:0:0:
402,192,55533,128,0,55630:0:0:0:0:
109,192,55630,128,0,55727:0:0:0:0:
36,192,55630,128,0,55727:0:0:0:0:
182,192,55727,1,0,0:0:0:0:
402,192,55727,1,0,0:0:0:0:
475,192,55727,128,0,55921:0:0:0:0:
329,192,55727,128,0,55921:0:0:0:0:
256,192,55824,1,0,0:0:0:0:
109,192,55921,1,0,0:0:0:0:
256,192,56017,128,0,56211:0:0:0:0:
402,192,56017,128,0,56211:0:0:0:0:
475,192,56017,1,0,0:0:0:0:
182,192,56114,1,0,0:0:0:0:
36,192,56211,1,0,0:0:0:0:
182,192,56308,128,0,56501:0:0:0:0:
329,192,56308,128,0,56501:0:0:0:0:
402,192,56308,1,0,0:0:0:0:
109,192,56404,1,0,0:0:0:0:
402,192,56501,1,0,0:0:0:0:
109,192,56598,128,0,56792:0:0:0:0:
256,192,56598,128,0,56792:0:0:0:0:
36,192,56598,1,0,0:0:0:0:
329,192,56695,1,0,0:0:0:0:
475,192,56792,1,0,0:0:0:0:
182,192,56888,128,0,57275:0:0:0:0:
36,192,56888,128,0,57275:0:0:0:0:
109,192,56888,1,0,0:0:0:0:
475,192,57082,128,0,57275:0:0:0:0:
329,192,57082,128,0,57275:0:0:0:0:
402,192,57082,1,0,0:0:0:0:
109,192,57275,1,0,0:0:0:0:
256,192,57275,1,0,0:0:0:0:
256,192,57469,128,0,57566:0:0:0:0:
109,192,57469,128,0,57663:0:0:0:0:
329,192,57566,128,0,57663:0:0:0:0:
182,192,57663,1,0,0:0:0:0:
402,192,57663,128,0,57759:0:0:0:0:
36,192,57663,128,0,57856:0:0:0:0:
256,192,57759,128,0,57856:0:0:0:0:
329,192,57856,128,0,57953:0:0:0:0:
109,192,57856,128,0,58050:0:0:0:0:
256,192,57953,128,0,58050:0:0:0:0:
182,192,58050,1,0,0:0:0:0:
402,192,58050,128,0,58146:0:0:0:0:
36,192,58050,128,0,58243:0:0:0:0:
329,192,58146,128,0,58243:0:0:0:0:
256,192,58243,128,0,58340:0:0:0:0:
475,192,58243,128,0,58437:0:0:0:0:
182,192,58340,128,0,58437:0:0:0:0:
36,192,58437,1,0,0:0:0:0:
109,192,58437,1,0,0:0:0:0:
329,192,58501,1,0,0:0:0:0:
402,192,58501,1,0,0:0:0:0:
182,192,58566,1,0,0:0:0:0:
109,192,58566,1,0,0:0:0:0:
402,192,58630,1,0,0:0:0:0:
475,192,58630,128,0,58824:0:0:0:0:
329,192,58824,1,0,0:0:0:0:
109,192,58824,1,0,0:0:0:0:
182,192,58824,1,0,0:0:0:0:
36,192,58824,1,0,0:0:0:0:
256,192,58921,1,0,0:0:0:0:
402,192,59017,1,0,0:0:0:0:
109,192,59114,1,0,0:0:0:0:
256,192,59114,1,0,0:0:0:0:
475,192,59114,1,0,0:0:0:0:
36,192,59114,1,0,0:0:0:0:
329,192,59211,1,0,0:0:0:0:
475,192,59308,1,0,0:0:0:0:
182,192,59404,1,0,0:0:0:0:
329,192,59404,1,0,0:0:0:0:
36,192,59404,1,0,0:0:0:0:
109,192,59404,1,0,0:0:0:0:
402,192,59501,1,0,0:0:0:0:
109,192,59598,1,0,0:0:0:0:
256,192,59695,1,0,0:0:0:0:
402,192,59695,1,0,0:0:0:0:
475,192,59695,1,0,0:0:0:0:
36,192,59695,1,0,0:0:0:0:
182,192,59792,1,0,0:0:0:0:
36,192,59888,1,0,0:0:0:0:
329,192,59985,1,0,0:0:0:0:
402,192,59985,1,0,0:0:0:0:
109,192,59985,1,0,0:0:0:0:
475,192,59985,128,0,60179:0:0:0:0:
109,192,60179,1,0,0:0:0:0:
182,192,60179,1,0,0:0:0:0:
402,192,60179,1,0,0:0:0:0:
36,192,60179,128,0,60372:0:0:0:0:
256,192,60372,1,0,0:0:0:0:
329,192,60372,1,0,0:0:0:0:
182,192,60372,1,0,0:0:0:0:
475,192,60372,1,0,0:0:0:0:
109,192,60566,128,0,60759:0:0:0:0:
256,192,60566,128,0,60663:0:0:0:0:
329,192,60663,128,0,60759:0:0:0:0:
36,192,60759,128,0,60953:0:0:0:0:
402,192,60759,128,0,60856:0:0:0:0:
182,192,60759,1,0,0:0:0:0:
256,192,60856,128,0,60953:0:0:0:0:
109,192,60953,128,0,61146:0:0:0:0:
329,192,60953,128,0,61050:0:0:0:0:
256,192,61050,128,0,61146:0:0:0:0:
36,192,61146,128,0,61340:0:0:0:0:
402,192,61146,128,0,61243:0:0:0:0:
182,192,61146,1,0,0:0:0:0:
329,192,61243,128,0,61340:0:0:0:0:
475,192,61340,128,0,61533:0:0:0:0:
256,192,61340,128,0,61437:0:0:0:0:
182,192,61437,128,0,61533:0:0:0:0:
256,192,61533,128,0,61921:0:0:0:0:
36,192,61533,128,0,61630:0:0:0:0:
109,192,61533,128,0,61630:0:0:0:0:
402,192,61630,128,0,61727:0:0:0:0:
329,192,61630,128,0,61727:0:0:0:0:
109,192,61727,128,0,61824:0:0:0:0:
182,192,61727,128,0,61824:0:0:0:0:
475,192,61824,128,0,61921:0:0:0:0:
402,192,61824,128,0,61921:0:0:0:0:
36,192,61921,128,0,62114:0:0:0:0:
182,192,61921,128,0,62114:0:0:0:0:
329,192,61921,1,0,0:0:0:0:
109,192,61921,1,0,0:0:0:0:
256,192,62017,1,0,0:0:0:0:
402,192,62114,1,0,0:0:0:0:
109,192,62211,128,0,62404:0:0:0:0:
256,192,62211,128,0,62404:0:0:0:0:
36,192,62211,1,0,0:0:0:0:
329,192,62308,1,0,0:0:0:0:
475,192,62404,1,0,0:0:0:0:
182,192,62501,128,0,62695:0:0:0:0:
329,192,62501,128,0,62695:0:0:0:0:
109,192,62501,1,0,0:0:0:0:
402,192,62598,1,0,0:0:0:0:
109,192,62695,1,0,0:0:0:0:
256,192,62792,128,0,62985:0:0:0:0:
402,192,62792,128,0,62985:0:0:0:0:
475,192,62792,1,0,0:0:0:0:
182,192,62888,1,0,0:0:0:0:
36,192,62985,1,0,0:0:0:0:
475,192,63082,128,0,63469:0:0:0:0:
329,192,63082,128,0,63469:0:0:0:0:
402,192,63082,1,0,0:0:0:0:
109,192,63275,1,0,0:0:0:0:
182,192,63275,128,0,63469:0:0:0:0:
36,192,63275,128,0,63469:0:0:0:0:
256,192,63469,1,0,0:0:0:0:
402,192,63469,1,0,0:0:0:0:
256,192,63663,128,0,63759:0:0:0:0:
402,192,63663,128,0,63856:0:0:0:0:
182,192,63759,128,0,63856:0:0:0:0:
329,192,63856,1,0,0:0:0:0:
109,192,63856,128,0,63953:0:0:0:0:
475,192,63856,128,0,64050:0:0:0:0:
256,192,63953,128,0,64050:0:0:0:0:
182,192,64050,128,0,64146:0:0:0:0:
402,192,64050,128,0,64243:0:0:0:0:
256,192,64146,128,0,64243:0:0:0:0:
329,192,64243,1,0,0:0:0:0:
109,192,64243,128,0,64340:0:0:0:0:
475,192,64243,128,0,64437:0:0:0:0:
182,192,64340,128,0,64437:0:0:0:0:
256,192,64437,128,0,64533:0:0:0:0:
36,192,64437,128,0,64630:0:0:0:0:
329,192,64533,128,0,64630:0:0:0:0:
475,192,64630,1,0,0:0:0:0:
109,192,64630,128,0,64727:0:0:0:0:
402,192,64630,128,0,64727:0:0:0:0:
182,192,64727,128,0,64824:0:0:0:0:
329,192,64727,128,0,64824:0:0:0:0:
256,192,64824,128,0,65792:0:0:0:0:
475,192,64824,1,0,0:0:0:0:
36,192,64824,1,0,0:0:0:0:
402,192,64921,1,0,0:0:0:0:
109,192,64921,1,0,0:0:0:0:
329,192,65017,1,0,0:0:0:0:
475,192,65017,1,0,0:0:0:0:
36,192,65017,1,0,0:0:0:0:
182,192,65114,1,0,0:0:0:0:
402,192,65211,1,0,0:0:0:0:
109,192,65211,1,0,0:0:0:0:
475,192,65211,1,0,0:0:0:0:
182,192,65308,1,0,0:0:0:0:
329,192,65404,1,0,0:0:0:0:
475,192,65404,1,0,0:0:0:0:
36,192,65404,1,0,0:0:0:0:
402,192,65501,1,0,0:0:0:0:
109,192,65598,1,0,0:0:0:0:
36,192,65598,1,0,0:0:0:0:
329,192,65598,1,0,0:0:0:0:
182,192,65695,1,0,0:0:0:0:
36,192,65792,128,0,65985:0:0:0:0:
329,192,65792,128,0,65985:0:0:0:0:
109,192,65888,128,0,66082:0:0:0:0:
402,192,65888,128,0,66082:0:0:0:0:
182,192,65985,128,0,66179:0:0:0:0:
475,192,65985,128,0,66179:0:0:0:0:
36,192,66082,1,0,0:0:0:0:
256,192,66082,128,0,66275:0:0:0:0:
329,192,66179,128,0,66372:0:0:0:0:
402,192,66179,128,0,66275:0:0:0:0:
36,192,66275,128,0,66469:0:0:0:0:
109,192,66275,128,0,66372:0:0:0:0:
402,192,66372,128,0,66566:0:0:0:0:
475,192,66372,128,0,66469:0:0:0:0:
109,192,66469,128,0,66566:0:0:0:0:
182,192,66469,128,0,66566:0:0:0:0:
475,192,66566,1,0,0:0:0:0:
36,192,66566,1,0,0:0:0:0:
256,192,66566,1,0,0:0:0:0:
402,192,66663,1,0,0:0:0:0:
182,192,66663,1,0,0:0:0:0:
329,192,66759,1,0,0:0:0:0:
109,192,66759,1,0,0:0:0:0:
256,192,66856,1,0,0:0:0:0:
36,192,66856,1,0,0:0:0:0:
182,192,66953,1,0,0:0:0:0:
402,192,66953,1,0,0:0:0:0:
256,192,67017,1,0,0:0:0:0:
329,192,67082,1,0,0:0:0:0:
109,192,67146,1,0,0:0:0:0:
402,192,67146,1,0,0:0:0:0:
182,192,67243,1,0,0:0:0:0:
475,192,67243,1,0,0:0:0:0:
256,192,67340,1,0,0:0:0:0:
109,192,67340,1,0,0:0:0:0:
402,192,67437,1,0,0:0:0:0:
475,192,67437,1,0,0:0:0:0:
182,192,67533,1,0,0:0:0:0:
36,192,67533,1,0,0:0:0:0:
256,192,67598,1,0,0:0:0:0:
329,192,67663,1,0,0:0:0:0:
402,192,67727,1,0,0:0:0:0:
475,192,67727,1,0,0:0:0:0:
109,192,67824,1,0,0:0:0:0:
182,192,67824,1,0,0:0:0:0:
329,192,67921,1,0,0:0:0:0:
402,192,67921,1,0,0:0:0:0:
36,192,68017,1,0,0:0:0:0:
109,192,68017,1,0,0:0:0:0:
329,192,68114,1,0,0:0:0:0:
256,192,68114,1,0,0:0:0:0:
182,192,68179,1,0,0:0:0:0:
109,192,68243,1,0,0:0:0:0:
402,192,68308,1,0,0:0:0:0:
36,192,68372,1,0,0:0:0:0:
109,192,68437,1,0,0:0:0:0:
256,192,68501,1,0,0:0:0:0:
182,192,68501,1,0,0:0:0:0:
329,192,68566,1,0,0:0:0:0:
402,192,68630,1,0,0:0:0:0:
256,192,68695,1,0,0:0:0:0:
475,192,68759,1,0,0:0:0:0:
402,192,68824,1,0,0:0:0:0:
329,192,68888,1,0,0:0:0:0:
256,192,68888,1,0,0:0:0:0:
109,192,68953,1,0,0:0:0:0:
329,192,69017,1,0,0:0:0:0:
182,192,69082,1,0,0:0:0:0:
36,192,69082,1,0,0:0:0:0:
475,192,69082,1,0,0:0:0:0:
256,192,69146,1,0,0:0:0:0:
109,192,69211,1,0,0:0:0:0:
475,192,69275,1,0,0:0:0:0:
329,192,69340,1,0,0:0:0:0:
182,192,69404,1,0,0:0:0:0:
402,192,69469,1,0,0:0:0:0:
256,192,69533,1,0,0:0:0:0:
109,192,69598,1,0,0:0:0:0:
36,192,69663,1,0,0:0:0:0:
329,192,69663,1,0,0:0:0:0:
402,192,69663,1,0,0:0:0:0:
475,192,69663,1,0,0:0:0:0:
109,192,69856,128,0,70050:0:0:0:0:
182,192,69921,128,0,70114:0:0:0:0:
256,192,69985,128,0,70179:0:0:0:0:
475,192,70050,128,0,70243:0:0:0:0:
402,192,70114,128,0,70308:0:0:0:0:
329,192,70179,128,0,70372:0:0:0:0:
182,192,70243,128,0,70437:0:0:0:0:
109,192,70308,128,0,70437:0:0:0:0:
36,192,70372,128,0,70437:0:0:0:0:
402,192,70437,128,0,70533:0:0:0:0:
475,192,70437,128,0,70533:0:0:0:0:
182,192,70533,128,0,70630:0:0:0:0:
109,192,70533,128,0,70630:0:0:0:0:
402,192,70630,128,0,70727:0:0:0:0:
475,192,70630,128,0,70727:0:0:0:0:
182,192,70727,128,0,70824:0:0:0:0:
256,192,70727,128,0,70824:0:0:0:0:
329,192,70824,128,0,70921:0:0:0:0:
402,192,70824,128,0,70921:0:0:0:0:
109,192,70921,128,0,71017:0:0:0:0:
36,192,70921,128,0,71017:0:0:0:0:
329,192,71017,128,0,71114:0:0:0:0:
402,192,71017,128,0,71114:0:0:0:0:
36,192,71114,1,0,0:0:0:0:
182,192,71146,1,0,0:0:0:0:
329,192,71179,1,0,0:0:0:0:
475,192,71211,128,0,71888:0:0:0:0:
109,192,71308,1,0,0:0:0:0:
256,192,71404,1,0,0:0:0:0:
402,192,71501,1,0,0:0:0:0:
182,192,71598,1,0,0:0:0:0:
329,192,71695,1,0,0:0:0:0:
109,192,71792,1,0,0:0:0:0:
256,192,71888,1,0,0:0:0:0:
329,192,71985,1,0,0:0:0:0:
182,192,71985,1,0,0:0:0:0:
109,192,71985,1,0,0:0:0:0:
475,192,71985,1,0,0:0:0:0:
36,192,71985,128,0,72566:0:0:0:0:
182,192,72179,1,0,0:0:0:0:
256,192,72179,1,0,0:0:0:0:
475,192,72179,1,0,0:0:0:0:
402,192,72179,1,0,0:0:0:0:
109,192,72179,128,0,72566:0:0:0:0:
256,192,72372,1,0,0:0:0:0:
329,192,72372,1,0,0:0:0:0:
475,192,72372,1,0,0:0:0:0:
182,192,72372,128,0,72566:0:0:0:0:
402,192,72566,1,0,0:0:0:0:
329,192,72566,1,0,0:0:0:0:
475,192,72759,1,0,0:0:0:0:
402,192,72759,1,0,0:0:0:0:
36,192,72759,128,0,72824:0:0:0:0:
182,192,72824,128,0,72888:0:0:0:0:
329,192,72888,128,0,72953:0:0:0:0:
109,192,72953,128,0,73017:0:0:0:0:
402,192,72953,1,0,0:0:0:0:
182,192,73017,128,0,73082:0:0:0:0:
256,192,73082,128,0,73146:0:0:0:0:
36,192,73146,1,0,0:0:0:0:
109,192,73146,1,0,0:0:0:0:
475,192,73146,128,0,73211:0:0:0:0:
329,192,73211,128,0,73275:0:0:0:0:
182,192,73275,128,0,73340:0:0:0:0:
402,192,73340,128,0,73404:0:0:0:0:
109,192,73340,1,0,0:0:0:0:
329,192,73404,128,0,73469:0:0:0:0:
256,192,73469,128,0,73533:0:0:0:0:
402,192,73533,1,0,0:0:0:0:
475,192,73533,1,0,0:0:0:0:
36,192,73533,128,0,73598:0:0:0:0:
182,192,73598,128,0,73663:0:0:0:0:
329,192,73663,128,0,73727:0:0:0:0:
109,192,73727,128,0,73792:0:0:0:0:
402,192,73727,1,0,0:0:0:0:
182,192,73792,128,0,73856:0:0:0:0:
256,192,73856,128,0,73921:0:0:0:0:
109,192,73921,1,0,0:0:0:0:
36,192,73921,1,0,0:0:0:0:
475,192,73921,128,0,73985:0:0:0:0:
329,192,73985,128,0,74050:0:0:0:0:
182,192,74050,128,0,74114:0:0:0:0:
402,192,74114,128,0,74179:0:0:0:0:
109,192,74114,1,0,0:0:0:0:
329,192,74179,128,0,74243:0:0:0:0:
256,192,74243,128,0,74308:0:0:0:0:
402,192,74308,1,0,0:0:0:0:
475,192,74308,1,0,0:0:0:0:
36,192,74308,128,0,74376:0:0:0:0:
182,192,74376,128,0,74445:0:0:0:0:
329,192,74445,128,0,74514:0:0:0:0:
109,192,74514,128,0,74583:0:0:0:0:
402,192,74514,1,0,0:0:0:0:
182,192,74583,128,0,74652:0:0:0:0:
256,192,74652,128,0,74721:0:0:0:0:
109,192,74721,1,0,0:0:0:0:
36,192,74721,1,0,0:0:0:0:
475,192,74721,128,0,74790:0:0:0:0:
329,192,74790,128,0,74859:0:0:0:0:
182,192,74859,128,0,74928:0:0:0:0:
402,192,74928,128,0,74997:0:0:0:0:
109,192,74928,1,0,0:0:0:0:
329,192,74997,128,0,75066:0:0:0:0:
256,192,75066,128,0,75135:0:0:0:0:
36,192,75135,128,0,75204:0:0:0:0:
402,192,75135,1,0,0:0:0:0:
475,192,75135,1,0,0:0:0:0:
182,192,75204,128,0,75273:0:0:0:0:
329,192,75273,128,0,75342:0:0:0:0:
109,192,75342,128,0,75411:0:0:0:0:
402,192,75342,1,0,0:0:0:0:
182,192,75411,128,0,75480:0:0:0:0:
256,192,75480,128,0,75549:0:0:0:0:
475,192,75549,128,0,75618:0:0:0:0:
109,192,75549,1,0,0:0:0:0:
36,192,75549,1,0,0:0:0:0:
329,192,75618,128,0,75687:0:0:0:0:
182,192,75687,128,0,75756:0:0:0:0:
402,192,75756,128,0,75825:0:0:0:0:
109,192,75756,1,0,0:0:0:0:
329,192,75825,128,0,75894:0:0:0:0:
256,192,75894,128,0,75963:0:0:0:0:
36,192,75963,1,0,0:0:0:0:
109,192,75963,1,0,0:0:0:0:
475,192,75963,128,0,76037:0:0:0:0:
329,192,76037,128,0,76111:0:0:0:0:
182,192,76111,128,0,76185:0:0:0:0:
402,192,76185,1,0,0:0:0:0:
36,192,76185,128,0,76333:0:0:0:0:
182,192,76259,128,0,76407:0:0:0:0:
329,192,76333,128,0,76481:0:0:0:0:
475,192,76407,128,0,76555:0:0:0:0:
402,192,76407,1,0,0:0:0:0:
36,192,76407,128,0,76481:0:0:0:0:
182,192,76481,128,0,76555:0:0:0:0:
329,192,76555,128,0,76629:0:0:0:0:
475,192,76629,128,0,76777:0:0:0:0:
109,192,76629,1,0,0:0:0:0:
329,192,76703,128,0,76851:0:0:0:0:
182,192,76777,128,0,76925:0:0:0:0:
36,192,76851,128,0,77000:0:0:0:0:
109,192,76851,1,0,0:0:0:0:
475,192,76851,128,0,76925:0:0:0:0:
329,192,76925,128,0,77000:0:0:0:0:
182,192,77000,128,0,77074:0:0:0:0:
36,192,77074,128,0,77222:0:0:0:0:
402,192,77074,1,0,0:0:0:0:
182,192,77148,128,0,77296:0:0:0:0:
329,192,77222,128,0,77370:0:0:0:0:
475,192,77296,128,0,77444:0:0:0:0:
402,192,77296,1,0,0:0:0:0:
36,192,77296,128,0,77370:0:0:0:0:
182,192,77370,128,0,77444:0:0:0:0:
329,192,77444,128,0,77518:0:0:0:0:
475,192,77518,128,0,77666:0:0:0:0:
109,192,77518,1,0,0:0:0:0:
329,192,77592,128,0,77740:0:0:0:0:
182,192,77666,128,0,77818:0:0:0:0:
36,192,77740,128,0,77896:0:0:0:0:
402,192,77740,128,0,77818:0:0:0:0:
329,192,77818,128,0,77896:0:0:0:0:
256,192,77896,128,0,77974:0:0:0:0:
182,192,77974,128,0,78130:0:0:0:0:
256,192,78052,128,0,78208:0:0:0:0:
329,192,78130,128,0,78286:0:0:0:0:
402,192,78208,128,0,78365:0:0:0:0:
109,192,78208,128,0,78286:0:0:0:0:
182,192,78286,128,0,78365:0:0:0:0:
256,192,78365,128,0,78443:0:0:0:0:
329,192,78443,128,0,78599:0:0:0:0:
256,192,78521,128,0,78677:0:0:0:0:
182,192,78599,128,0,78677:0:0:0:0:
109,192,78677,1,0,0:0:0:0:
402,192,78677,1,0,0:0:0:0:
256,192,78794,1,0,0:0:0:0:
182,192,78911,1,0,0:0:0:0:
329,192,78911,1,0,0:0:0:0:
329,192,79029,1,0,0:0:0:0:
182,192,79029,1,0,0:0:0:0:
109,192,79146,1,0,0:0:0:0:
36,192,79146,1,0,0:0:0:0:
402,192,79263,1,0,0:0:0:0:
475,192,79263,1,0,0:0:0:0:
109,192,79380,1,0,0:0:0:0:
36,192,79380,1,0,0:0:0:0:
182,192,79380,1,0,0:0:0:0:
256,192,79380,1,0,0:0:0:0:
109,192,79615,1,0,0:0:0:0:
36,192,79615,1,0,0:0:0:0:
402,192,79615,128,0,79732:0:0:0:0:
475,192,79615,128,0,79732:0:0:0:0:
329,192,79673,128,0,79790:0:0:0:0:
256,192,79732,128,0,79849:0:0:0:0:
182,192,79790,128,0,79907:0:0:0:0:
109,192,79849,1,0,0:0:0:0:
475,192,79849,128,0,79966:0:0:0:0:
402,192,79907,128,0,80025:0:0:0:0:
329,192,79966,128,0,80083:0:0:0:0:
256,192,80025,128,0,80142:0:0:0:0:
475,192,80083,1,0,0:0:0:0:
36,192,80083,128,0,80552:0:0:0:0:
182,192,80083,128,0,80200:0:0:0:0:
109,192,80083,1,0,0:0:0:0:
256,192,80318,1,0,0:0:0:0:
109,192,80318,1,0,0:0:0:0:
329,192,80435,1,0,0:0:0:0:
475,192,80435,1,0,0:0:0:0:
182,192,80552,128,0,80669:0:0:0:0:
109,192,80552,1,0,0:0:0:0:
402,192,80552,1,0,0:0:0:0:
256,192,80611,128,0,80728:0:0:0:0:
329,192,80669,128,0,80786:0:0:0:0:
402,192,80728,128,0,80845:0:0:0:0:
36,192,80786,1,0,0:0:0:0:
182,192,80786,1,0,0:0:0:0:
329,192,80904,1,0,0:0:0:0:
475,192,80904,1,0,0:0:0:0:
402,192,81021,1,0,0:0:0:0:
475,192,81021,1,0,0:0:0:0:
109,192,81021,1,0,0:0:0:0:
36,192,81021,1,0,0:0:0:0:
182,192,81138,1,0,0:0:0:0:
36,192,81138,1,0,0:0:0:0:
329,192,81255,1,0,0:0:0:0:
475,192,81255,1,0,0:0:0:0:
109,192,81372,1,0,0:0:0:0:
256,192,81372,1,0,0:0:0:0:
402,192,81490,1,0,0:0:0:0:
475,192,81490,1,0,0:0:0:0:
36,192,81490,128,0,81782:0:0:0:0:
109,192,81607,128,0,81782:0:0:0:0:
256,192,81724,1,0,0:0:0:0:
402,192,81724,1,0,0:0:0:0:
109,192,81841,1,0,0:0:0:0:
36,192,81841,1,0,0:0:0:0:
182,192,81958,128,0,82134:0:0:0:0:
329,192,81958,128,0,82134:0:0:0:0:
256,192,81958,1,0,0:0:0:0:
36,192,82075,128,0,82251:0:0:0:0:
475,192,82075,128,0,82251:0:0:0:0:
182,192,82193,128,0,82427:0:0:0:0:
329,192,82193,128,0,82427:0:0:0:0:
36,192,82310,128,0,82368:0:0:0:0:
475,192,82310,128,0,82368:0:0:0:0:
36,192,82427,1,0,0:0:0:0:
475,192,82427,1,0,0:0:0:0:
109,192,82427,128,0,82837:0:0:0:0:
402,192,82427,128,0,82837:0:0:0:0:
256,192,82427,128,0,82661:0:0:0:0:
475,192,82661,1,0,0:0:0:0:
329,192,82661,128,0,82896:0:0:0:0:
402,192,82896,128,0,83306:0:0:0:0:
36,192,82896,1,0,0:0:0:0:
475,192,82896,1,0,0:0:0:0:
256,192,82896,128,0,83130:0:0:0:0:
109,192,82896,128,0,83306:0:0:0:0:
36,192,83130,1,0,0:0:0:0:
182,192,83130,128,0,83365:0:0:0:0:
329,192,83365,1,0,0:0:0:0:
475,192,83365,1,0,0:0:0:0:
109,192,83365,128,0,83482:0:0:0:0:
36,192,83365,128,0,83482:0:0:0:0:
182,192,83423,128,0,83540:0:0:0:0:
256,192,83482,128,0,83599:0:0:0:0:
329,192,83540,128,0,83657:0:0:0:0:
36,192,83599,128,0,83716:0:0:0:0:
402,192,83599,1,0,0:0:0:0:
109,192,83657,128,0,83775:0:0:0:0:
182,192,83716,128,0,83833:0:0:0:0:
256,192,83775,128,0,83892:0:0:0:0:
329,192,83833,1,0,0:0:0:0:
475,192,83833,1,0,0:0:0:0:
36,192,83833,1,0,0:0:0:0:
109,192,83950,1,0,0:0:0:0:
36,192,83950,1,0,0:0:0:0:
329,192,84068,1,0,0:0:0:0:
182,192,84068,1,0,0:0:0:0:
402,192,84185,1,0,0:0:0:0:
475,192,84185,1,0,0:0:0:0:
256,192,84302,1,0,0:0:0:0:
475,192,84302,128,0,84536:0:0:0:0:
36,192,84302,128,0,84536:0:0:0:0:
182,192,84536,128,0,84595:0:0:0:0:
329,192,84536,128,0,84595:0:0:0:0:
256,192,84654,1,0,0:0:0:0:
109,192,84654,128,0,84712:0:0:0:0:
402,192,84654,128,0,84712:0:0:0:0:
36,192,84771,1,0,0:0:0:0:
109,192,84771,1,0,0:0:0:0:
402,192,84771,1,0,0:0:0:0:
475,192,84771,1,0,0:0:0:0:
475,192,84888,1,0,0:0:0:0:
256,192,84888,1,0,0:0:0:0:
36,192,84888,1,0,0:0:0:0:
182,192,85005,1,0,0:0:0:0:
329,192,85064,1,0,0:0:0:0:
182,192,85122,1,0,0:0:0:0:
329,192,85181,1,0,0:0:0:0:
109,192,85240,1,0,0:0:0:0:
36,192,85240,1,0,0:0:0:0:
402,192,85298,1,0,0:0:0:0:
475,192,85298,1,0,0:0:0:0:
109,192,85357,1,0,0:0:0:0:
36,192,85357,1,0,0:0:0:0:
402,192,85415,1,0,0:0:0:0:
475,192,85415,1,0,0:0:0:0:
256,192,85474,1,0,0:0:0:0:
36,192,85474,128,0,85650:0:0:0:0:
109,192,85474,128,0,85650:0:0:0:0:
182,192,85474,128,0,85650:0:0:0:0:
329,192,85708,1,0,0:0:0:0:
109,192,85708,128,0,85884:0:0:0:0:
182,192,85708,128,0,85884:0:0:0:0:
256,192,85708,128,0,85884:0:0:0:0:
402,192,85943,1,0,0:0:0:0:
182,192,85943,128,0,86001:0:0:0:0:
256,192,85943,128,0,86001:0:0:0:0:
329,192,85943,128,0,86001:0:0:0:0:
475,192,86060,1,0,0:0:0:0:
329,192,86060,128,0,86177:0:0:0:0:
402,192,86060,128,0,86177:0:0:0:0:
256,192,86060,128,0,86177:0:0:0:0:
402,192,86294,128,0,86411:0:0:0:0:
475,192,86294,128,0,86411:0:0:0:0:
182,192,86411,128,0,86529:0:0:0:0:
329,192,86411,128,0,86529:0:0:0:0:
109,192,86529,128,0,86646:0:0:0:0:
36,192,86529,128,0,86646:0:0:0:0:
256,192,86646,1,0,0:0:0:0:
402,192,86646,1,0,0:0:0:0:
182,192,86646,1,0,0:0:0:0:
475,192,86646,128,0,86880:0:0:0:0:
36,192,86880,1,0,0:0:0:0:
182,192,86880,1,0,0:0:0:0:
402,192,86939,1,0,0:0:0:0:
475,192,86939,1,0,0:0:0:0:
36,192,86997,1,0,0:0:0:0:
182,192,86997,1,0,0:0:0:0:
402,192,87056,1,0,0:0:0:0:
475,192,87056,1,0,0:0:0:0:
329,192,87115,1,0,0:0:0:0:
109,192,87115,128,0,87232:0:0:0:0:
36,192,87115,128,0,87232:0:0:0:0:
182,192,87173,128,0,87290:0:0:0:0:
256,192,87232,128,0,87349:0:0:0:0:
329,192,87290,128,0,87407:0:0:0:0:
402,192,87349,1,0,0:0:0:0:
36,192,87349,128,0,87466:0:0:0:0:
109,192,87407,128,0,87525:0:0:0:0:
182,192,87466,128,0,87583:0:0:0:0:
256,192,87525,128,0,87642:0:0:0:0:
36,192,87583,1,0,0:0:0:0:
475,192,87583,128,0,88052:0:0:0:0:
329,192,87583,128,0,87700:0:0:0:0:
402,192,87583,1,0,0:0:0:0:
256,192,87818,1,0,0:0:0:0:
402,192,87818,1,0,0:0:0:0:
182,192,87935,1,0,0:0:0:0:
36,192,87935,1,0,0:0:0:0:
329,192,88052,128,0,88169:0:0:0:0:
402,192,88052,1,0,0:0:0:0:
109,192,88052,1,0,0:0:0:0:
256,192,88111,128,0,88228:0:0:0:0:
182,192,88169,128,0,88286:0:0:0:0:
109,192,88228,128,0,88345:0:0:0:0:
475,192,88286,1,0,0:0:0:0:
329,192,88286,1,0,0:0:0:0:
182,192,88404,1,0,0:0:0:0:
36,192,88404,1,0,0:0:0:0:
109,192,88521,1,0,0:0:0:0:
36,192,88521,1,0,0:0:0:0:
402,192,88521,1,0,0:0:0:0:
475,192,88521,1,0,0:0:0:0:
329,192,88638,1,0,0:0:0:0:
475,192,88638,1,0,0:0:0:0:
182,192,88755,1,0,0:0:0:0:
36,192,88755,1,0,0:0:0:0:
402,192,88872,1,0,0:0:0:0:
256,192,88872,1,0,0:0:0:0:
329,192,88990,1,0,0:0:0:0:
109,192,88990,128,0,89107:0:0:0:0:
475,192,88990,1,0,0:0:0:0:
182,192,89048,128,0,89165:0:0:0:0:
256,192,89107,128,0,89224:0:0:0:0:
329,192,89165,128,0,89282:0:0:0:0:
36,192,89224,128,0,89341:0:0:0:0:
402,192,89224,1,0,0:0:0:0:
109,192,89282,128,0,89400:0:0:0:0:
182,192,89341,128,0,89458:0:0:0:0:
329,192,89341,1,0,0:0:0:0:
256,192,89400,128,0,89517:0:0:0:0:
402,192,89458,128,0,89575:0:0:0:0:
475,192,89458,1,0,0:0:0:0:
36,192,89458,1,0,0:0:0:0:
182,192,89517,128,0,89634:0:0:0:0:
329,192,89575,128,0,89693:0:0:0:0:
109,192,89634,128,0,89751:0:0:0:0:
256,192,89693,128,0,89810:0:0:0:0:
475,192,89693,1,0,0:0:0:0:
36,192,89751,128,0,89868:0:0:0:0:
182,192,89810,128,0,89927:0:0:0:0:
402,192,89810,1,0,0:0:0:0:
329,192,89868,128,0,89927:0:0:0:0:
475,192,89927,1,0,0:0:0:0:
402,192,89927,128,0,90337:0:0:0:0:
109,192,89927,128,0,90337:0:0:0:0:
256,192,89927,128,0,90161:0:0:0:0:
329,192,90161,1,0,0:0:0:0:
475,192,90161,128,0,90396:0:0:0:0:
109,192,90396,128,0,90806:0:0:0:0:
329,192,90396,1,0,0:0:0:0:
182,192,90396,1,0,0:0:0:0:
256,192,90396,128,0,90630:0:0:0:0:
402,192,90396,128,0,90806:0:0:0:0:
475,192,90630,1,0,0:0:0:0:
36,192,90630,128,0,90865:0:0:0:0:
182,192,90865,1,0,0:0:0:0:
402,192,90865,128,0,90982:0:0:0:0:
475,192,90865,128,0,90982:0:0:0:0:
109,192,90865,1,0,0:0:0:0:
329,192,90923,128,0,91040:0:0:0:0:
256,192,90982,128,0,91099:0:0:0:0:
182,192,91040,128,0,91157:0:0:0:0:
475,192,91099,128,0,91216:0:0:0:0:
109,192,91099,1,0,0:0:0:0:
402,192,91157,128,0,91275:0:0:0:0:
329,192,91216,128,0,91333:0:0:0:0:
256,192,91275,128,0,91392:0:0:0:0:
182,192,91333,1,0,0:0:0:0:
475,192,91333,1,0,0:0:0:0:
36,192,91333,128,0,91802:0:0:0:0:
256,192,91568,1,0,0:0:0:0:
109,192,91568,1,0,0:0:0:0:
475,192,91685,1,0,0:0:0:0:
329,192,91685,1,0,0:0:0:0:
256,192,91802,1,0,0:0:0:0:
402,192,91802,128,0,92036:0:0:0:0:
109,192,91802,128,0,92036:0:0:0:0:
475,192,92036,128,0,92095:0:0:0:0:
36,192,92036,128,0,92095:0:0:0:0:
256,192,92154,1,0,0:0:0:0:
402,192,92154,128,0,92212:0:0:0:0:
109,192,92154,128,0,92212:0:0:0:0:
329,192,92271,1,0,0:0:0:0:
402,192,92271,1,0,0:0:0:0:
109,192,92271,1,0,0:0:0:0:
182,192,92271,1,0,0:0:0:0:
36,192,92388,1,0,0:0:0:0:
256,192,92388,1,0,0:0:0:0:
475,192,92388,1,0,0:0:0:0:
182,192,92505,1,0,0:0:0:0:
109,192,92505,1,0,0:0:0:0:
329,192,92564,1,0,0:0:0:0:
402,192,92564,1,0,0:0:0:0:
182,192,92622,1,0,0:0:0:0:
109,192,92622,1,0,0:0:0:0:
329,192,92681,1,0,0:0:0:0:
402,192,92681,1,0,0:0:0:0:
475,192,92740,128,0,93130:0:0:0:0:
256,192,92740,1,0,0:0:0:0:
109,192,92740,1,0,0:0:0:0:
182,192,92740,1,0,0:0:0:0:
36,192,92740,1,0,0:0:0:0:
402,192,92818,128,0,93130:0:0:0:0:
329,192,92896,128,0,93130:0:0:0:0:
256,192,92974,128,0,93130:0:0:0:0:
182,192,93052,128,0,93130:0:0:0:0:
109,192,93130,1,0,0:0:0:0:
36,192,93208,128,0,93599:0:0:0:0:
329,192,93208,1,0,0:0:0:0:
402,192,93208,1,0,0:0:0:0:
475,192,93208,1,0,0:0:0:0:
256,192,93208,1,0,0:0:0:0:
109,192,93286,128,0,93599:0:0:0:0:
182,192,93365,128,0,93599:0:0:0:0:
256,192,93443,128,0,93599:0:0:0:0:
329,192,93521,128,0,93599:0:0:0:0:
402,192,93599,1,0,0:0:0:0:
329,192,93677,128,0,93755:0:0:0:0:
256,192,93677,128,0,93833:0:0:0:0:
182,192,93677,128,0,93911:0:0:0:0:
109,192,93677,128,0,93990:0:0:0:0:
36,192,93677,128,0,94068:0:0:0:0:
475,192,94146,128,0,94536:0:0:0:0:
402,192,94146,128,0,94536:0:0:0:0:
329,192,94146,128,0,94536:0:0:0:0:
182,192,94146,128,0,94536:0:0:0:0:
109,192,94146,128,0,94536:0:0:0:0:
36,192,94146,128,0,94536:0:0:0:0:
475,192,94615,1,0,0:0:0:0:
36,192,94615,1,0,0:0:0:0:
402,192,94615,1,0,0:0:0:0:
329,192,94673,1,0,0:0:0:0:
109,192,94732,1,0,0:0:0:0:
402,192,94790,1,0,0:0:0:0:
182,192,94849,1,0,0:0:0:0:
475,192,94907,1,0,0:0:0:0:
256,192,94966,1,0,0:0:0:0:
36,192,95025,1,0,0:0:0:0:
329,192,95083,1,0,0:0:0:0:
36,192,95142,1,0,0:0:0:0:
256,192,95200,1,0,0:0:0:0:
475,192,95259,1,0,0:0:0:0:
182,192,95318,1,0,0:0:0:0:
402,192,95376,1,0,0:0:0:0:
109,192,95435,1,0,0:0:0:0:
329,192,95493,1,0,0:0:0:0:
36,192,95552,128,0,96255:0:0:0:0:
475,192,95552,128,0,96255:0:0:0:0:
256,192,95552,128,0,96490:0:0:0:0:
36,192,96490,1,0,0:0:0:0:
475,192,96490,1,0,0:0:0:0:
109,192,96490,1,0,0:0:0:0:
182,192,96548,1,0,0:0:0:0:
402,192,96607,1,0,0:0:0:0:
109,192,96665,1,0,0:0:0:0:
329,192,96724,1,0,0:0:0:0:
36,192,96782,1,0,0:0:0:0:
256,192,96841,1,0,0:0:0:0:
475,192,96900,1,0,0:0:0:0:
182,192,96958,1,0,0:0:0:0:
475,192,97017,1,0,0:0:0:0:
256,192,97075,1,0,0:0:0:0:
36,192,97134,1,0,0:0:0:0:
329,192,97193,1,0,0:0:0:0:
109,192,97251,1,0,0:0:0:0:
402,192,97310,1,0,0:0:0:0:
182,192,97368,1,0,0:0:0:0:
475,192,97427,128,0,98130:0:0:0:0:
36,192,97427,128,0,98130:0:0:0:0:
256,192,97427,128,0,98365:0:0:0:0:
402,192,98365,1,0,0:0:0:0:
36,192,98365,1,0,0:0:0:0:
475,192,98365,1,0,0:0:0:0:
256,192,98423,1,0,0:0:0:0:
109,192,98482,1,0,0:0:0:0:
329,192,98540,1,0,0:0:0:0:
182,192,98599,1,0,0:0:0:0:
402,192,98657,1,0,0:0:0:0:
256,192,98716,1,0,0:0:0:0:
475,192,98775,1,0,0:0:0:0:
329,192,98833,1,0,0:0:0:0:
475,192,98892,1,0,0:0:0:0:
256,192,98950,1,0,0:0:0:0:
402,192,99009,1,0,0:0:0:0:
182,192,99068,1,0,0:0:0:0:
329,192,99126,1,0,0:0:0:0:
109,192,99185,1,0,0:0:0:0:
256,192,99243,1,0,0:0:0:0:
182,192,99302,128,0,100240:0:0:0:0:
475,192,99302,128,0,100005:0:0:0:0:
36,192,99302,128,0,100005:0:0:0:0:
36,192,100240,1,0,0:0:0:0:
475,192,100240,1,0,0:0:0:0:
109,192,100240,1,0,0:0:0:0:
256,192,100298,1,0,0:0:0:0:
402,192,100357,1,0,0:0:0:0:
182,192,100415,1,0,0:0:0:0:
329,192,100474,1,0,0:0:0:0:
109,192,100532,1,0,0:0:0:0:
256,192,100591,1,0,0:0:0:0:
36,192,100650,1,0,0:0:0:0:
182,192,100708,1,0,0:0:0:0:
36,192,100767,1,0,0:0:0:0:
256,192,100825,1,0,0:0:0:0:
109,192,100884,1,0,0:0:0:0:
329,192,100943,1,0,0:0:0:0:
182,192,101001,1,0,0:0:0:0:
402,192,101060,1,0,0:0:0:0:
256,192,101118,1,0,0:0:0:0:
475,192,101177,128,0,101880:0:0:0:0:
36,192,101177,128,0,101880:0:0:0:0:
329,192,101177,128,0,102115:0:0:0:0:
256,192,102115,1,0,0:0:0:0:
329,192,102173,1,0,0:0:0:0:
182,192,102232,1,0,0:0:0:0:
402,192,102290,1,0,0:0:0:0:
109,192,102349,1,0,0:0:0:0:
475,192,102407,1,0,0:0:0:0:
36,192,102466,1,0,0:0:0:0:
402,192,102525,1,0,0:0:0:0:
109,192,102583,1,0,0:0:0:0:
329,192,102642,1,0,0:0:0:0:
182,192,102700,1,0,0:0:0:0:
256,192,102759,1,0,0:0:0:0:
329,192,102818,1,0,0:0:0:0:
182,192,102876,1,0,0:0:0:0:
402,192,102935,1,0,0:0:0:0:
36,192,102993,1,0,0:0:0:0:
256,192,103052,128,0,103990:0:0:0:0:
182,192,103052,128,0,103755:0:0:0:0:
329,192,103052,128,0,103755:0:0:0:0:
402,192,103169,1,0,0:0:0:0:
109,192,103404,1,0,0:0:0:0:
402,192,103521,1,0,0:0:0:0:
36,192,103638,1,0,0:0:0:0:
475,192,103755,1,0,0:0:0:0:
36,192,103990,1,0,0:0:0:0:
475,192,104048,1,0,0:0:0:0:
109,192,104107,1,0,0:0:0:0:
402,192,104165,1,0,0:0:0:0:
182,192,104224,1,0,0:0:0:0:
329,192,104282,1,0,0:0:0:0:
256,192,104341,1,0,0:0:0:0:
182,192,104400,1,0,0:0:0:0:
329,192,104458,1,0,0:0:0:0:
109,192,104517,1,0,0:0:0:0:
402,192,104575,1,0,0:0:0:0:
36,192,104634,1,0,0:0:0:0:
475,192,104693,1,0,0:0:0:0:
109,192,104751,1,0,0:0:0:0:
402,192,104810,1,0,0:0:0:0:
182,192,104868,1,0,0:0:0:0:
475,192,104927,128,0,105630:0:0:0:0:
36,192,104927,128,0,105630:0:0:0:0:
329,192,104927,128,0,105865:0:0:0:0:
256,192,105044,1,0,0:0:0:0:
182,192,105279,1,0,0:0:0:0:
109,192,105513,1,0,0:0:0:0:
182,192,105747,1,0,0:0:0:0:
36,192,105865,1,0,0:0:0:0:
256,192,105865,1,0,0:0:0:0:
329,192,105923,1,0,0:0:0:0:
402,192,105982,1,0,0:0:0:0:
475,192,106040,1,0,0:0:0:0:
182,192,106099,1,0,0:0:0:0:
109,192,106099,1,0,0:0:0:0:
256,192,106157,1,0,0:0:0:0:
329,192,106216,1,0,0:0:0:0:
402,192,106275,1,0,0:0:0:0:
256,192,106333,1,0,0:0:0:0:
475,192,106333,1,0,0:0:0:0:
182,192,106392,1,0,0:0:0:0:
109,192,106450,1,0,0:0:0:0:
36,192,106509,1,0,0:0:0:0:
329,192,106568,1,0,0:0:0:0:
402,192,106568,1,0,0:0:0:0:
256,192,106626,1,0,0:0:0:0:
182,192,106685,1,0,0:0:0:0:
109,192,106743,1,0,0:0:0:0:
36,192,106802,1,0,0:0:0:0:
402,192,106802,1,0,0:0:0:0:
475,192,106802,1,0,0:0:0:0:
182,192,106919,1,0,0:0:0:0:
109,192,106919,1,0,0:0:0:0:
256,192,106919,1,0,0:0:0:0:
329,192,107036,1,0,0:0:0:0:
402,192,107036,1,0,0:0:0:0:
475,192,107036,1,0,0:0:0:0:
182,192,107154,1,0,0:0:0:0:
109,192,107154,1,0,0:0:0:0:
36,192,107154,1,0,0:0:0:0:
256,192,107271,1,0,0:0:0:0:
402,192,107271,1,0,0:0:0:0:
329,192,107271,1,0,0:0:0:0:
109,192,107388,1,0,0:0:0:0:
36,192,107388,1,0,0:0:0:0:
475,192,107388,1,0,0:0:0:0:
182,192,107505,1,0,0:0:0:0:
256,192,107505,1,0,0:0:0:0:
329,192,107505,1,0,0:0:0:0:
402,192,107622,1,0,0:0:0:0:
475,192,107622,1,0,0:0:0:0:
36,192,107622,1,0,0:0:0:0:
36,192,107740,1,0,0:0:0:0:
182,192,107740,1,0,0:0:0:0:
329,192,107798,1,0,0:0:0:0:
475,192,107857,1,0,0:0:0:0:
36,192,107857,1,0,0:0:0:0:
182,192,107915,1,0,0:0:0:0:
329,192,107974,1,0,0:0:0:0:
475,192,107974,1,0,0:0:0:0:
182,192,108032,1,0,0:0:0:0:
36,192,108091,1,0,0:0:0:0:
475,192,108091,1,0,0:0:0:0:
329,192,108150,1,0,0:0:0:0:
182,192,108208,1,0,0:0:0:0:
36,192,108208,1,0,0:0:0:0:
329,192,108267,1,0,0:0:0:0:
475,192,108325,1,0,0:0:0:0:
36,192,108325,1,0,0:0:0:0:
182,192,108384,1,0,0:0:0:0:
475,192,108443,1,0,0:0:0:0:
329,192,108443,1,0,0:0:0:0:
182,192,108501,1,0,0:0:0:0:
475,192,108560,1,0,0:0:0:0:
36,192,108560,1,0,0:0:0:0:
329,192,108618,1,0,0:0:0:0:
182,192,108677,1,0,0:0:0:0:
36,192,108677,1,0,0:0:0:0:
402,192,108794,1,0,0:0:0:0:
109,192,108911,1,0,0:0:0:0:
256,192,109146,1,0,0:0:0:0:
36,192,109615,1,0,0:0:0:0:
109,192,109615,1,0,0:0:0:0:
402,192,109615,1,0,0:0:0:0:
475,192,109615,1,0,0:0:0:0:
256,192,109615,1,0,0:0:0:0:
402,192,109808,1,0,0:0:0:0:
109,192,109808,1,0,0:0:0:0:
256,192,110002,1,0,0:0:0:0:
36,192,110002,1,0,0:0:0:0:
475,192,110002,1,0,0:0:0:0:
402,192,110195,1,0,0:0:0:0:
329,192,110195,1,0,0:0:0:0:
109,192,110292,1,0,0:0:0:0:
329,192,110389,1,0,0:0:0:0:
182,192,110389,1,0,0:0:0:0:
36,192,110485,1,0,0:0:0:0:
182,192,110582,1,0,0:0:0:0:
329,192,110582,1,0,0:0:0:0:
36,192,110679,1,0,0:0:0:0:
402,192,110776,1,0,0:0:0:0:
475,192,110776,1,0,0:0:0:0:
256,192,110969,1,0,0:0:0:0:
109,192,110969,1,0,0:0:0:0:
329,192,111066,1,0,0:0:0:0:
402,192,111163,1,0,0:0:0:0:
182,192,111163,1,0,0:0:0:0:
109,192,111163,1,0,0:0:0:0:
36,192,111163,1,0,0:0:0:0:
256,192,111356,1,0,0:0:0:0:
329,192,111453,1,0,0:0:0:0:
109,192,111453,1,0,0:0:0:0:
475,192,111453,1,0,0:0:0:0:
182,192,111550,1,0,0:0:0:0:
256,192,111744,1,0,0:0:0:0:
36,192,111744,1,0,0:0:0:0:
402,192,111744,1,0,0:0:0:0:
109,192,111937,1,0,0:0:0:0:
329,192,111937,1,0,0:0:0:0:
182,192,112034,1,0,0:0:0:0:
256,192,112131,1,0,0:0:0:0:
402,192,112131,1,0,0:0:0:0:
182,192,112227,1,0,0:0:0:0:
109,192,112324,1,0,0:0:0:0:
329,192,112324,1,0,0:0:0:0:
256,192,112421,1,0,0:0:0:0:
182,192,112518,1,0,0:0:0:0:
109,192,112615,1,0,0:0:0:0:
36,192,112711,1,0,0:0:0:0:
475,192,112711,1,0,0:0:0:0:
402,192,112711,1,0,0:0:0:0:
329,192,112711,1,0,0:0:0:0:
256,192,112771,1,0,0:0:0:0:
182,192,112832,1,0,0:0:0:0:
109,192,112892,1,0,0:0:0:0:
329,192,112953,1,0,0:0:0:0:
402,192,113014,1,0,0:0:0:0:
475,192,113074,1,0,0:0:0:0:
182,192,113074,1,0,0:0:0:0:
256,192,113135,1,0,0:0:0:0:
329,192,113195,1,0,0:0:0:0:
402,192,113256,1,0,0:0:0:0:
182,192,113317,1,0,0:0:0:0:
109,192,113377,1,0,0:0:0:0:
36,192,113438,1,0,0:0:0:0:
402,192,113438,1,0,0:0:0:0:
329,192,113498,1,0,0:0:0:0:
256,192,113559,1,0,0:0:0:0:
182,192,113620,1,0,0:0:0:0:
109,192,113680,1,0,0:0:0:0:
36,192,113741,1,0,0:0:0:0:
256,192,113801,1,0,0:0:0:0:
475,192,113801,1,0,0:0:0:0:
402,192,113862,1,0,0:0:0:0:
182,192,113923,1,0,0:0:0:0:
329,192,113983,1,0,0:0:0:0:
109,192,114044,1,0,0:0:0:0:
256,192,114104,1,0,0:0:0:0:
36,192,114165,1,0,0:0:0:0:
182,192,114165,1,0,0:0:0:0:
402,192,114165,1,0,0:0:0:0:
329,192,114226,1,0,0:0:0:0:
256,192,114286,1,0,0:0:0:0:
109,192,114347,1,0,0:0:0:0:
256,192,114407,1,0,0:0:0:0:
329,192,114468,1,0,0:0:0:0:
402,192,114529,1,0,0:0:0:0:
109,192,114529,1,0,0:0:0:0:
182,192,114589,1,0,0:0:0:0:
256,192,114650,1,0,0:0:0:0:
402,192,114711,1,0,0:0:0:0:
256,192,114771,1,0,0:0:0:0:
182,192,114832,1,0,0:0:0:0:
109,192,114892,1,0,0:0:0:0:
402,192,114892,1,0,0:0:0:0:
256,192,114983,1,0,0:0:0:0:
36,192,115074,1,0,0:0:0:0:
475,192,115074,1,0,0:0:0:0:
256,192,115256,128,0,115438:0:0:0:0:
182,192,115256,128,0,115392:0:0:0:0:
329,192,115256,128,0,115392:0:0:0:0:
402,192,115256,128,0,115347:0:0:0:0:
109,192,115256,128,0,115347:0:0:0:0:
256,192,115620,128,0,115962:0:0:0:0:
182,192,116305,128,0,116648:0:0:0:0:
256,192,116305,128,0,116648:0:0:0:0:
329,192,116305,128,0,116648:0:0:0:0:
182,192,116991,128,0,117334:0:0:0:0:
329,192,116991,128,0,117334:0:0:0:0:
109,192,116991,128,0,117334:0:0:0:0:
402,192,116991,128,0,117334:0:0:0:0:
182,192,117677,128,0,118020:0:0:0:0:
329,192,117677,128,0,118020:0:0:0:0:
475,192,117677,128,0,118020:0:0:0:0:
36,192,117677,128,0,118020:0:0:0:0:
36,192,118362,128,0,118528:0:0:0:0:
109,192,118362,128,0,118528:0:0:0:0:
256,192,118362,128,0,118528:0:0:0:0:
402,192,118362,128,0,118528:0:0:0:0:
329,192,118528,1,0,0:0:0:0:
182,192,118528,1,0,0:0:0:0:
182,192,118695,128,0,118862:0:0:0:0:
329,192,118695,128,0,118862:0:0:0:0:
475,192,118695,128,0,118862:0:0:0:0:
109,192,118695,128,0,118862:0:0:0:0:
402,192,118862,1,0,0:0:0:0:
256,192,118862,1,0,0:0:0:0:
402,192,119028,128,0,119195:0:0:0:0:
36,192,119028,128,0,119195:0:0:0:0:
109,192,119028,128,0,119195:0:0:0:0:
256,192,119028,128,0,119195:0:0:0:0:
329,192,119195,1,0,0:0:0:0:
475,192,119195,1,0,0:0:0:0:
329,192,119362,128,0,119528:0:0:0:0:
475,192,119362,128,0,119528:0:0:0:0:
109,192,119362,128,0,119528:0:0:0:0:
182,192,119362,128,0,119528:0:0:0:0:
402,192,119528,1,0,0:0:0:0:
256,192,119528,1,0,0:0:0:0:
402,192,119695,1,0,0:0:0:0:
36,192,119695,1,0,0:0:0:0:
109,192,119695,1,0,0:0:0:0:
475,192,119695,1,0,0:0:0:0:
256,192,119778,1,0,0:0:0:0:
182,192,119862,1,0,0:0:0:0:
109,192,119862,1,0,0:0:0:0:
329,192,119862,1,0,0:0:0:0:
402,192,119862,1,0,0:0:0:0:
256,192,119945,1,0,0:0:0:0:
109,192,120028,1,0,0:0:0:0:
36,192,120028,1,0,0:0:0:0:
402,192,120028,1,0,0:0:0:0:
475,192,120028,1,0,0:0:0:0:
256,192,120112,1,0,0:0:0:0:
329,192,120195,1,0,0:0:0:0:
182,192,120195,1,0,0:0:0:0:
36,192,120195,1,0,0:0:0:0:
475,192,120195,1,0,0:0:0:0:
256,192,120278,1,0,0:0:0:0:
109,192,120362,1,0,0:0:0:0:
182,192,120445,1,0,0:0:0:0:
256,192,120528,1,0,0:0:0:0:
329,192,120612,1,0,0:0:0:0:
402,192,120695,1,0,0:0:0:0:
109,192,120695,1,0,0:0:0:0:
475,192,120778,1,0,0:0:0:0:
182,192,120778,1,0,0:0:0:0:
256,192,120862,1,0,0:0:0:0:
36,192,120862,1,0,0:0:0:0:
329,192,120945,1,0,0:0:0:0:
109,192,120945,1,0,0:0:0:0:
182,192,121028,1,0,0:0:0:0:
402,192,121028,128,0,121278:0:0:0:0:
475,192,121028,128,0,121278:0:0:0:0:
36,192,121195,128,0,121362:0:0:0:0:
109,192,121195,128,0,121362:0:0:0:0:
475,192,121362,1,0,0:0:0:0:
329,192,121362,1,0,0:0:0:0:
256,192,121445,1,0,0:0:0:0:
182,192,121528,1,0,0:0:0:0:
402,192,121528,1,0,0:0:0:0:
329,192,121612,1,0,0:0:0:0:
256,192,121695,1,0,0:0:0:0:
36,192,121695,1,0,0:0:0:0:
109,192,121778,1,0,0:0:0:0:
182,192,121862,1,0,0:0:0:0:
402,192,121862,1,0,0:0:0:0:
256,192,121945,1,0,0:0:0:0:
329,192,122028,1,0,0:0:0:0:
36,192,122028,1,0,0:0:0:0:
182,192,122084,1,0,0:0:0:0:
402,192,122139,1,0,0:0:0:0:
109,192,122195,1,0,0:0:0:0:
36,192,122195,1,0,0:0:0:0:
329,192,122250,1,0,0:0:0:0:
475,192,122250,1,0,0:0:0:0:
182,192,122306,1,0,0:0:0:0:
36,192,122306,1,0,0:0:0:0:
402,192,122362,1,0,0:0:0:0:
475,192,122362,1,0,0:0:0:0:
256,192,122362,1,0,0:0:0:0:
36,192,122528,1,0,0:0:0:0:
109,192,122528,1,0,0:0:0:0:
182,192,122528,1,0,0:0:0:0:
329,192,122612,1,0,0:0:0:0:
402,192,122612,1,0,0:0:0:0:
109,192,122778,1,0,0:0:0:0:
182,192,122778,1,0,0:0:0:0:
256,192,122778,1,0,0:0:0:0:
402,192,122862,1,0,0:0:0:0:
475,192,122862,1,0,0:0:0:0:
475,192,123028,1,0,0:0:0:0:
402,192,123028,1,0,0:0:0:0:
329,192,123028,1,0,0:0:0:0:
182,192,123112,1,0,0:0:0:0:
109,192,123112,1,0,0:0:0:0:
256,192,123278,1,0,0:0:0:0:
329,192,123278,1,0,0:0:0:0:
402,192,123278,1,0,0:0:0:0:
109,192,123362,1,0,0:0:0:0:
36,192,123362,1,0,0:0:0:0:
402,192,123528,1,0,0:0:0:0:
182,192,123584,1,0,0:0:0:0:
329,192,123639,1,0,0:0:0:0:
402,192,123639,1,0,0:0:0:0:
182,192,123695,1,0,0:0:0:0:
109,192,123695,1,0,0:0:0:0:
36,192,123695,1,0,0:0:0:0:
256,192,123862,1,0,0:0:0:0:
36,192,123862,1,0,0:0:0:0:
329,192,123945,1,0,0:0:0:0:
182,192,124028,1,0,0:0:0:0:
402,192,124028,1,0,0:0:0:0:
256,192,124112,1,0,0:0:0:0:
329,192,124195,1,0,0:0:0:0:
36,192,124195,1,0,0:0:0:0:
256,192,124278,1,0,0:0:0:0:
182,192,124362,1,0,0:0:0:0:
402,192,124362,1,0,0:0:0:0:
329,192,124445,1,0,0:0:0:0:
256,192,124528,1,0,0:0:0:0:
36,192,124528,1,0,0:0:0:0:
182,192,124612,1,0,0:0:0:0:
109,192,124695,1,0,0:0:0:0:
402,192,124695,1,0,0:0:0:0:
329,192,124750,1,0,0:0:0:0:
256,192,124806,1,0,0:0:0:0:
402,192,124862,1,0,0:0:0:0:
475,192,124862,1,0,0:0:0:0:
36,192,124917,1,0,0:0:0:0:
182,192,124917,1,0,0:0:0:0:
329,192,124973,1,0,0:0:0:0:
475,192,124973,1,0,0:0:0:0:
36,192,125028,1,0,0:0:0:0:
256,192,125028,1,0,0:0:0:0:
109,192,125028,1,0,0:0:0:0:
182,192,125195,1,0,0:0:0:0:
36,192,125195,1,0,0:0:0:0:
109,192,125195,1,0,0:0:0:0:
329,192,125278,1,0,0:0:0:0:
402,192,125278,1,0,0:0:0:0:
402,192,125445,1,0,0:0:0:0:
475,192,125445,1,0,0:0:0:0:
329,192,125445,1,0,0:0:0:0:
109,192,125528,1,0,0:0:0:0:
182,192,125528,1,0,0:0:0:0:
475,192,125736,1,0,0:0:0:0:
402,192,125778,1,0,0:0:0:0:
329,192,125820,1,0,0:0:0:0:
256,192,125861,1,0,0:0:0:0:
182,192,125903,1,0,0:0:0:0:
109,192,125945,1,0,0:0:0:0:
36,192,125986,1,0,0:0:0:0:
402,192,126028,1,0,0:0:0:0:
475,192,126028,1,0,0:0:0:0:
329,192,126028,1,0,0:0:0:0:
256,192,126028,1,0,0:0:0:0:
182,192,126195,1,0,0:0:0:0:
256,192,126250,1,0,0:0:0:0:
329,192,126306,1,0,0:0:0:0:
402,192,126361,1,0,0:0:0:0:
109,192,126361,1,0,0:0:0:0:
36,192,126361,1,0,0:0:0:0:
475,192,126361,1,0,0:0:0:0:
475,192,126528,1,0,0:0:0:0:
329,192,126528,1,0,0:0:0:0:
182,192,126528,1,0,0:0:0:0:
109,192,126611,1,0,0:0:0:0:
256,192,126695,1,0,0:0:0:0:
402,192,126695,1,0,0:0:0:0:
182,192,126778,1,0,0:0:0:0:
36,192,126778,1,0,0:0:0:0:
329,192,126861,1,0,0:0:0:0:
475,192,126861,1,0,0:0:0:0:
256,192,126945,1,0,0:0:0:0:
109,192,126945,1,0,0:0:0:0:
402,192,127028,1,0,0:0:0:0:
475,192,127028,1,0,0:0:0:0:
36,192,127028,1,0,0:0:0:0:
329,192,127111,1,0,0:0:0:0:
256,192,127195,1,0,0:0:0:0:
475,192,127195,1,0,0:0:0:0:
182,192,127278,1,0,0:0:0:0:
329,192,127361,1,0,0:0:0:0:
109,192,127361,1,0,0:0:0:0:
36,192,127361,1,0,0:0:0:0:
402,192,127445,1,0,0:0:0:0:
475,192,127445,1,0,0:0:0:0:
182,192,127528,1,0,0:0:0:0:
109,192,127528,1,0,0:0:0:0:
329,192,127611,1,0,0:0:0:0:
402,192,127611,1,0,0:0:0:0:
256,192,127695,128,0,127945:0:0:0:0:
182,192,127695,1,0,0:0:0:0:
329,192,127778,1,0,0:0:0:0:
402,192,127861,1,0,0:0:0:0:
36,192,127945,128,0,128195:0:0:0:0:
109,192,127945,1,0,0:0:0:0:
256,192,128028,1,0,0:0:0:0:
329,192,128111,1,0,0:0:0:0:
475,192,128195,128,0,128445:0:0:0:0:
402,192,128195,1,0,0:0:0:0:
256,192,128278,1,0,0:0:0:0:
182,192,128361,1,0,0:0:0:0:
256,192,128445,128,0,128695:0:0:0:0:
329,192,128445,1,0,0:0:0:0:
109,192,128528,1,0,0:0:0:0:
36,192,128611,1,0,0:0:0:0:
475,192,128695,128,0,128861:0:0:0:0:
329,192,128695,128,0,128861:0:0:0:0:
182,192,128861,128,0,129028:0:0:0:0:
36,192,128861,128,0,129028:0:0:0:0:
402,192,129028,1,0,0:0:0:0:
475,192,129028,1,0,0:0:0:0:
256,192,129028,1,0,0:0:0:0:
329,192,129195,1,0,0:0:0:0:
109,192,129195,1,0,0:0:0:0:
182,192,129278,1,0,0:0:0:0:
256,192,129361,1,0,0:0:0:0:
475,192,129361,1,0,0:0:0:0:
402,192,129361,1,0,0:0:0:0:
109,192,129445,1,0,0:0:0:0:
36,192,129445,1,0,0:0:0:0:
329,192,129528,1,0,0:0:0:0:
402,192,129528,1,0,0:0:0:0:
182,192,129611,1,0,0:0:0:0:
109,192,129611,1,0,0:0:0:0:
256,192,129695,1,0,0:0:0:0:
329,192,129695,1,0,0:0:0:0:
475,192,129695,1,0,0:0:0:0:
36,192,129778,1,0,0:0:0:0:
402,192,129861,1,0,0:0:0:0:
109,192,129861,1,0,0:0:0:0:
329,192,129945,1,0,0:0:0:0:
256,192,130028,1,0,0:0:0:0:
475,192,130028,1,0,0:0:0:0:
36,192,130028,1,0,0:0:0:0:
329,192,130195,1,0,0:0:0:0:
109,192,130195,1,0,0:0:0:0:
402,192,130195,128,0,131028:0:0:0:0:
475,192,130195,128,0,131028:0:0:0:0:
36,192,130528,1,0,0:0:0:0:
182,192,130584,1,0,0:0:0:0:
329,192,130639,1,0,0:0:0:0:
109,192,130695,1,0,0:0:0:0:
36,192,130695,1,0,0:0:0:0:
256,192,130778,1,0,0:0:0:0:
182,192,130861,1,0,0:0:0:0:
109,192,130861,1,0,0:0:0:0:
329,192,130945,1,0,0:0:0:0:
256,192,131028,1,0,0:0:0:0:
182,192,131028,1,0,0:0:0:0:
36,192,131028,1,0,0:0:0:0:
475,192,131195,1,0,0:0:0:0:
402,192,131195,1,0,0:0:0:0:
329,192,131278,1,0,0:0:0:0:
182,192,131278,1,0,0:0:0:0:
109,192,131362,1,0,0:0:0:0:
36,192,131362,1,0,0:0:0:0:
475,192,131362,1,0,0:0:0:0:
182,192,131528,1,0,0:0:0:0:
256,192,131528,1,0,0:0:0:0:
329,192,131528,1,0,0:0:0:0:
109,192,131695,1,0,0:0:0:0:
402,192,131695,1,0,0:0:0:0:
475,192,131695,1,0,0:0:0:0:
36,192,131695,1,0,0:0:0:0:
36,192,131862,1,0,0:0:0:0:
182,192,131862,1,0,0:0:0:0:
329,192,131862,1,0,0:0:0:0:
402,192,131945,1,0,0:0:0:0:
256,192,132028,1,0,0:0:0:0:
109,192,132028,1,0,0:0:0:0:
329,192,132112,1,0,0:0:0:0:
475,192,132112,1,0,0:0:0:0:
182,192,132195,1,0,0:0:0:0:
36,192,132195,1,0,0:0:0:0:
256,192,132278,1,0,0:0:0:0:
402,192,132278,1,0,0:0:0:0:
109,192,132362,1,0,0:0:0:0:
36,192,132362,1,0,0:0:0:0:
475,192,132362,1,0,0:0:0:0:
182,192,132445,1,0,0:0:0:0:
256,192,132528,1,0,0:0:0:0:
36,192,132528,1,0,0:0:0:0:
329,192,132612,1,0,0:0:0:0:
182,192,132695,1,0,0:0:0:0:
402,192,132695,1,0,0:0:0:0:
475,192,132695,1,0,0:0:0:0:
109,192,132778,1,0,0:0:0:0:
36,192,132778,1,0,0:0:0:0:
402,192,132861,1,0,0:0:0:0:
329,192,132917,1,0,0:0:0:0:
256,192,132973,1,0,0:0:0:0:
109,192,133028,128,0,133278:0:0:0:0:
182,192,133028,1,0,0:0:0:0:
329,192,133111,1,0,0:0:0:0:
402,192,133195,1,0,0:0:0:0:
475,192,133278,128,0,133528:0:0:0:0:
256,192,133278,1,0,0:0:0:0:
182,192,133361,1,0,0:0:0:0:
109,192,133445,1,0,0:0:0:0:
36,192,133528,128,0,133778:0:0:0:0:
329,192,133528,1,0,0:0:0:0:
182,192,133611,1,0,0:0:0:0:
256,192,133695,1,0,0:0:0:0:
329,192,133778,128,0,134028:0:0:0:0:
402,192,133778,1,0,0:0:0:0:
109,192,133861,1,0,0:0:0:0:
182,192,133945,1,0,0:0:0:0:
475,192,134028,128,0,134195:0:0:0:0:
402,192,134028,128,0,134195:0:0:0:0:
256,192,134111,1,0,0:0:0:0:
109,192,134195,128,0,134361:0:0:0:0:
36,192,134195,128,0,134361:0:0:0:0:
256,192,134278,1,0,0:0:0:0:
402,192,134361,1,0,0:0:0:0:
329,192,134361,1,0,0:0:0:0:
475,192,134361,1,0,0:0:0:0:
182,192,134528,1,0,0:0:0:0:
402,192,134528,1,0,0:0:0:0:
329,192,134611,1,0,0:0:0:0:
256,192,134695,1,0,0:0:0:0:
36,192,134695,1,0,0:0:0:0:
109,192,134695,1,0,0:0:0:0:
402,192,134778,1,0,0:0:0:0:
475,192,134778,1,0,0:0:0:0:
182,192,134861,1,0,0:0:0:0:
109,192,134861,1,0,0:0:0:0:
329,192,134945,1,0,0:0:0:0:
402,192,134945,1,0,0:0:0:0:
256,192,135028,1,0,0:0:0:0:
182,192,135028,1,0,0:0:0:0:
36,192,135028,1,0,0:0:0:0:
475,192,135111,1,0,0:0:0:0:
109,192,135195,1,0,0:0:0:0:
402,192,135195,1,0,0:0:0:0:
182,192,135278,1,0,0:0:0:0:
256,192,135361,1,0,0:0:0:0:
36,192,135361,1,0,0:0:0:0:
475,192,135361,1,0,0:0:0:0:
329,192,135417,1,0,0:0:0:0:
402,192,135473,1,0,0:0:0:0:
182,192,135528,1,0,0:0:0:0:
475,192,135528,1,0,0:0:0:0:
36,192,135528,1,0,0:0:0:0:
475,192,135695,128,0,135945:0:0:0:0:
402,192,135695,1,0,0:0:0:0:
256,192,135695,1,0,0:0:0:0:
182,192,135778,1,0,0:0:0:0:
109,192,135861,1,0,0:0:0:0:
329,192,135945,128,0,136195:0:0:0:0:
402,192,135945,1,0,0:0:0:0:
256,192,136028,1,0,0:0:0:0:
182,192,136111,1,0,0:0:0:0:
36,192,136195,128,0,136445:0:0:0:0:
109,192,136195,1,0,0:0:0:0:
256,192,136278,1,0,0:0:0:0:
329,192,136361,1,0,0:0:0:0:
182,192,136445,128,0,136695:0:0:0:0:
109,192,136445,1,0,0:0:0:0:
256,192,136528,1,0,0:0:0:0:
329,192,136611,1,0,0:0:0:0:
475,192,136695,128,0,137028:0:0:0:0:
402,192,136695,128,0,137028:0:0:0:0:
109,192,136695,1,0,0:0:0:0:
256,192,136778,1,0,0:0:0:0:
36,192,136861,1,0,0:0:0:0:
109,192,136903,1,0,0:0:0:0:
182,192,136945,1,0,0:0:0:0:
256,192,136986,1,0,0:0:0:0:
329,192,137028,1,0,0:0:0:0:
36,192,137028,1,0,0:0:0:0:
475,192,137195,1,0,0:0:0:0:
256,192,137195,128,0,137278:0:0:0:0:
182,192,137278,128,0,137361:0:0:0:0:
402,192,137361,1,0,0:0:0:0:
475,192,137361,1,0,0:0:0:0:
109,192,137361,128,0,137445:0:0:0:0:
329,192,137445,1,0,0:0:0:0:
256,192,137445,128,0,137528:0:0:0:0:
36,192,137528,1,0,0:0:0:0:
182,192,137528,128,0,137611:0:0:0:0:
402,192,137611,1,0,0:0:0:0:
329,192,137611,128,0,137695:0:0:0:0:
36,192,137695,1,0,0:0:0:0:
475,192,137695,1,0,0:0:0:0:
109,192,137695,128,0,137778:0:0:0:0:
182,192,137778,128,0,137861:0:0:0:0:
402,192,137861,1,0,0:0:0:0:
256,192,137861,128,0,137945:0:0:0:0:
182,192,137945,128,0,138028:0:0:0:0:
109,192,138028,1,0,0:0:0:0:
475,192,138028,1,0,0:0:0:0:
329,192,138028,128,0,138111:0:0:0:0:
256,192,138111,128,0,138195:0:0:0:0:
402,192,138195,1,0,0:0:0:0:
182,192,138195,128,0,138278:0:0:0:0:
256,192,138278,128,0,138361:0:0:0:0:
475,192,138361,1,0,0:0:0:0:
329,192,138361,128,0,138445:0:0:0:0:
36,192,138361,128,0,138445:0:0:0:0:
182,192,138445,128,0,138695:0:0:0:0:
36,192,138528,128,0,138611:0:0:0:0:
402,192,138611,1,0,0:0:0:0:
475,192,138611,1,0,0:0:0:0:
256,192,138611,128,0,138695:0:0:0:0:
109,192,138695,128,0,138945:0:0:0:0:
256,192,138778,128,0,138861:0:0:0:0:
36,192,138861,1,0,0:0:0:0:
475,192,138861,1,0,0:0:0:0:
182,192,138861,128,0,138945:0:0:0:0:
329,192,138945,128,0,139195:0:0:0:0:
182,192,139028,128,0,139111:0:0:0:0:
475,192,139111,1,0,0:0:0:0:
109,192,139111,1,0,0:0:0:0:
402,192,139111,128,0,139195:0:0:0:0:
256,192,139195,128,0,139445:0:0:0:0:
402,192,139278,128,0,139361:0:0:0:0:
109,192,139361,1,0,0:0:0:0:
36,192,139361,1,0,0:0:0:0:
329,192,139361,128,0,139445:0:0:0:0:
475,192,139445,128,0,139611:0:0:0:0:
182,192,139528,1,0,0:0:0:0:
329,192,139528,128,0,139611:0:0:0:0:
36,192,139611,1,0,0:0:0:0:
402,192,139695,1,0,0:0:0:0:
475,192,139695,1,0,0:0:0:0:
256,192,139695,1,0,0:0:0:0:
329,192,139861,1,0,0:0:0:0:
109,192,139861,128,0,139945:0:0:0:0:
182,192,139945,128,0,140028:0:0:0:0:
36,192,140028,1,0,0:0:0:0:
475,192,140028,1,0,0:0:0:0:
256,192,140028,128,0,140111:0:0:0:0:
402,192,140111,1,0,0:0:0:0:
329,192,140111,128,0,140195:0:0:0:0:
109,192,140195,1,0,0:0:0:0:
182,192,140195,128,0,140278:0:0:0:0:
402,192,140278,1,0,0:0:0:0:
329,192,140278,128,0,140361:0:0:0:0:
36,192,140361,1,0,0:0:0:0:
475,192,140361,1,0,0:0:0:0:
256,192,140361,128,0,140445:0:0:0:0:
182,192,140445,128,0,140528:0:0:0:0:
402,192,140528,128,0,140611:0:0:0:0:
109,192,140528,128,0,140611:0:0:0:0:
329,192,140611,128,0,140695:0:0:0:0:
36,192,140695,1,0,0:0:0:0:
475,192,140695,1,0,0:0:0:0:
256,192,140695,128,0,140778:0:0:0:0:
329,192,140778,1,0,0:0:0:0:
182,192,140778,128,0,140861:0:0:0:0:
109,192,140861,128,0,140945:0:0:0:0:
36,192,140861,128,0,142361:0:0:0:0:
256,192,140945,1,0,0:0:0:0:
402,192,141028,1,0,0:0:0:0:
475,192,141028,1,0,0:0:0:0:
182,192,141111,1,0,0:0:0:0:
329,192,141195,1,0,0:0:0:0:
402,192,141195,1,0,0:0:0:0:
109,192,141278,1,0,0:0:0:0:
256,192,141361,1,0,0:0:0:0:
329,192,141361,1,0,0:0:0:0:
109,192,141445,1,0,0:0:0:0:
329,192,141528,1,0,0:0:0:0:
402,192,141528,1,0,0:0:0:0:
182,192,141611,1,0,0:0:0:0:
402,192,141695,1,0,0:0:0:0:
475,192,141695,1,0,0:0:0:0:
329,192,141778,1,0,0:0:0:0:
182,192,141861,1,0,0:0:0:0:
109,192,141861,1,0,0:0:0:0:
402,192,141945,1,0,0:0:0:0:
256,192,142028,1,0,0:0:0:0:
182,192,142028,1,0,0:0:0:0:
475,192,142111,1,0,0:0:0:0:
329,192,142195,1,0,0:0:0:0:
256,192,142195,1,0,0:0:0:0:
475,192,142278,1,0,0:0:0:0:
256,192,142361,128,0,143695:0:0:0:0:
182,192,142361,1,0,0:0:0:0:
475,192,142528,1,0,0:0:0:0:
329,192,142584,1,0,0:0:0:0:
182,192,142639,1,0,0:0:0:0:
36,192,142695,1,0,0:0:0:0:
475,192,142695,1,0,0:0:0:0:
36,192,142861,1,0,0:0:0:0:
182,192,142917,1,0,0:0:0:0:
329,192,142973,1,0,0:0:0:0:
475,192,143028,1,0,0:0:0:0:
36,192,143028,1,0,0:0:0:0:
402,192,143195,1,0,0:0:0:0:
329,192,143250,1,0,0:0:0:0:
182,192,143306,1,0,0:0:0:0:
109,192,143361,1,0,0:0:0:0:
402,192,143361,1,0,0:0:0:0:
329,192,143445,1,0,0:0:0:0:
182,192,143528,1,0,0:0:0:0:
109,192,143528,1,0,0:0:0:0:
402,192,143611,1,0,0:0:0:0:
329,192,143611,1,0,0:0:0:0:
109,192,143695,1,0,0:0:0:0:
182,192,143695,1,0,0:0:0:0:
36,192,143695,1,0,0:0:0:0:
475,192,143861,128,0,144528:0:0:0:0:
402,192,143945,128,0,144361:0:0:0:0:
329,192,144028,128,0,144278:0:0:0:0:
182,192,144111,128,0,144445:0:0:0:0:
109,192,144195,128,0,144445:0:0:0:0:
36,192,144278,128,0,144445:0:0:0:0:
329,192,144361,128,0,144528:0:0:0:0:
402,192,144445,128,0,144528:0:0:0:0:
182,192,144528,1,0,0:0:0:0:
109,192,144528,1,0,0:0:0:0:
36,192,144528,1,0,0:0:0:0:
329,192,144584,1,0,0:0:0:0:
402,192,144584,1,0,0:0:0:0:
182,192,144639,1,0,0:0:0:0:
109,192,144639,1,0,0:0:0:0:
329,192,144695,1,0,0:0:0:0:
402,192,144695,1,0,0:0:0:0:
475,192,144695,1,0,0:0:0:0:
109,192,144861,1,0,0:0:0:0:
402,192,144861,1,0,0:0:0:0:
256,192,145028,1,0,0:0:0:0:
36,192,145028,1,0,0:0:0:0:
182,192,145028,1,0,0:0:0:0:
329,192,145028,1,0,0:0:0:0:
475,192,145028,1,0,0:0:0:0:
109,192,145195,128,0,145528:0:0:0:0:
182,192,145278,128,0,145445:0:0:0:0:
329,192,145361,128,0,145695:0:0:0:0:
402,192,145445,128,0,145611:0:0:0:0:
182,192,145528,128,0,145695:0:0:0:0:
109,192,145611,128,0,145695:0:0:0:0:
402,192,145695,1,0,0:0:0:0:
329,192,145778,1,0,0:0:0:0:
182,192,145778,1,0,0:0:0:0:
109,192,145778,1,0,0:0:0:0:
256,192,145861,1,0,0:0:0:0:
402,192,145861,1,0,0:0:0:0:
475,192,145861,1,0,0:0:0:0:
256,192,146028,1,0,0:0:0:0:
402,192,146028,1,0,0:0:0:0:
475,192,146028,1,0,0:0:0:0:
475,192,146195,1,0,0:0:0:0:
402,192,146195,1,0,0:0:0:0:
256,192,146195,1,0,0:0:0:0:
182,192,146250,1,0,0:0:0:0:
109,192,146306,1,0,0:0:0:0:
36,192,146361,1,0,0:0:0:0:
329,192,146361,1,0,0:0:0:0:
402,192,146361,1,0,0:0:0:0:
475,192,146361,1,0,0:0:0:0:
256,192,146528,128,0,146695:0:0:0:0:
109,192,146528,128,0,146695:0:0:0:0:
329,192,146611,128,0,146778:0:0:0:0:
402,192,146695,128,0,146861:0:0:0:0:
182,192,146695,128,0,146861:0:0:0:0:
109,192,146778,128,0,146945:0:0:0:0:
36,192,146861,128,0,147028:0:0:0:0:
329,192,146861,128,0,147028:0:0:0:0:
256,192,146945,128,0,147111:0:0:0:0:
182,192,147028,128,0,147195:0:0:0:0:
475,192,147028,128,0,147195:0:0:0:0:
402,192,147111,128,0,147195:0:0:0:0:
329,192,147195,1,0,0:0:0:0:
36,192,147195,1,0,0:0:0:0:
256,192,147236,1,0,0:0:0:0:
182,192,147278,1,0,0:0:0:0:
109,192,147320,1,0,0:0:0:0:
36,192,147361,1,0,0:0:0:0:
402,192,147361,1,0,0:0:0:0:
475,192,147361,1,0,0:0:0:0:
256,192,147445,1,0,0:0:0:0:
475,192,147528,1,0,0:0:0:0:
402,192,147528,1,0,0:0:0:0:
36,192,147611,1,0,0:0:0:0:
182,192,147611,1,0,0:0:0:0:
475,192,147695,1,0,0:0:0:0:
402,192,147695,1,0,0:0:0:0:
329,192,147695,1,0,0:0:0:0:
182,192,147778,1,0,0:0:0:0:
109,192,147778,1,0,0:0:0:0:
36,192,147778,1,0,0:0:0:0:
36,192,147945,1,0,0:0:0:0:
109,192,147945,1,0,0:0:0:0:
182,192,147945,1,0,0:0:0:0:
329,192,148028,1,0,0:0:0:0:
402,192,148028,1,0,0:0:0:0:
475,192,148028,1,0,0:0:0:0:
475,192,148195,1,0,0:0:0:0:
402,192,148195,1,0,0:0:0:0:
329,192,148195,1,0,0:0:0:0:
182,192,148278,1,0,0:0:0:0:
109,192,148278,1,0,0:0:0:0:
36,192,148278,1,0,0:0:0:0:
36,192,148445,1,0,0:0:0:0:
109,192,148445,1,0,0:0:0:0:
182,192,148445,1,0,0:0:0:0:
329,192,148528,1,0,0:0:0:0:
402,192,148528,1,0,0:0:0:0:
475,192,148528,1,0,0:0:0:0:
182,192,148695,1,0,0:0:0:0:
36,192,148695,1,0,0:0:0:0:
109,192,148695,1,0,0:0:0:0:
475,192,148861,1,0,0:0:0:0:
402,192,148861,1,0,0:0:0:0:
256,192,148917,1,0,0:0:0:0:
329,192,148917,1,0,0:0:0:0:
182,192,148973,1,0,0:0:0:0:
109,192,148973,1,0,0:0:0:0:
36,192,149028,1,0,0:0:0:0:
402,192,149028,1,0,0:0:0:0:
475,192,149028,1,0,0:0:0:0:
329,192,149111,1,0,0:0:0:0:
256,192,149111,1,0,0:0:0:0:
182,192,149111,1,0,0:0:0:0:
182,192,149278,1,0,0:0:0:0:
256,192,149278,1,0,0:0:0:0:
329,192,149278,1,0,0:0:0:0:
36,192,149361,1,0,0:0:0:0:
109,192,149361,1,0,0:0:0:0:
475,192,149361,1,0,0:0:0:0:
475,192,149528,1,0,0:0:0:0:
36,192,149528,1,0,0:0:0:0:
109,192,149528,1,0,0:0:0:0:
182,192,149611,1,0,0:0:0:0:
256,192,149611,1,0,0:0:0:0:
329,192,149611,1,0,0:0:0:0:
182,192,149778,1,0,0:0:0:0:
256,192,149778,1,0,0:0:0:0:
329,192,149778,1,0,0:0:0:0:
36,192,149861,1,0,0:0:0:0:
475,192,149861,1,0,0:0:0:0:
402,192,149861,1,0,0:0:0:0:
109,192,150028,1,0,0:0:0:0:
329,192,150028,1,0,0:0:0:0:
182,192,150111,1,0,0:0:0:0:
256,192,150195,1,0,0:0:0:0:
475,192,150195,1,0,0:0:0:0:
329,192,150278,1,0,0:0:0:0:
36,192,150695,128,0,151361:0:0:0:0:
182,192,150695,128,0,151361:0:0:0:0:
329,192,150695,128,0,151361:0:0:0:0:
475,192,150695,128,0,151361:0:0:0:0:
