osu file format v14

[General]
AudioFilename: audio.mp3
AudioLeadIn: 0
PreviewTime: 54169
Countdown: 0
SampleSet: Soft
StackLeniency: 0.7
Mode: 3
LetterboxInBreaks: 0
SpecialStyle: 0
WidescreenStoryboard: 1

[Editor]
DistanceSpacing: 1.3
BeatDivisor: 8
GridSize: 4
TimelineZoom: 3.099999

[Metadata]
Title:Glooorious!!
TitleUnicode:Glooorious!!
Artist:Hino Isuka vs. s-don
ArtistUnicode:翡乃イスカ vs. s-don
Creator:Lott
Version:Insane
Source:osu!mania 7K World Cup 2023
Tags:fa featured artist mg mpg mappers mappers' guild M3-2023春 2023 春M3 electronic instrumental tournament rg rhythm game MWC 7K 2023 23 MWC7K2023 original glorious gloorious gloooorious hybrid quaver official tournament 2023 qot2023 qot23 qot riss-Frantzz Trrricksters​!​!
BeatmapID:4380234
BeatmapSetID:1998672

[Difficulty]
HPDrainRate:7.7
CircleSize:4
OverallDifficulty:7.4
ApproachRate:5
SliderMultiplier:1.4
SliderTickRate:1

[Events]
//Background and Video events
0,0,"bg2.jpg",0,0
//Break Periods
//Storyboard Layer 0 (Background)
//Storyboard Layer 1 (Fail)
//Storyboard Layer 2 (Pass)
//Storyboard Layer 3 (Foreground)
//Storyboard Layer 4 (Overlay)
//Storyboard Sound Samples

[TimingPoints]
1524,387.096774193548,4,2,1,15,1,0
3072,-100,4,2,1,20,0,0
3362,-100,4,2,1,25,0,0
3653,-100,4,2,1,30,0,0
3846,-100,4,2,1,35,0,0
29782,-100,4,2,1,35,0,1
29878,-100,4,2,1,35,0,0
54169,-100,4,2,1,40,0,1
66556,-100,4,2,1,30,0,0
72749,-100,4,2,1,35,0,0
74298,413.793103448276,4,2,1,35,1,0
74298,-93.4579439252336,4,2,1,35,0,0
75953,444.444444444444,4,2,1,35,1,0
75953,-86.9565217391304,4,2,1,35,0,0
77730,468.75,4,2,1,25,1,0
77730,-82.6446280991736,4,2,1,25,0,0
79605,-82.6446280991736,4,2,1,35,0,0
80073,-82.6446280991736,4,2,1,35,0,1
80190,-82.6446280991736,4,2,1,35,0,0
95542,-82.6446280991736,4,2,1,35,0,1
96480,-82.6446280991736,4,2,1,35,0,0
97417,-82.6446280991736,4,2,1,35,0,1
98355,-82.6446280991736,4,2,1,35,0,0
99292,-82.6446280991736,4,2,1,35,0,1
100230,-82.6446280991736,4,2,1,35,0,0
101167,-82.6446280991736,4,2,1,35,0,1
102105,-82.6446280991736,4,2,1,35,0,0
103042,-82.6446280991736,4,2,1,35,0,1
103980,-82.6446280991736,4,2,1,35,0,0
104917,-82.6446280991736,4,2,1,35,0,1
105855,-82.6446280991736,4,2,1,35,0,0
106792,-82.6446280991736,4,2,1,35,0,1
107730,-82.6446280991736,4,2,1,35,0,0
108667,-82.6446280991736,4,2,1,35,0,1
108784,-82.6446280991736,4,2,1,25,0,0
109605,387.096774193548,4,2,1,30,1,0
109605,-100,4,2,1,30,0,0
112701,363.636363636364,4,2,1,30,1,0
112701,-106.382978723404,4,2,1,30,0,0
115610,342.857142857143,4,2,1,10,1,0
115610,-112.359550561798,4,2,1,10,0,0
116295,-112.359550561798,4,2,1,15,0,0
116981,-112.359550561798,4,2,1,20,0,0
117667,-112.359550561798,4,2,1,25,0,0
118352,333.333333333333,4,2,1,30,1,0
118352,-116.279069767442,4,2,1,30,0,0
122352,-116.279069767442,4,2,1,40,0,1
122435,-116.279069767442,4,2,1,40,0,0
122602,-116.279069767442,4,2,1,40,0,1
122685,-116.279069767442,4,2,1,40,0,0
122852,-116.279069767442,4,2,1,40,0,1
122935,-116.279069767442,4,2,1,40,0,0
123102,-116.279069767442,4,2,1,40,0,1
123185,-116.279069767442,4,2,1,40,0,0
123352,-116.279069767442,4,2,1,40,0,1
123435,-116.279069767442,4,2,1,30,0,0
125018,-116.279069767442,4,2,1,40,0,1
125102,-116.279069767442,4,2,1,40,0,0
125268,-116.279069767442,4,2,1,40,0,1
125351,-116.279069767442,4,2,1,40,0,0
125518,-116.279069767442,4,2,1,40,0,1
125601,-116.279069767442,4,2,1,25,0,0
126351,-116.279069767442,4,2,1,40,0,1
143685,-116.279069767442,4,2,1,40,0,0
145018,-116.279069767442,4,2,1,40,0,1
145185,-116.279069767442,4,2,1,40,0,0
146351,-116.279069767442,4,2,1,40,0,1
146518,-116.279069767442,4,2,1,40,0,0
150685,-116.279069767442,4,2,1,30,0,1
151351,-116.279069767442,4,2,1,25,0,0

[HitObjects]
64,192,1524,128,0,1717:0:0:0:0:
192,192,1717,1,0,0:0:0:0:
320,192,1814,1,0,0:0:0:0:
64,192,1911,1,0,0:0:0:0:
192,192,1959,1,0,0:0:0:0:
320,192,2104,1,0,0:0:0:0:
192,192,2201,1,0,0:0:0:0:
448,192,2298,1,0,0:0:0:0:
192,192,2394,128,0,2491:0:0:0:0:
320,192,2491,128,0,2588:0:0:0:0:
64,192,2588,128,0,2685:0:0:0:0:
448,192,2685,1,0,0:0:0:0:
320,192,2733,1,0,0:0:0:0:
192,192,2782,1,0,0:0:0:0:
64,192,2830,1,0,0:0:0:0:
448,192,2878,1,0,0:0:0:0:
192,192,2975,1,0,0:0:0:0:
320,192,3072,1,0,0:0:0:0:
448,192,3072,1,0,0:0:0:0:
64,192,3169,1,0,0:0:0:0:
320,192,3265,1,0,0:0:0:0:
192,192,3362,1,0,0:0:0:0:
64,192,3362,1,0,0:0:0:0:
448,192,3459,1,0,0:0:0:0:
192,192,3556,1,0,0:0:0:0:
448,192,3653,1,0,0:0:0:0:
320,192,3653,1,0,0:0:0:0:
64,192,3749,1,0,0:0:0:0:
192,192,3846,1,0,0:0:0:0:
448,192,3846,128,0,4040:0:0:0:0:
320,192,3846,128,0,3943:0:0:0:0:
64,192,4040,1,0,0:0:0:0:
192,192,4088,1,0,0:0:0:0:
320,192,4136,1,0,0:0:0:0:
448,192,4185,1,0,0:0:0:0:
64,192,4233,1,0,0:0:0:0:
64,192,4330,1,0,0:0:0:0:
320,192,4427,1,0,0:0:0:0:
448,192,4523,1,0,0:0:0:0:
320,192,4620,1,0,0:0:0:0:
192,192,4620,1,0,0:0:0:0:
64,192,4620,128,0,5007:0:0:0:0:
448,192,4814,1,0,0:0:0:0:
320,192,4911,1,0,0:0:0:0:
192,192,5007,1,0,0:0:0:0:
448,192,5104,1,0,0:0:0:0:
64,192,5201,128,0,5298:0:0:0:0:
320,192,5298,1,0,0:0:0:0:
64,192,5394,128,0,5588:0:0:0:0:
192,192,5491,1,0,0:0:0:0:
448,192,5588,1,0,0:0:0:0:
320,192,5653,1,0,0:0:0:0:
192,192,5717,1,0,0:0:0:0:
64,192,5782,128,0,5878:0:0:0:0:
448,192,5782,128,0,5878:0:0:0:0:
64,192,5975,1,0,0:0:0:0:
320,192,5975,128,0,6169:0:0:0:0:
448,192,5975,128,0,6169:0:0:0:0:
192,192,6169,128,0,6362:0:0:0:0:
64,192,6265,1,0,0:0:0:0:
320,192,6362,128,0,6556:0:0:0:0:
448,192,6459,1,0,0:0:0:0:
192,192,6556,128,0,6653:0:0:0:0:
64,192,6653,128,0,6749:0:0:0:0:
192,192,6749,128,0,6846:0:0:0:0:
320,192,6846,1,0,0:0:0:0:
448,192,6943,1,0,0:0:0:0:
64,192,7040,1,0,0:0:0:0:
320,192,7136,1,0,0:0:0:0:
192,192,7201,1,0,0:0:0:0:
64,192,7265,1,0,0:0:0:0:
448,192,7330,1,0,0:0:0:0:
320,192,7330,128,0,7427:0:0:0:0:
192,192,7427,128,0,7523:0:0:0:0:
320,192,7523,1,0,0:0:0:0:
64,192,7523,128,0,7620:0:0:0:0:
448,192,7620,128,0,7717:0:0:0:0:
320,192,7717,1,0,0:0:0:0:
192,192,7717,1,0,0:0:0:0:
64,192,7717,128,0,8104:0:0:0:0:
448,192,7911,1,0,0:0:0:0:
320,192,8007,1,0,0:0:0:0:
192,192,8104,1,0,0:0:0:0:
448,192,8201,1,0,0:0:0:0:
64,192,8298,128,0,8394:0:0:0:0:
320,192,8394,1,0,0:0:0:0:
64,192,8491,128,0,8685:0:0:0:0:
192,192,8588,1,0,0:0:0:0:
448,192,8685,1,0,0:0:0:0:
320,192,8749,1,0,0:0:0:0:
192,192,8814,1,0,0:0:0:0:
64,192,8878,128,0,8975:0:0:0:0:
448,192,8878,128,0,8975:0:0:0:0:
64,192,9072,1,0,0:0:0:0:
448,192,9072,128,0,9169:0:0:0:0:
320,192,9072,128,0,9169:0:0:0:0:
448,192,9265,128,0,9459:0:0:0:0:
64,192,9265,1,0,0:0:0:0:
192,192,9265,128,0,9362:0:0:0:0:
192,192,9459,1,0,0:0:0:0:
320,192,9556,1,0,0:0:0:0:
64,192,9556,128,0,9749:0:0:0:0:
448,192,9556,128,0,9653:0:0:0:0:
448,192,9749,1,0,0:0:0:0:
192,192,9846,1,0,0:0:0:0:
64,192,9846,128,0,9943:0:0:0:0:
320,192,9846,128,0,10040:0:0:0:0:
64,192,10040,1,0,0:0:0:0:
320,192,10136,1,0,0:0:0:0:
192,192,10136,1,0,0:0:0:0:
448,192,10136,1,0,0:0:0:0:
64,192,10233,1,0,0:0:0:0:
448,192,10298,1,0,0:0:0:0:
320,192,10362,1,0,0:0:0:0:
192,192,10427,1,0,0:0:0:0:
64,192,10427,128,0,10620:0:0:0:0:
448,192,10523,1,0,0:0:0:0:
192,192,10620,1,0,0:0:0:0:
320,192,10620,128,0,10717:0:0:0:0:
64,192,10717,1,0,0:0:0:0:
448,192,10814,128,0,11201:0:0:0:0:
320,192,10814,1,0,0:0:0:0:
192,192,10814,1,0,0:0:0:0:
64,192,11007,1,0,0:0:0:0:
192,192,11104,1,0,0:0:0:0:
320,192,11201,1,0,0:0:0:0:
64,192,11298,1,0,0:0:0:0:
448,192,11394,128,0,11491:0:0:0:0:
192,192,11491,1,0,0:0:0:0:
448,192,11588,128,0,11782:0:0:0:0:
320,192,11685,1,0,0:0:0:0:
64,192,11782,1,0,0:0:0:0:
192,192,11846,1,0,0:0:0:0:
320,192,11911,1,0,0:0:0:0:
64,192,11975,128,0,12072:0:0:0:0:
448,192,11975,128,0,12072:0:0:0:0:
64,192,12169,128,0,12362:0:0:0:0:
192,192,12169,128,0,12362:0:0:0:0:
448,192,12169,1,0,0:0:0:0:
320,192,12362,128,0,12556:0:0:0:0:
448,192,12459,1,0,0:0:0:0:
192,192,12556,128,0,12749:0:0:0:0:
64,192,12653,1,0,0:0:0:0:
320,192,12749,128,0,12846:0:0:0:0:
448,192,12846,128,0,12943:0:0:0:0:
320,192,12943,128,0,13040:0:0:0:0:
192,192,13040,1,0,0:0:0:0:
64,192,13136,1,0,0:0:0:0:
448,192,13233,1,0,0:0:0:0:
192,192,13330,1,0,0:0:0:0:
320,192,13394,1,0,0:0:0:0:
448,192,13459,1,0,0:0:0:0:
192,192,13523,128,0,13620:0:0:0:0:
64,192,13523,1,0,0:0:0:0:
320,192,13620,128,0,13717:0:0:0:0:
448,192,13717,128,0,13814:0:0:0:0:
192,192,13717,1,0,0:0:0:0:
64,192,13814,128,0,13911:0:0:0:0:
448,192,13911,128,0,14298:0:0:0:0:
320,192,13911,1,0,0:0:0:0:
192,192,13911,1,0,0:0:0:0:
64,192,14104,1,0,0:0:0:0:
192,192,14201,1,0,0:0:0:0:
320,192,14298,1,0,0:0:0:0:
64,192,14394,1,0,0:0:0:0:
448,192,14491,128,0,14588:0:0:0:0:
192,192,14588,1,0,0:0:0:0:
448,192,14685,128,0,14878:0:0:0:0:
320,192,14782,1,0,0:0:0:0:
64,192,14878,1,0,0:0:0:0:
192,192,14943,1,0,0:0:0:0:
320,192,15007,1,0,0:0:0:0:
64,192,15072,128,0,15169:0:0:0:0:
448,192,15072,128,0,15169:0:0:0:0:
64,192,15265,128,0,15362:0:0:0:0:
448,192,15265,128,0,16620:0:0:0:0:
192,192,15265,1,0,0:0:0:0:
320,192,15459,128,0,15653:0:0:0:0:
192,192,15653,128,0,15846:0:0:0:0:
64,192,15749,1,0,0:0:0:0:
320,192,15846,1,0,0:0:0:0:
192,192,15943,1,0,0:0:0:0:
320,192,16040,1,0,0:0:0:0:
64,192,16136,1,0,0:0:0:0:
192,192,16233,1,0,0:0:0:0:
64,192,16427,1,0,0:0:0:0:
320,192,16523,1,0,0:0:0:0:
64,192,16620,1,0,0:0:0:0:
192,192,16717,128,0,16911:0:0:0:0:
448,192,16814,1,0,0:0:0:0:
320,192,16911,1,0,0:0:0:0:
448,192,17007,1,0,0:0:0:0:
192,192,17007,1,0,0:0:0:0:
64,192,17007,1,0,0:0:0:0:
320,192,17201,128,0,17394:0:0:0:0:
192,192,17394,128,0,17588:0:0:0:0:
320,192,17588,128,0,17782:0:0:0:0:
192,192,17782,128,0,17975:0:0:0:0:
320,192,17975,1,0,0:0:0:0:
192,192,18072,128,0,18265:0:0:0:0:
448,192,18362,128,0,18459:0:0:0:0:
320,192,18459,128,0,18556:0:0:0:0:
448,192,18556,128,0,18653:0:0:0:0:
192,192,18653,128,0,18749:0:0:0:0:
320,192,18749,128,0,18943:0:0:0:0:
64,192,18943,128,0,19233:0:0:0:0:
192,192,19136,128,0,19330:0:0:0:0:
448,192,19330,128,0,19427:0:0:0:0:
320,192,19523,1,0,0:0:0:0:
448,192,19523,1,0,0:0:0:0:
192,192,19523,128,0,19717:0:0:0:0:
64,192,19717,1,0,0:0:0:0:
448,192,19717,1,0,0:0:0:0:
320,192,19717,128,0,19911:0:0:0:0:
192,192,19911,1,0,0:0:0:0:
64,192,19911,1,0,0:0:0:0:
448,192,19911,128,0,20104:0:0:0:0:
192,192,20104,1,0,0:0:0:0:
320,192,20104,1,0,0:0:0:0:
64,192,20104,128,0,20298:0:0:0:0:
192,192,20298,128,0,20491:0:0:0:0:
320,192,20491,128,0,20685:0:0:0:0:
192,192,20685,128,0,20878:0:0:0:0:
320,192,20878,128,0,21072:0:0:0:0:
64,192,21072,1,0,0:0:0:0:
192,192,21169,128,0,21265:0:0:0:0:
448,192,21265,1,0,0:0:0:0:
320,192,21314,128,0,21459:0:0:0:0:
64,192,21459,128,0,21556:0:0:0:0:
192,192,21556,128,0,21653:0:0:0:0:
320,192,21653,128,0,21749:0:0:0:0:
448,192,21749,128,0,21846:0:0:0:0:
192,192,21846,1,0,0:0:0:0:
64,192,21943,1,0,0:0:0:0:
192,192,22040,1,0,0:0:0:0:
320,192,22136,1,0,0:0:0:0:
448,192,22233,1,0,0:0:0:0:
320,192,22298,1,0,0:0:0:0:
192,192,22362,1,0,0:0:0:0:
320,192,22427,1,0,0:0:0:0:
64,192,22427,128,0,22620:0:0:0:0:
448,192,22427,128,0,22620:0:0:0:0:
192,192,22717,1,0,0:0:0:0:
64,192,22717,128,0,22911:0:0:0:0:
448,192,22717,128,0,22911:0:0:0:0:
448,192,23007,1,0,0:0:0:0:
192,192,23007,1,0,0:0:0:0:
320,192,23007,128,0,23201:0:0:0:0:
192,192,23201,1,0,0:0:0:0:
64,192,23201,128,0,23394:0:0:0:0:
448,192,23201,128,0,23394:0:0:0:0:
320,192,23394,1,0,0:0:0:0:
64,192,23491,1,0,0:0:0:0:
192,192,23588,1,0,0:0:0:0:
320,192,23685,1,0,0:0:0:0:
448,192,23782,1,0,0:0:0:0:
64,192,23782,128,0,23878:0:0:0:0:
192,192,23782,128,0,23878:0:0:0:0:
320,192,23975,128,0,24169:0:0:0:0:
64,192,23975,128,0,24169:0:0:0:0:
448,192,23975,1,0,0:0:0:0:
192,192,24169,1,0,0:0:0:0:
320,192,24265,1,0,0:0:0:0:
448,192,24362,1,0,0:0:0:0:
192,192,24459,1,0,0:0:0:0:
448,192,24556,128,0,24653:0:0:0:0:
320,192,24556,128,0,24653:0:0:0:0:
64,192,24556,1,0,0:0:0:0:
192,192,24749,128,0,24943:0:0:0:0:
320,192,24749,128,0,24943:0:0:0:0:
64,192,24749,1,0,0:0:0:0:
448,192,24943,1,0,0:0:0:0:
192,192,25040,1,0,0:0:0:0:
64,192,25136,1,0,0:0:0:0:
448,192,25233,1,0,0:0:0:0:
64,192,25330,128,0,25427:0:0:0:0:
192,192,25330,128,0,25427:0:0:0:0:
320,192,25330,1,0,0:0:0:0:
448,192,25523,128,0,25717:0:0:0:0:
192,192,25523,128,0,25717:0:0:0:0:
320,192,25523,1,0,0:0:0:0:
64,192,25717,1,0,0:0:0:0:
448,192,25814,1,0,0:0:0:0:
320,192,25911,1,0,0:0:0:0:
64,192,26007,1,0,0:0:0:0:
448,192,26104,128,0,26201:0:0:0:0:
320,192,26104,128,0,26201:0:0:0:0:
192,192,26104,1,0,0:0:0:0:
64,192,26298,1,0,0:0:0:0:
448,192,26298,128,0,26491:0:0:0:0:
192,192,26298,1,0,0:0:0:0:
320,192,26394,1,0,0:0:0:0:
64,192,26491,1,0,0:0:0:0:
192,192,26491,1,0,0:0:0:0:
448,192,26588,1,0,0:0:0:0:
320,192,26685,1,0,0:0:0:0:
64,192,26685,128,0,26878:0:0:0:0:
192,192,26782,1,0,0:0:0:0:
320,192,26878,1,0,0:0:0:0:
448,192,26878,1,0,0:0:0:0:
64,192,26975,1,0,0:0:0:0:
192,192,27072,1,0,0:0:0:0:
448,192,27072,128,0,27169:0:0:0:0:
320,192,27169,1,0,0:0:0:0:
448,192,27265,1,0,0:0:0:0:
320,192,27362,1,0,0:0:0:0:
448,192,27459,1,0,0:0:0:0:
64,192,27459,128,0,27556:0:0:0:0:
192,192,27556,1,0,0:0:0:0:
64,192,27653,1,0,0:0:0:0:
192,192,27749,1,0,0:0:0:0:
320,192,27846,1,0,0:0:0:0:
64,192,27846,1,0,0:0:0:0:
448,192,28040,1,0,0:0:0:0:
192,192,28136,1,0,0:0:0:0:
192,192,28330,1,0,0:0:0:0:
64,192,28427,1,0,0:0:0:0:
448,192,28427,1,0,0:0:0:0:
64,192,28620,1,0,0:0:0:0:
192,192,28685,1,0,0:0:0:0:
320,192,28749,1,0,0:0:0:0:
448,192,28814,1,0,0:0:0:0:
64,192,28911,1,0,0:0:0:0:
320,192,29007,1,0,0:0:0:0:
448,192,29007,1,0,0:0:0:0:
192,192,29104,1,0,0:0:0:0:
64,192,29104,1,0,0:0:0:0:
64,192,29298,1,0,0:0:0:0:
192,192,29298,1,0,0:0:0:0:
448,192,29394,1,0,0:0:0:0:
320,192,29394,128,0,29588:0:0:0:0:
64,192,29588,1,0,0:0:0:0:
192,192,29588,128,0,29782:0:0:0:0:
320,192,29782,1,0,0:0:0:0:
64,192,29782,1,0,0:0:0:0:
448,192,29859,1,0,0:0:0:0:
192,192,29936,1,0,0:0:0:0:
448,192,30014,1,0,0:0:0:0:
320,192,30091,1,0,0:0:0:0:
64,192,30169,1,0,0:0:0:0:
192,192,30169,1,0,0:0:0:0:
448,192,30362,1,0,0:0:0:0:
320,192,30459,1,0,0:0:0:0:
448,192,30556,1,0,0:0:0:0:
192,192,30556,1,0,0:0:0:0:
64,192,30653,128,0,30749:0:0:0:0:
192,192,30846,1,0,0:0:0:0:
64,192,30846,1,0,0:0:0:0:
448,192,30943,1,0,0:0:0:0:
320,192,30943,128,0,31233:0:0:0:0:
192,192,31040,1,0,0:0:0:0:
448,192,31136,128,0,31330:0:0:0:0:
320,192,31330,1,0,0:0:0:0:
64,192,31330,1,0,0:0:0:0:
192,192,31427,1,0,0:0:0:0:
448,192,31523,1,0,0:0:0:0:
320,192,31620,1,0,0:0:0:0:
192,192,31717,1,0,0:0:0:0:
64,192,31717,1,0,0:0:0:0:
320,192,31782,1,0,0:0:0:0:
448,192,31846,1,0,0:0:0:0:
192,192,31911,1,0,0:0:0:0:
320,192,32007,1,0,0:0:0:0:
64,192,32104,1,0,0:0:0:0:
448,192,32104,128,0,32201:0:0:0:0:
192,192,32201,1,0,0:0:0:0:
448,192,32298,128,0,32394:0:0:0:0:
320,192,32394,1,0,0:0:0:0:
192,192,32491,128,0,32782:0:0:0:0:
64,192,32588,128,0,32782:0:0:0:0:
64,192,32878,1,0,0:0:0:0:
192,192,32878,1,0,0:0:0:0:
320,192,32878,1,0,0:0:0:0:
64,192,33072,128,0,33265:0:0:0:0:
448,192,33072,128,0,33169:0:0:0:0:
448,192,33265,1,0,0:0:0:0:
192,192,33265,128,0,33362:0:0:0:0:
192,192,33459,128,0,33653:0:0:0:0:
320,192,33653,1,0,0:0:0:0:
448,192,33653,128,0,33749:0:0:0:0:
64,192,33749,128,0,33846:0:0:0:0:
448,192,33846,128,0,34040:0:0:0:0:
64,192,34040,1,0,0:0:0:0:
192,192,34104,1,0,0:0:0:0:
320,192,34169,1,0,0:0:0:0:
448,192,34233,1,0,0:0:0:0:
64,192,34233,128,0,34427:0:0:0:0:
192,192,34233,128,0,34427:0:0:0:0:
320,192,34427,1,0,0:0:0:0:
448,192,34427,1,0,0:0:0:0:
320,192,34523,128,0,34620:0:0:0:0:
448,192,34523,128,0,34620:0:0:0:0:
320,192,34717,128,0,34814:0:0:0:0:
192,192,34717,128,0,34814:0:0:0:0:
192,192,34911,1,0,0:0:0:0:
64,192,34911,1,0,0:0:0:0:
192,192,35007,128,0,35104:0:0:0:0:
64,192,35007,128,0,35104:0:0:0:0:
448,192,35201,128,0,35298:0:0:0:0:
64,192,35201,128,0,35298:0:0:0:0:
320,192,35298,1,0,0:0:0:0:
448,192,35394,128,0,35491:0:0:0:0:
64,192,35394,128,0,35491:0:0:0:0:
192,192,35491,1,0,0:0:0:0:
320,192,35588,128,0,35685:0:0:0:0:
448,192,35588,128,0,35782:0:0:0:0:
192,192,35782,1,0,0:0:0:0:
64,192,35975,1,0,0:0:0:0:
448,192,35975,1,0,0:0:0:0:
320,192,35975,1,0,0:0:0:0:
192,192,36053,1,0,0:0:0:0:
320,192,36130,1,0,0:0:0:0:
192,192,36207,1,0,0:0:0:0:
64,192,36285,1,0,0:0:0:0:
320,192,36362,1,0,0:0:0:0:
448,192,36362,1,0,0:0:0:0:
192,192,36556,1,0,0:0:0:0:
320,192,36653,1,0,0:0:0:0:
448,192,36749,1,0,0:0:0:0:
64,192,36749,1,0,0:0:0:0:
320,192,36846,1,0,0:0:0:0:
320,192,37040,128,0,37136:0:0:0:0:
192,192,37136,1,0,0:0:0:0:
64,192,37136,1,0,0:0:0:0:
448,192,37201,1,0,0:0:0:0:
320,192,37265,1,0,0:0:0:0:
192,192,37330,128,0,37523:0:0:0:0:
64,192,37523,1,0,0:0:0:0:
448,192,37523,128,0,37620:0:0:0:0:
320,192,37620,128,0,37717:0:0:0:0:
448,192,37717,1,0,0:0:0:0:
320,192,37814,128,0,37911:0:0:0:0:
192,192,37911,1,0,0:0:0:0:
64,192,37911,1,0,0:0:0:0:
448,192,38007,1,0,0:0:0:0:
192,192,38104,128,0,38201:0:0:0:0:
320,192,38201,128,0,38298:0:0:0:0:
64,192,38298,128,0,38394:0:0:0:0:
448,192,38298,1,0,0:0:0:0:
64,192,38491,128,0,38588:0:0:0:0:
320,192,38685,128,0,38782:0:0:0:0:
448,192,38685,128,0,38878:0:0:0:0:
192,192,38878,128,0,39072:0:0:0:0:
64,192,39072,1,0,0:0:0:0:
320,192,39072,1,0,0:0:0:0:
448,192,39072,1,0,0:0:0:0:
192,192,39265,1,0,0:0:0:0:
320,192,39330,1,0,0:0:0:0:
448,192,39394,1,0,0:0:0:0:
64,192,39459,128,0,39556:0:0:0:0:
192,192,39459,128,0,39653:0:0:0:0:
320,192,39556,128,0,39653:0:0:0:0:
64,192,39653,128,0,39749:0:0:0:0:
448,192,39749,1,0,0:0:0:0:
320,192,39749,128,0,39943:0:0:0:0:
192,192,39846,128,0,39943:0:0:0:0:
448,192,39943,128,0,40040:0:0:0:0:
64,192,40040,1,0,0:0:0:0:
192,192,40040,1,0,0:0:0:0:
320,192,40136,128,0,40233:0:0:0:0:
64,192,40233,128,0,40427:0:0:0:0:
448,192,40427,1,0,0:0:0:0:
64,192,40523,1,0,0:0:0:0:
320,192,40620,128,0,40814:0:0:0:0:
448,192,40717,1,0,0:0:0:0:
192,192,40814,128,0,41007:0:0:0:0:
64,192,40911,1,0,0:0:0:0:
448,192,41007,128,0,41104:0:0:0:0:
320,192,41104,128,0,41201:0:0:0:0:
448,192,41201,128,0,41298:0:0:0:0:
320,192,41298,128,0,41394:0:0:0:0:
192,192,41394,1,0,0:0:0:0:
64,192,41443,128,0,41685:0:0:0:0:
448,192,41588,128,0,41782:0:0:0:0:
192,192,41782,128,0,41975:0:0:0:0:
64,192,41782,1,0,0:0:0:0:
448,192,41975,1,0,0:0:0:0:
320,192,41975,128,0,42072:0:0:0:0:
448,192,42169,1,0,0:0:0:0:
192,192,42169,1,0,0:0:0:0:
320,192,42169,1,0,0:0:0:0:
64,192,42247,1,0,0:0:0:0:
320,192,42324,1,0,0:0:0:0:
64,192,42402,1,0,0:0:0:0:
192,192,42479,1,0,0:0:0:0:
320,192,42556,1,0,0:0:0:0:
448,192,42556,1,0,0:0:0:0:
192,192,42653,1,0,0:0:0:0:
64,192,42749,1,0,0:0:0:0:
448,192,42846,1,0,0:0:0:0:
320,192,42943,1,0,0:0:0:0:
192,192,42943,1,0,0:0:0:0:
448,192,43040,128,0,43136:0:0:0:0:
448,192,43233,1,0,0:0:0:0:
320,192,43233,1,0,0:0:0:0:
192,192,43330,128,0,43620:0:0:0:0:
64,192,43330,1,0,0:0:0:0:
320,192,43427,1,0,0:0:0:0:
64,192,43523,128,0,43717:0:0:0:0:
448,192,43717,1,0,0:0:0:0:
192,192,43717,1,0,0:0:0:0:
320,192,43814,1,0,0:0:0:0:
448,192,43911,1,0,0:0:0:0:
64,192,44007,1,0,0:0:0:0:
448,192,44104,1,0,0:0:0:0:
320,192,44104,1,0,0:0:0:0:
192,192,44201,128,0,44298:0:0:0:0:
64,192,44298,128,0,44394:0:0:0:0:
320,192,44394,1,0,0:0:0:0:
192,192,44394,1,0,0:0:0:0:
448,192,44491,128,0,44588:0:0:0:0:
320,192,44588,128,0,44782:0:0:0:0:
64,192,44685,1,0,0:0:0:0:
192,192,44685,128,0,44782:0:0:0:0:
192,192,44878,128,0,45169:0:0:0:0:
448,192,44878,128,0,45072:0:0:0:0:
64,192,45072,128,0,45169:0:0:0:0:
320,192,45072,1,0,0:0:0:0:
64,192,45265,128,0,45459:0:0:0:0:
192,192,45265,128,0,45556:0:0:0:0:
448,192,45653,128,0,45749:0:0:0:0:
64,192,45653,128,0,45943:0:0:0:0:
448,192,45846,128,0,46040:0:0:0:0:
320,192,45846,1,0,0:0:0:0:
64,192,46040,128,0,46117:0:0:0:0:
192,192,46040,128,0,46117:0:0:0:0:
192,192,46233,1,0,0:0:0:0:
448,192,46427,1,0,0:0:0:0:
320,192,46491,1,0,0:0:0:0:
192,192,46556,1,0,0:0:0:0:
320,192,46620,128,0,46814:0:0:0:0:
448,192,46620,128,0,46814:0:0:0:0:
64,192,46620,1,0,0:0:0:0:
64,192,46814,1,0,0:0:0:0:
192,192,46814,1,0,0:0:0:0:
64,192,46911,128,0,47007:0:0:0:0:
192,192,46911,128,0,47007:0:0:0:0:
320,192,47104,128,0,47201:0:0:0:0:
192,192,47104,128,0,47201:0:0:0:0:
448,192,47298,1,0,0:0:0:0:
320,192,47298,1,0,0:0:0:0:
448,192,47394,128,0,47491:0:0:0:0:
320,192,47394,128,0,47491:0:0:0:0:
448,192,47588,128,0,47685:0:0:0:0:
64,192,47588,128,0,47685:0:0:0:0:
192,192,47685,1,0,0:0:0:0:
448,192,47782,128,0,47878:0:0:0:0:
64,192,47782,128,0,47878:0:0:0:0:
320,192,47878,1,0,0:0:0:0:
64,192,47975,128,0,48169:0:0:0:0:
192,192,47975,128,0,48072:0:0:0:0:
448,192,48169,128,0,48265:0:0:0:0:
448,192,48362,1,0,0:0:0:0:
64,192,48362,1,0,0:0:0:0:
192,192,48362,1,0,0:0:0:0:
320,192,48441,1,0,0:0:0:0:
192,192,48518,1,0,0:0:0:0:
320,192,48595,1,0,0:0:0:0:
448,192,48673,1,0,0:0:0:0:
64,192,48749,1,0,0:0:0:0:
192,192,48749,1,0,0:0:0:0:
448,192,48846,1,0,0:0:0:0:
320,192,48943,1,0,0:0:0:0:
192,192,49040,1,0,0:0:0:0:
448,192,49136,1,0,0:0:0:0:
64,192,49136,1,0,0:0:0:0:
192,192,49233,1,0,0:0:0:0:
192,192,49427,128,0,49523:0:0:0:0:
448,192,49523,1,0,0:0:0:0:
320,192,49523,1,0,0:0:0:0:
64,192,49588,1,0,0:0:0:0:
192,192,49653,1,0,0:0:0:0:
320,192,49717,128,0,49911:0:0:0:0:
64,192,49911,128,0,50007:0:0:0:0:
448,192,49911,1,0,0:0:0:0:
192,192,50007,128,0,50104:0:0:0:0:
64,192,50104,1,0,0:0:0:0:
192,192,50201,128,0,50298:0:0:0:0:
448,192,50298,1,0,0:0:0:0:
320,192,50298,1,0,0:0:0:0:
64,192,50394,1,0,0:0:0:0:
320,192,50491,128,0,50588:0:0:0:0:
192,192,50588,128,0,50685:0:0:0:0:
64,192,50685,128,0,50782:0:0:0:0:
448,192,50685,128,0,50782:0:0:0:0:
448,192,50878,128,0,50975:0:0:0:0:
64,192,50878,128,0,50975:0:0:0:0:
192,192,51072,1,0,0:0:0:0:
320,192,51072,1,0,0:0:0:0:
64,192,51072,1,0,0:0:0:0:
192,192,51265,128,0,51362:0:0:0:0:
192,192,51459,1,0,0:0:0:0:
320,192,51459,1,0,0:0:0:0:
448,192,51459,1,0,0:0:0:0:
448,192,51653,1,0,0:0:0:0:
320,192,51717,1,0,0:0:0:0:
192,192,51782,1,0,0:0:0:0:
64,192,51846,1,0,0:0:0:0:
320,192,51846,1,0,0:0:0:0:
448,192,51846,1,0,0:0:0:0:
320,192,52040,1,0,0:0:0:0:
64,192,52088,1,0,0:0:0:0:
192,192,52136,1,0,0:0:0:0:
448,192,52185,1,0,0:0:0:0:
64,192,52233,1,0,0:0:0:0:
320,192,52233,1,0,0:0:0:0:
192,192,52233,1,0,0:0:0:0:
448,192,52427,1,0,0:0:0:0:
192,192,52475,1,0,0:0:0:0:
320,192,52523,1,0,0:0:0:0:
64,192,52572,1,0,0:0:0:0:
448,192,52620,128,0,52814:0:0:0:0:
192,192,52814,128,0,52911:0:0:0:0:
64,192,52911,1,0,0:0:0:0:
320,192,53007,128,0,53201:0:0:0:0:
192,192,53104,1,0,0:0:0:0:
448,192,53201,128,0,53394:0:0:0:0:
192,192,53330,1,0,0:0:0:0:
64,192,53394,1,0,0:0:0:0:
64,192,53523,1,0,0:0:0:0:
192,192,53588,1,0,0:0:0:0:
64,192,53782,128,0,53859:0:0:0:0:
448,192,53782,128,0,53859:0:0:0:0:
320,192,53859,1,0,0:0:0:0:
64,192,53936,1,0,0:0:0:0:
448,192,54014,1,0,0:0:0:0:
192,192,54091,1,0,0:0:0:0:
64,192,54169,1,0,0:0:0:0:
448,192,54169,1,0,0:0:0:0:
320,192,54169,128,0,54362:0:0:0:0:
192,192,54362,128,0,54556:0:0:0:0:
320,192,54459,128,0,54556:0:0:0:0:
448,192,54556,1,0,0:0:0:0:
64,192,54556,128,0,54653:0:0:0:0:
192,192,54653,128,0,54846:0:0:0:0:
64,192,54749,128,0,54943:0:0:0:0:
448,192,54846,128,0,54943:0:0:0:0:
320,192,54943,128,0,55136:0:0:0:0:
192,192,54943,1,0,0:0:0:0:
448,192,55040,128,0,55136:0:0:0:0:
192,192,55136,128,0,55233:0:0:0:0:
320,192,55233,128,0,55330:0:0:0:0:
448,192,55330,1,0,0:0:0:0:
64,192,55330,1,0,0:0:0:0:
192,192,55394,1,0,0:0:0:0:
320,192,55459,1,0,0:0:0:0:
64,192,55523,128,0,55717:0:0:0:0:
192,192,55620,128,0,55717:0:0:0:0:
320,192,55717,128,0,55911:0:0:0:0:
448,192,55717,128,0,55814:0:0:0:0:
192,192,55814,1,0,0:0:0:0:
64,192,55911,1,0,0:0:0:0:
320,192,56007,128,0,56201:0:0:0:0:
64,192,56104,1,0,0:0:0:0:
192,192,56104,1,0,0:0:0:0:
64,192,56201,1,0,0:0:0:0:
192,192,56298,128,0,56491:0:0:0:0:
320,192,56394,1,0,0:0:0:0:
448,192,56491,1,0,0:0:0:0:
64,192,56491,1,0,0:0:0:0:
448,192,56588,128,0,56782:0:0:0:0:
64,192,56685,1,0,0:0:0:0:
192,192,56782,1,0,0:0:0:0:
448,192,56878,128,0,57072:0:0:0:0:
320,192,56878,128,0,56975:0:0:0:0:
320,192,57072,128,0,57265:0:0:0:0:
192,192,57072,128,0,57169:0:0:0:0:
192,192,57265,1,0,0:0:0:0:
64,192,57265,1,0,0:0:0:0:
448,192,57459,128,0,57653:0:0:0:0:
192,192,57556,128,0,57653:0:0:0:0:
320,192,57653,128,0,57749:0:0:0:0:
64,192,57653,1,0,0:0:0:0:
448,192,57749,128,0,57943:0:0:0:0:
320,192,57846,128,0,58040:0:0:0:0:
64,192,57943,128,0,58040:0:0:0:0:
448,192,58040,1,0,0:0:0:0:
192,192,58040,128,0,58233:0:0:0:0:
64,192,58136,128,0,58233:0:0:0:0:
448,192,58233,128,0,58330:0:0:0:0:
192,192,58330,128,0,58427:0:0:0:0:
320,192,58427,1,0,0:0:0:0:
64,192,58427,1,0,0:0:0:0:
448,192,58491,1,0,0:0:0:0:
320,192,58556,1,0,0:0:0:0:
64,192,58620,128,0,58814:0:0:0:0:
320,192,58814,1,0,0:0:0:0:
192,192,58814,128,0,59007:0:0:0:0:
448,192,58814,128,0,58911:0:0:0:0:
64,192,58911,1,0,0:0:0:0:
448,192,59007,1,0,0:0:0:0:
64,192,59104,1,0,0:0:0:0:
320,192,59104,128,0,59298:0:0:0:0:
192,192,59104,128,0,59201:0:0:0:0:
448,192,59201,1,0,0:0:0:0:
192,192,59298,1,0,0:0:0:0:
448,192,59394,1,0,0:0:0:0:
64,192,59394,128,0,59588:0:0:0:0:
320,192,59394,128,0,59491:0:0:0:0:
192,192,59491,1,0,0:0:0:0:
320,192,59588,1,0,0:0:0:0:
192,192,59685,1,0,0:0:0:0:
448,192,59685,128,0,59878:0:0:0:0:
64,192,59685,128,0,59782:0:0:0:0:
320,192,59782,1,0,0:0:0:0:
64,192,59878,1,0,0:0:0:0:
448,192,59975,1,0,0:0:0:0:
320,192,59975,128,0,60072:0:0:0:0:
192,192,59975,128,0,60169:0:0:0:0:
320,192,60169,128,0,60362:0:0:0:0:
64,192,60169,128,0,60265:0:0:0:0:
192,192,60362,128,0,60556:0:0:0:0:
64,192,60362,1,0,0:0:0:0:
448,192,60362,1,0,0:0:0:0:
320,192,60556,128,0,60749:0:0:0:0:
192,192,60653,128,0,60749:0:0:0:0:
448,192,60749,128,0,60846:0:0:0:0:
64,192,60749,1,0,0:0:0:0:
320,192,60846,128,0,61040:0:0:0:0:
448,192,60943,128,0,61136:0:0:0:0:
64,192,61040,128,0,61136:0:0:0:0:
320,192,61136,1,0,0:0:0:0:
192,192,61136,128,0,61330:0:0:0:0:
64,192,61233,128,0,61330:0:0:0:0:
320,192,61330,128,0,61427:0:0:0:0:
192,192,61427,128,0,61523:0:0:0:0:
448,192,61523,1,0,0:0:0:0:
64,192,61523,1,0,0:0:0:0:
320,192,61588,1,0,0:0:0:0:
192,192,61653,1,0,0:0:0:0:
448,192,61717,128,0,61911:0:0:0:0:
320,192,61814,128,0,61911:0:0:0:0:
64,192,61911,128,0,62007:0:0:0:0:
192,192,61911,128,0,62104:0:0:0:0:
320,192,62007,1,0,0:0:0:0:
448,192,62104,1,0,0:0:0:0:
192,192,62201,128,0,62394:0:0:0:0:
320,192,62298,1,0,0:0:0:0:
448,192,62298,1,0,0:0:0:0:
448,192,62394,1,0,0:0:0:0:
320,192,62491,128,0,62685:0:0:0:0:
192,192,62588,1,0,0:0:0:0:
448,192,62685,1,0,0:0:0:0:
64,192,62685,1,0,0:0:0:0:
64,192,62782,128,0,62975:0:0:0:0:
448,192,62878,1,0,0:0:0:0:
320,192,62975,1,0,0:0:0:0:
192,192,63072,128,0,63169:0:0:0:0:
64,192,63072,128,0,63265:0:0:0:0:
320,192,63265,128,0,63362:0:0:0:0:
192,192,63265,128,0,63459:0:0:0:0:
448,192,63459,1,0,0:0:0:0:
320,192,63459,1,0,0:0:0:0:
64,192,63653,128,0,63846:0:0:0:0:
320,192,63749,128,0,63846:0:0:0:0:
448,192,63846,1,0,0:0:0:0:
192,192,63846,128,0,63943:0:0:0:0:
64,192,63943,128,0,64136:0:0:0:0:
192,192,64040,128,0,64233:0:0:0:0:
448,192,64136,128,0,64233:0:0:0:0:
320,192,64233,128,0,64427:0:0:0:0:
64,192,64233,1,0,0:0:0:0:
448,192,64330,128,0,64427:0:0:0:0:
64,192,64427,128,0,64523:0:0:0:0:
320,192,64523,128,0,64620:0:0:0:0:
192,192,64620,1,0,0:0:0:0:
448,192,64620,128,0,64717:0:0:0:0:
320,192,64717,128,0,64911:0:0:0:0:
192,192,64814,128,0,65007:0:0:0:0:
64,192,65007,128,0,65104:0:0:0:0:
448,192,65007,128,0,65201:0:0:0:0:
320,192,65201,128,0,65298:0:0:0:0:
64,192,65201,128,0,65394:0:0:0:0:
192,192,65394,128,0,65491:0:0:0:0:
320,192,65394,128,0,65588:0:0:0:0:
192,192,65588,128,0,65782:0:0:0:0:
448,192,65588,128,0,65685:0:0:0:0:
64,192,65782,1,0,0:0:0:0:
448,192,65782,1,0,0:0:0:0:
64,192,65878,1,0,0:0:0:0:
320,192,65975,1,0,0:0:0:0:
192,192,66072,1,0,0:0:0:0:
448,192,66169,1,0,0:0:0:0:
64,192,66169,128,0,66265:0:0:0:0:
320,192,66265,128,0,66362:0:0:0:0:
448,192,66362,128,0,66459:0:0:0:0:
192,192,66459,128,0,66556:0:0:0:0:
64,192,66556,1,0,0:0:0:0:
320,192,66556,1,0,0:0:0:0:
448,192,66653,1,0,0:0:0:0:
64,192,66749,1,0,0:0:0:0:
192,192,66846,1,0,0:0:0:0:
448,192,66943,1,0,0:0:0:0:
320,192,67007,1,0,0:0:0:0:
192,192,67072,1,0,0:0:0:0:
64,192,67136,1,0,0:0:0:0:
320,192,67233,1,0,0:0:0:0:
192,192,67330,1,0,0:0:0:0:
448,192,67427,1,0,0:0:0:0:
64,192,67523,1,0,0:0:0:0:
192,192,67588,1,0,0:0:0:0:
320,192,67653,1,0,0:0:0:0:
448,192,67717,1,0,0:0:0:0:
64,192,67814,1,0,0:0:0:0:
320,192,67911,1,0,0:0:0:0:
192,192,68007,1,0,0:0:0:0:
448,192,68104,1,0,0:0:0:0:
320,192,68169,1,0,0:0:0:0:
64,192,68233,1,0,0:0:0:0:
192,192,68298,1,0,0:0:0:0:
448,192,68394,1,0,0:0:0:0:
192,192,68491,1,0,0:0:0:0:
64,192,68556,1,0,0:0:0:0:
320,192,68620,1,0,0:0:0:0:
448,192,68685,1,0,0:0:0:0:
64,192,68782,1,0,0:0:0:0:
448,192,68878,1,0,0:0:0:0:
320,192,68943,1,0,0:0:0:0:
192,192,69007,1,0,0:0:0:0:
320,192,69072,1,0,0:0:0:0:
448,192,69072,128,0,69265:0:0:0:0:
64,192,69072,1,0,0:0:0:0:
64,192,69265,1,0,0:0:0:0:
192,192,69330,1,0,0:0:0:0:
320,192,69394,1,0,0:0:0:0:
448,192,69459,1,0,0:0:0:0:
192,192,69556,1,0,0:0:0:0:
320,192,69653,1,0,0:0:0:0:
448,192,69653,1,0,0:0:0:0:
64,192,69653,128,0,69846:0:0:0:0:
192,192,69846,1,0,0:0:0:0:
320,192,69943,1,0,0:0:0:0:
448,192,70040,128,0,70330:0:0:0:0:
320,192,70104,1,0,0:0:0:0:
192,192,70169,1,0,0:0:0:0:
64,192,70233,128,0,70330:0:0:0:0:
320,192,70330,1,0,0:0:0:0:
192,192,70427,128,0,70523:0:0:0:0:
448,192,70523,1,0,0:0:0:0:
192,192,70620,128,0,70717:0:0:0:0:
320,192,70717,128,0,70814:0:0:0:0:
64,192,70814,1,0,0:0:0:0:
448,192,70911,128,0,71007:0:0:0:0:
64,192,71007,128,0,71298:0:0:0:0:
320,192,71201,128,0,71878:0:0:0:0:
64,192,71394,1,0,0:0:0:0:
192,192,71588,1,0,0:0:0:0:
448,192,71685,1,0,0:0:0:0:
64,192,71782,1,0,0:0:0:0:
192,192,71878,1,0,0:0:0:0:
320,192,71975,1,0,0:0:0:0:
448,192,71975,1,0,0:0:0:0:
64,192,71975,1,0,0:0:0:0:
64,192,72169,1,0,0:0:0:0:
192,192,72169,1,0,0:0:0:0:
448,192,72169,1,0,0:0:0:0:
64,192,72362,1,0,0:0:0:0:
192,192,72362,1,0,0:0:0:0:
320,192,72362,1,0,0:0:0:0:
448,192,72556,1,0,0:0:0:0:
64,192,72749,1,0,0:0:0:0:
192,192,72749,1,0,0:0:0:0:
319,191,72749,1,0,0:0:0:0:
447,191,72846,1,0,0:0:0:0:
319,191,72943,1,0,0:0:0:0:
192,192,72943,1,0,0:0:0:0:
64,192,73040,1,0,0:0:0:0:
447,191,73136,1,0,0:0:0:0:
319,191,73136,1,0,0:0:0:0:
64,192,73201,1,0,0:0:0:0:
192,192,73265,1,0,0:0:0:0:
447,191,73330,1,0,0:0:0:0:
192,192,73427,1,0,0:0:0:0:
319,191,73523,1,0,0:0:0:0:
447,191,73523,1,0,0:0:0:0:
64,192,73523,1,0,0:0:0:0:
192,192,73620,1,0,0:0:0:0:
64,192,73717,1,0,0:0:0:0:
345,192,73717,1,0,0:0:0:0:
473,192,73814,1,0,0:0:0:0:
192,192,73911,1,0,0:0:0:0:
64,192,73911,1,0,0:0:0:0:
473,192,73975,1,0,0:0:0:0:
345,192,74040,1,0,0:0:0:0:
192,192,74104,1,0,0:0:0:0:
345,192,74201,1,0,0:0:0:0:
64,192,74298,1,0,0:0:0:0:
192,192,74298,1,0,0:0:0:0:
447,191,74298,1,0,0:0:0:0:
319,192,74401,1,0,0:0:0:0:
64,191,74504,1,0,0:0:0:0:
447,191,74504,1,0,0:0:0:0:
192,191,74608,1,0,0:0:0:0:
319,192,74711,1,0,0:0:0:0:
447,191,74711,1,0,0:0:0:0:
192,191,74780,1,0,0:0:0:0:
64,191,74849,1,0,0:0:0:0:
319,192,74918,1,0,0:0:0:0:
64,191,75022,1,0,0:0:0:0:
192,192,75125,1,0,0:0:0:0:
301,192,75125,1,0,0:0:0:0:
429,192,75125,1,0,0:0:0:0:
64,191,75229,1,0,0:0:0:0:
192,192,75332,1,0,0:0:0:0:
429,191,75332,1,0,0:0:0:0:
301,191,75435,1,0,0:0:0:0:
192,192,75539,1,0,0:0:0:0:
64,191,75539,1,0,0:0:0:0:
301,191,75608,1,0,0:0:0:0:
429,191,75677,1,0,0:0:0:0:
64,191,75746,1,0,0:0:0:0:
429,191,75849,1,0,0:0:0:0:
64,192,75953,1,0,0:0:0:0:
319,192,75953,1,0,0:0:0:0:
192,192,75953,128,0,76064:0:0:0:0:
319,192,76064,128,0,76175:0:0:0:0:
447,191,76175,1,0,0:0:0:0:
192,192,76286,1,0,0:0:0:0:
64,192,76397,1,0,0:0:0:0:
447,191,76397,1,0,0:0:0:0:
319,192,76397,128,0,76508:0:0:0:0:
64,192,76508,128,0,76619:0:0:0:0:
192,192,76619,1,0,0:0:0:0:
319,192,76730,1,0,0:0:0:0:
447,191,76841,1,0,0:0:0:0:
192,192,76841,1,0,0:0:0:0:
64,192,76841,128,0,76953:0:0:0:0:
447,191,76953,128,0,77064:0:0:0:0:
319,192,77064,1,0,0:0:0:0:
64,192,77175,1,0,0:0:0:0:
319,192,77286,1,0,0:0:0:0:
192,192,77286,1,0,0:0:0:0:
447,191,77286,128,0,77397:0:0:0:0:
192,192,77397,128,0,77508:0:0:0:0:
64,192,77508,1,0,0:0:0:0:
447,191,77619,1,0,0:0:0:0:
64,192,77730,1,0,0:0:0:0:
192,192,77730,128,0,77847:0:0:0:0:
192,192,77964,128,0,78081:0:0:0:0:
320,192,78081,1,0,0:0:0:0:
64,192,78198,1,0,0:0:0:0:
448,192,78276,1,0,0:0:0:0:
320,192,78355,1,0,0:0:0:0:
192,192,78433,1,0,0:0:0:0:
192,192,78550,1,0,0:0:0:0:
448,192,78550,1,0,0:0:0:0:
320,192,78667,128,0,78784:0:0:0:0:
64,192,78784,1,0,0:0:0:0:
192,192,78843,1,0,0:0:0:0:
320,192,78901,1,0,0:0:0:0:
448,192,78901,1,0,0:0:0:0:
192,192,79019,1,0,0:0:0:0:
64,192,79019,1,0,0:0:0:0:
448,192,79136,1,0,0:0:0:0:
64,192,79214,1,0,0:0:0:0:
448,192,79292,1,0,0:0:0:0:
192,192,79370,128,0,79487:0:0:0:0:
64,192,79605,1,0,0:0:0:0:
192,192,79605,128,0,79956:0:0:0:0:
320,192,79683,128,0,79956:0:0:0:0:
448,192,79761,128,0,79956:0:0:0:0:
192,192,80073,1,0,0:0:0:0:
448,192,80073,1,0,0:0:0:0:
320,192,80073,128,0,80308:0:0:0:0:
192,192,80308,128,0,80425:0:0:0:0:
320,192,80425,128,0,80542:0:0:0:0:
192,192,80542,1,0,0:0:0:0:
64,192,80542,1,0,0:0:0:0:
448,192,80601,1,0,0:0:0:0:
320,192,80659,1,0,0:0:0:0:
192,192,80718,1,0,0:0:0:0:
64,192,80776,1,0,0:0:0:0:
448,192,81011,1,0,0:0:0:0:
320,192,81011,1,0,0:0:0:0:
192,192,81011,128,0,81128:0:0:0:0:
64,192,81128,128,0,81362:0:0:0:0:
320,192,81245,128,0,81362:0:0:0:0:
192,192,81362,128,0,81480:0:0:0:0:
448,192,81480,1,0,0:0:0:0:
320,192,81480,1,0,0:0:0:0:
64,192,81558,128,0,81714:0:0:0:0:
448,192,81714,128,0,81831:0:0:0:0:
448,192,81948,1,0,0:0:0:0:
64,192,81948,1,0,0:0:0:0:
192,192,81948,128,0,82065:0:0:0:0:
320,192,82065,128,0,82183:0:0:0:0:
192,192,82183,128,0,82300:0:0:0:0:
448,192,82300,128,0,82417:0:0:0:0:
192,192,82417,128,0,82886:0:0:0:0:
64,192,82417,128,0,82651:0:0:0:0:
320,192,82534,128,0,82769:0:0:0:0:
448,192,82651,1,0,0:0:0:0:
64,192,82886,128,0,83237:0:0:0:0:
320,192,82886,128,0,83003:0:0:0:0:
448,192,82886,128,0,83237:0:0:0:0:
320,192,83120,1,0,0:0:0:0:
192,192,83355,128,0,83589:0:0:0:0:
64,192,83355,1,0,0:0:0:0:
320,192,83433,128,0,83706:0:0:0:0:
448,192,83511,128,0,83706:0:0:0:0:
64,192,83589,1,0,0:0:0:0:
192,192,83823,1,0,0:0:0:0:
448,192,83823,1,0,0:0:0:0:
320,192,83823,128,0,84058:0:0:0:0:
64,192,83940,128,0,84058:0:0:0:0:
448,192,84058,128,0,84175:0:0:0:0:
64,192,84175,128,0,84292:0:0:0:0:
448,192,84292,1,0,0:0:0:0:
320,192,84292,128,0,84526:0:0:0:0:
192,192,84526,128,0,84644:0:0:0:0:
320,192,84644,128,0,84761:0:0:0:0:
448,192,84644,128,0,84761:0:0:0:0:
192,192,84761,1,0,0:0:0:0:
64,192,84761,1,0,0:0:0:0:
64,192,84878,128,0,84995:0:0:0:0:
320,192,84995,1,0,0:0:0:0:
448,192,84995,1,0,0:0:0:0:
192,192,85112,128,0,85230:0:0:0:0:
64,192,85230,1,0,0:0:0:0:
320,192,85288,1,0,0:0:0:0:
448,192,85347,1,0,0:0:0:0:
192,192,85405,1,0,0:0:0:0:
64,192,85464,128,0,85581:0:0:0:0:
320,192,85464,128,0,85581:0:0:0:0:
448,192,85464,128,0,85698:0:0:0:0:
64,192,85698,128,0,85815:0:0:0:0:
320,192,85698,128,0,85933:0:0:0:0:
192,192,85698,128,0,85815:0:0:0:0:
64,192,85933,1,0,0:0:0:0:
448,192,85933,1,0,0:0:0:0:
64,192,86050,128,0,86167:0:0:0:0:
448,192,86050,128,0,86167:0:0:0:0:
64,192,86284,1,0,0:0:0:0:
192,192,86284,128,0,86401:0:0:0:0:
320,192,86401,128,0,86519:0:0:0:0:
448,192,86519,1,0,0:0:0:0:
64,192,86519,128,0,86636:0:0:0:0:
448,192,86636,1,0,0:0:0:0:
192,192,86636,128,0,86753:0:0:0:0:
320,192,86636,128,0,86870:0:0:0:0:
192,192,86870,1,0,0:0:0:0:
64,192,86929,1,0,0:0:0:0:
448,192,86987,1,0,0:0:0:0:
192,192,87046,1,0,0:0:0:0:
320,192,87105,128,0,87456:0:0:0:0:
448,192,87105,1,0,0:0:0:0:
192,192,87183,128,0,87456:0:0:0:0:
64,192,87261,128,0,87456:0:0:0:0:
192,192,87573,128,0,87808:0:0:0:0:
64,192,87573,1,0,0:0:0:0:
320,192,87573,1,0,0:0:0:0:
320,192,87808,128,0,87925:0:0:0:0:
192,192,87925,128,0,88042:0:0:0:0:
448,192,88042,1,0,0:0:0:0:
320,192,88042,1,0,0:0:0:0:
64,192,88101,1,0,0:0:0:0:
192,192,88159,1,0,0:0:0:0:
448,192,88276,128,0,88394:0:0:0:0:
64,192,88394,128,0,88511:0:0:0:0:
320,192,88511,128,0,88628:0:0:0:0:
192,192,88511,1,0,0:0:0:0:
448,192,88511,1,0,0:0:0:0:
64,192,88628,128,0,88862:0:0:0:0:
192,192,88745,128,0,88862:0:0:0:0:
320,192,88862,128,0,88980:0:0:0:0:
192,192,88980,1,0,0:0:0:0:
64,192,88980,1,0,0:0:0:0:
448,192,89058,128,0,89214:0:0:0:0:
320,192,89136,1,0,0:0:0:0:
64,192,89214,128,0,89331:0:0:0:0:
448,192,89448,1,0,0:0:0:0:
64,192,89448,1,0,0:0:0:0:
320,192,89448,1,0,0:0:0:0:
192,192,89565,1,0,0:0:0:0:
320,192,89683,1,0,0:0:0:0:
192,192,89761,1,0,0:0:0:0:
64,192,89839,1,0,0:0:0:0:
448,192,89917,128,0,90151:0:0:0:0:
320,192,89917,128,0,90386:0:0:0:0:
64,192,90034,128,0,90269:0:0:0:0:
192,192,90151,1,0,0:0:0:0:
64,192,90386,128,0,90737:0:0:0:0:
192,192,90386,128,0,90503:0:0:0:0:
448,192,90386,128,0,90737:0:0:0:0:
192,192,90620,1,0,0:0:0:0:
448,192,90855,1,0,0:0:0:0:
320,192,90855,128,0,91089:0:0:0:0:
192,192,90933,128,0,91089:0:0:0:0:
64,192,91011,128,0,91206:0:0:0:0:
448,192,91089,128,0,91206:0:0:0:0:
192,192,91206,128,0,91323:0:0:0:0:
320,192,91323,128,0,91558:0:0:0:0:
64,192,91323,1,0,0:0:0:0:
448,192,91323,1,0,0:0:0:0:
192,192,91558,128,0,91675:0:0:0:0:
448,192,91675,128,0,91792:0:0:0:0:
64,192,91792,128,0,92026:0:0:0:0:
192,192,91792,1,0,0:0:0:0:
320,192,92026,128,0,92144:0:0:0:0:
64,192,92144,128,0,92261:0:0:0:0:
192,192,92144,128,0,92261:0:0:0:0:
448,192,92261,1,0,0:0:0:0:
320,192,92261,1,0,0:0:0:0:
320,192,92378,128,0,92495:0:0:0:0:
192,192,92495,1,0,0:0:0:0:
448,192,92554,1,0,0:0:0:0:
64,192,92612,1,0,0:0:0:0:
320,192,92671,1,0,0:0:0:0:
448,192,92730,128,0,92847:0:0:0:0:
192,192,92730,128,0,92964:0:0:0:0:
64,192,92730,128,0,93081:0:0:0:0:
320,192,93198,128,0,93589:0:0:0:0:
192,192,93198,128,0,93355:0:0:0:0:
64,192,93198,128,0,93589:0:0:0:0:
192,192,93433,128,0,93589:0:0:0:0:
448,192,93667,128,0,93823:0:0:0:0:
320,192,93667,128,0,94058:0:0:0:0:
64,192,93667,128,0,94058:0:0:0:0:
448,192,93901,128,0,94058:0:0:0:0:
64,192,94136,128,0,94370:0:0:0:0:
320,192,94136,128,0,94253:0:0:0:0:
448,192,94136,128,0,94487:0:0:0:0:
192,192,94136,128,0,94253:0:0:0:0:
192,192,94370,128,0,94605:0:0:0:0:
448,192,94605,1,0,0:0:0:0:
320,192,94605,1,0,0:0:0:0:
64,192,94663,1,0,0:0:0:0:
192,192,94722,1,0,0:0:0:0:
320,192,94780,1,0,0:0:0:0:
64,192,94839,1,0,0:0:0:0:
448,192,94897,1,0,0:0:0:0:
320,192,94956,1,0,0:0:0:0:
192,192,95015,1,0,0:0:0:0:
448,192,95073,1,0,0:0:0:0:
64,192,95132,1,0,0:0:0:0:
192,192,95190,1,0,0:0:0:0:
320,192,95249,128,0,95464:0:0:0:0:
448,192,95308,128,0,95542:0:0:0:0:
320,192,95542,128,0,96011:0:0:0:0:
192,192,95542,128,0,96480:0:0:0:0:
64,192,95542,128,0,96245:0:0:0:0:
320,192,96480,1,0,0:0:0:0:
448,192,96480,1,0,0:0:0:0:
64,192,96538,1,0,0:0:0:0:
192,192,96597,1,0,0:0:0:0:
448,192,96655,1,0,0:0:0:0:
64,192,96714,1,0,0:0:0:0:
320,192,96772,1,0,0:0:0:0:
448,192,96831,1,0,0:0:0:0:
192,192,96890,1,0,0:0:0:0:
64,192,96948,1,0,0:0:0:0:
320,192,97007,1,0,0:0:0:0:
192,192,97065,1,0,0:0:0:0:
448,191,97124,128,0,97339:0:0:0:0:
320,192,97183,128,0,97417:0:0:0:0:
192,192,97417,128,0,98120:0:0:0:0:
64,192,97417,128,0,97886:0:0:0:0:
448,192,97417,128,0,97886:0:0:0:0:
320,192,97886,128,0,98355:0:0:0:0:
192,192,98355,1,0,0:0:0:0:
64,192,98355,1,0,0:0:0:0:
448,192,98413,1,0,0:0:0:0:
320,192,98472,1,0,0:0:0:0:
192,192,98530,1,0,0:0:0:0:
448,192,98589,1,0,0:0:0:0:
64,192,98647,1,0,0:0:0:0:
192,192,98706,1,0,0:0:0:0:
320,192,98765,1,0,0:0:0:0:
64,192,98823,1,0,0:0:0:0:
448,192,98882,1,0,0:0:0:0:
320,192,98940,1,0,0:0:0:0:
192,192,98999,128,0,99214:0:0:0:0:
64,192,99058,128,0,99292:0:0:0:0:
448,192,99292,128,0,99995:0:0:0:0:
320,192,99292,128,0,100230:0:0:0:0:
192,192,99292,128,0,99761:0:0:0:0:
64,192,100230,1,0,0:0:0:0:
192,192,100230,1,0,0:0:0:0:
448,192,100288,1,0,0:0:0:0:
320,192,100347,1,0,0:0:0:0:
64,192,100405,1,0,0:0:0:0:
448,192,100464,1,0,0:0:0:0:
192,192,100522,1,0,0:0:0:0:
64,192,100581,1,0,0:0:0:0:
320,192,100640,1,0,0:0:0:0:
448,192,100698,1,0,0:0:0:0:
192,192,100757,1,0,0:0:0:0:
320,192,100815,1,0,0:0:0:0:
64,192,100874,128,0,101089:0:0:0:0:
192,192,100933,128,0,101167:0:0:0:0:
448,192,101167,128,0,101636:0:0:0:0:
320,192,101167,128,0,101870:0:0:0:0:
64,192,101167,128,0,101636:0:0:0:0:
192,192,101636,128,0,102105:0:0:0:0:
320,192,102105,1,0,0:0:0:0:
448,192,102105,1,0,0:0:0:0:
64,192,102163,1,0,0:0:0:0:
192,192,102222,1,0,0:0:0:0:
320,192,102280,1,0,0:0:0:0:
64,192,102339,1,0,0:0:0:0:
448,192,102397,1,0,0:0:0:0:
320,192,102456,1,0,0:0:0:0:
192,192,102515,1,0,0:0:0:0:
448,192,102573,1,0,0:0:0:0:
64,192,102632,1,0,0:0:0:0:
192,192,102690,1,0,0:0:0:0:
320,192,102749,128,0,102964:0:0:0:0:
448,192,102808,128,0,103042:0:0:0:0:
64,192,103042,1,0,0:0:0:0:
320,192,103042,1,0,0:0:0:0:
192,192,103042,128,0,103980:0:0:0:0:
320,192,103159,128,0,103276:0:0:0:0:
64,192,103276,1,0,0:0:0:0:
448,192,103394,1,0,0:0:0:0:
448,192,103628,1,0,0:0:0:0:
320,192,103745,1,0,0:0:0:0:
448,192,103980,1,0,0:0:0:0:
320,192,103980,1,0,0:0:0:0:
64,192,104038,1,0,0:0:0:0:
192,192,104097,1,0,0:0:0:0:
448,192,104155,1,0,0:0:0:0:
64,192,104214,1,0,0:0:0:0:
320,192,104272,1,0,0:0:0:0:
448,192,104331,1,0,0:0:0:0:
192,192,104390,1,0,0:0:0:0:
64,192,104448,1,0,0:0:0:0:
320,192,104507,1,0,0:0:0:0:
192,192,104565,1,0,0:0:0:0:
448,192,104624,128,0,104839:0:0:0:0:
320,192,104683,128,0,104917:0:0:0:0:
448,192,104917,128,0,105386:0:0:0:0:
192,192,104917,1,0,0:0:0:0:
64,192,104917,1,0,0:0:0:0:
64,192,105034,128,0,105151:0:0:0:0:
320,192,105269,1,0,0:0:0:0:
192,192,105386,128,0,105737:0:0:0:0:
64,192,105503,1,0,0:0:0:0:
448,192,105737,1,0,0:0:0:0:
64,192,105855,1,0,0:0:0:0:
192,192,105855,1,0,0:0:0:0:
320,192,105913,1,0,0:0:0:0:
192,192,105972,1,0,0:0:0:0:
320,192,106089,1,0,0:0:0:0:
448,192,106089,1,0,0:0:0:0:
64,192,106147,1,0,0:0:0:0:
448,192,106206,1,0,0:0:0:0:
64,192,106323,1,0,0:0:0:0:
192,192,106323,1,0,0:0:0:0:
320,192,106382,1,0,0:0:0:0:
64,192,106440,1,0,0:0:0:0:
320,192,106558,1,0,0:0:0:0:
448,192,106558,1,0,0:0:0:0:
192,192,106616,1,0,0:0:0:0:
448,192,106675,1,0,0:0:0:0:
192,192,106792,1,0,0:0:0:0:
64,192,106792,1,0,0:0:0:0:
320,192,106792,128,0,106909:0:0:0:0:
64,192,106909,1,0,0:0:0:0:
192,192,106909,128,0,107026:0:0:0:0:
320,192,107026,1,0,0:0:0:0:
448,192,107026,1,0,0:0:0:0:
320,192,107144,1,0,0:0:0:0:
448,192,107144,1,0,0:0:0:0:
192,192,107261,1,0,0:0:0:0:
64,192,107261,1,0,0:0:0:0:
64,192,107378,1,0,0:0:0:0:
192,192,107378,1,0,0:0:0:0:
320,192,107495,1,0,0:0:0:0:
448,192,107495,1,0,0:0:0:0:
320,192,107612,1,0,0:0:0:0:
448,192,107612,1,0,0:0:0:0:
64,192,107730,1,0,0:0:0:0:
192,192,107788,1,0,0:0:0:0:
320,192,107847,128,0,107964:0:0:0:0:
448,192,107905,1,0,0:0:0:0:
192,192,107964,1,0,0:0:0:0:
64,192,108022,1,0,0:0:0:0:
448,192,108081,1,0,0:0:0:0:
320,192,108140,1,0,0:0:0:0:
64,192,108198,1,0,0:0:0:0:
192,192,108257,1,0,0:0:0:0:
448,192,108315,1,0,0:0:0:0:
64,192,108374,1,0,0:0:0:0:
320,192,108433,1,0,0:0:0:0:
448,192,108491,1,0,0:0:0:0:
192,192,108550,1,0,0:0:0:0:
320,192,108608,1,0,0:0:0:0:
64,192,108667,1,0,0:0:0:0:
448,192,108667,1,0,0:0:0:0:
192,192,108784,1,0,0:0:0:0:
320,192,108901,128,0,109136:0:0:0:0:
192,192,109136,128,0,109253:0:0:0:0:
448,192,109605,1,0,0:0:0:0:
192,192,109605,1,0,0:0:0:0:
64,192,109605,128,0,109798:0:0:0:0:
320,192,109798,1,0,0:0:0:0:
64,192,109895,1,0,0:0:0:0:
448,192,109992,1,0,0:0:0:0:
320,192,110088,1,0,0:0:0:0:
192,192,110185,1,0,0:0:0:0:
64,192,110282,1,0,0:0:0:0:
320,192,110379,128,0,110475:0:0:0:0:
448,192,110475,128,0,110572:0:0:0:0:
192,192,110572,1,0,0:0:0:0:
320,192,110669,1,0,0:0:0:0:
64,192,110766,128,0,110863:0:0:0:0:
192,192,110863,128,0,110959:0:0:0:0:
448,192,110959,1,0,0:0:0:0:
64,192,111056,1,0,0:0:0:0:
320,192,111153,1,0,0:0:0:0:
448,192,111153,128,0,111346:0:0:0:0:
192,192,111250,1,0,0:0:0:0:
64,192,111346,1,0,0:0:0:0:
320,192,111443,128,0,111540:0:0:0:0:
192,192,111540,1,0,0:0:0:0:
448,192,111637,1,0,0:0:0:0:
64,192,111734,128,0,111830:0:0:0:0:
320,192,111830,1,0,0:0:0:0:
448,192,111927,1,0,0:0:0:0:
192,192,112024,128,0,112121:0:0:0:0:
320,192,112121,1,0,0:0:0:0:
64,192,112217,1,0,0:0:0:0:
448,192,112314,1,0,0:0:0:0:
192,192,112411,1,0,0:0:0:0:
64,192,112508,1,0,0:0:0:0:
320,192,112605,1,0,0:0:0:0:
192,192,112701,1,0,0:0:0:0:
64,192,112701,128,0,112882:0:0:0:0:
448,192,112791,1,0,0:0:0:0:
320,192,112882,1,0,0:0:0:0:
64,192,112973,1,0,0:0:0:0:
192,192,113064,1,0,0:0:0:0:
320,192,113125,1,0,0:0:0:0:
448,192,113185,1,0,0:0:0:0:
192,192,113246,1,0,0:0:0:0:
320,192,113337,1,0,0:0:0:0:
64,192,113428,1,0,0:0:0:0:
448,192,113519,1,0,0:0:0:0:
64,192,113610,1,0,0:0:0:0:
448,192,113701,1,0,0:0:0:0:
192,192,113791,1,0,0:0:0:0:
64,192,113852,1,0,0:0:0:0:
320,192,113913,1,0,0:0:0:0:
448,192,113973,1,0,0:0:0:0:
64,192,114064,1,0,0:0:0:0:
320,192,114155,1,0,0:0:0:0:
448,192,114155,128,0,114337:0:0:0:0:
192,192,114216,1,0,0:0:0:0:
64,192,114276,1,0,0:0:0:0:
320,192,114337,1,0,0:0:0:0:
192,192,114428,1,0,0:0:0:0:
448,192,114519,1,0,0:0:0:0:
64,192,114610,1,0,0:0:0:0:
192,192,114701,1,0,0:0:0:0:
320,192,114791,1,0,0:0:0:0:
64,192,114882,128,0,114973:0:0:0:0:
448,192,114973,1,0,0:0:0:0:
192,192,115064,128,0,115246:0:0:0:0:
64,192,115155,1,0,0:0:0:0:
320,192,115246,128,0,115337:0:0:0:0:
448,192,115246,128,0,115428:0:0:0:0:
64,192,115610,128,0,115952:0:0:0:0:
448,192,115610,1,0,0:0:0:0:
320,192,116210,1,0,0:0:0:0:
64,192,116295,1,0,0:0:0:0:
192,192,116381,1,0,0:0:0:0:
64,192,116467,128,0,116638:0:0:0:0:
448,192,116724,1,0,0:0:0:0:
320,192,116810,1,0,0:0:0:0:
192,192,116895,1,0,0:0:0:0:
64,192,116981,128,0,117324:0:0:0:0:
448,192,117152,128,0,117324:0:0:0:0:
192,192,117324,1,0,0:0:0:0:
320,192,117495,1,0,0:0:0:0:
448,192,117581,1,0,0:0:0:0:
64,192,117667,128,0,117752:0:0:0:0:
192,192,117752,128,0,117838:0:0:0:0:
64,192,117838,128,0,118010:0:0:0:0:
448,192,118010,1,0,0:0:0:0:
320,192,118095,1,0,0:0:0:0:
192,192,118181,1,0,0:0:0:0:
64,192,118267,1,0,0:0:0:0:
448,192,118352,1,0,0:0:0:0:
320,192,118407,1,0,0:0:0:0:
192,192,118463,1,0,0:0:0:0:
64,192,118518,1,0,0:0:0:0:
448,192,118602,1,0,0:0:0:0:
64,192,118685,1,0,0:0:0:0:
192,192,118740,1,0,0:0:0:0:
448,192,118796,1,0,0:0:0:0:
320,192,118852,1,0,0:0:0:0:
64,192,118935,1,0,0:0:0:0:
320,192,119018,1,0,0:0:0:0:
448,192,119074,1,0,0:0:0:0:
64,192,119129,1,0,0:0:0:0:
192,192,119185,1,0,0:0:0:0:
448,192,119268,1,0,0:0:0:0:
64,192,119352,1,0,0:0:0:0:
192,192,119407,1,0,0:0:0:0:
448,192,119463,1,0,0:0:0:0:
320,192,119518,1,0,0:0:0:0:
192,192,119602,1,0,0:0:0:0:
64,192,119685,1,0,0:0:0:0:
320,192,119685,128,0,119852:0:0:0:0:
448,192,119768,1,0,0:0:0:0:
64,192,119852,1,0,0:0:0:0:
192,192,119852,128,0,120018:0:0:0:0:
320,192,119935,1,0,0:0:0:0:
448,192,120018,1,0,0:0:0:0:
64,192,120018,128,0,120185:0:0:0:0:
192,192,120102,1,0,0:0:0:0:
320,192,120185,1,0,0:0:0:0:
448,192,120185,128,0,120352:0:0:0:0:
192,192,120268,1,0,0:0:0:0:
64,192,120352,128,0,120435:0:0:0:0:
448,192,120435,128,0,120518:0:0:0:0:
320,192,120518,128,0,120602:0:0:0:0:
192,192,120602,128,0,120685:0:0:0:0:
64,192,120685,128,0,120768:0:0:0:0:
448,192,120768,128,0,120852:0:0:0:0:
192,192,120852,128,0,120935:0:0:0:0:
320,192,120935,128,0,121018:0:0:0:0:
192,192,121018,1,0,0:0:0:0:
64,192,121018,128,0,121185:0:0:0:0:
448,192,121185,1,0,0:0:0:0:
64,192,121268,1,0,0:0:0:0:
320,192,121352,128,0,121518:0:0:0:0:
448,192,121435,1,0,0:0:0:0:
192,192,121518,128,0,121602:0:0:0:0:
64,192,121602,128,0,121685:0:0:0:0:
192,192,121685,1,0,0:0:0:0:
320,192,121740,128,0,121907:0:0:0:0:
448,192,121796,128,0,122018:0:0:0:0:
320,192,122018,1,0,0:0:0:0:
192,192,122074,1,0,0:0:0:0:
448,192,122129,1,0,0:0:0:0:
64,192,122185,1,0,0:0:0:0:
192,192,122240,1,0,0:0:0:0:
320,192,122296,1,0,0:0:0:0:
64,192,122352,128,0,122435:0:0:0:0:
448,192,122352,128,0,122518:0:0:0:0:
192,192,122352,1,0,0:0:0:0:
64,192,122518,1,0,0:0:0:0:
192,192,122602,128,0,122768:0:0:0:0:
320,192,122602,1,0,0:0:0:0:
448,192,122602,128,0,122685:0:0:0:0:
448,192,122768,1,0,0:0:0:0:
64,192,122852,1,0,0:0:0:0:
320,192,122852,128,0,123018:0:0:0:0:
192,192,122852,128,0,122935:0:0:0:0:
192,192,123018,1,0,0:0:0:0:
64,192,123102,128,0,123268:0:0:0:0:
448,192,123102,1,0,0:0:0:0:
320,192,123102,128,0,123185:0:0:0:0:
320,192,123268,1,0,0:0:0:0:
448,192,123352,128,0,123518:0:0:0:0:
192,192,123352,1,0,0:0:0:0:
64,192,123352,128,0,123435:0:0:0:0:
64,192,123518,1,0,0:0:0:0:
192,192,123574,1,0,0:0:0:0:
320,192,123629,1,0,0:0:0:0:
448,192,123685,1,0,0:0:0:0:
64,192,123685,1,0,0:0:0:0:
192,192,123685,1,0,0:0:0:0:
320,192,123852,128,0,124018:0:0:0:0:
448,192,123935,1,0,0:0:0:0:
192,192,124018,128,0,124185:0:0:0:0:
64,192,124102,1,0,0:0:0:0:
320,192,124185,128,0,124268:0:0:0:0:
448,192,124268,128,0,124352:0:0:0:0:
320,192,124352,1,0,0:0:0:0:
64,192,124435,1,0,0:0:0:0:
192,192,124518,128,0,124602:0:0:0:0:
448,192,124602,1,0,0:0:0:0:
320,192,124685,1,0,0:0:0:0:
192,192,124740,128,0,124907:0:0:0:0:
64,192,124796,128,0,125018:0:0:0:0:
192,192,125018,128,0,125185:0:0:0:0:
448,192,125018,1,0,0:0:0:0:
320,192,125018,128,0,125102:0:0:0:0:
320,192,125185,1,0,0:0:0:0:
192,192,125268,128,0,125352:0:0:0:0:
448,191,125268,128,0,125435:0:0:0:0:
64,192,125268,1,0,0:0:0:0:
192,192,125435,1,0,0:0:0:0:
320,192,125518,1,0,0:0:0:0:
448,192,125518,128,0,125601:0:0:0:0:
64,192,125518,128,0,125601:0:0:0:0:
448,191,125685,1,0,0:0:0:0:
320,192,125740,128,0,125907:0:0:0:0:
192,192,125796,128,0,126018:0:0:0:0:
320,192,126018,1,0,0:0:0:0:
64,192,126018,128,0,126185:0:0:0:0:
448,192,126185,1,0,0:0:0:0:
320,192,126240,1,0,0:0:0:0:
192,192,126296,1,0,0:0:0:0:
448,192,126351,1,0,0:0:0:0:
320,192,126351,128,0,126518:0:0:0:0:
64,192,126351,1,0,0:0:0:0:
64,192,126518,128,0,126685:0:0:0:0:
192,192,126601,128,0,126685:0:0:0:0:
320,192,126685,1,0,0:0:0:0:
448,192,126685,128,0,126768:0:0:0:0:
64,192,126768,1,0,0:0:0:0:
448,192,126851,128,0,127018:0:0:0:0:
320,192,126935,128,0,127018:0:0:0:0:
64,192,127018,1,0,0:0:0:0:
192,192,127018,128,0,127268:0:0:0:0:
448,192,127101,1,0,0:0:0:0:
64,192,127185,128,0,127268:0:0:0:0:
320,192,127268,1,0,0:0:0:0:
192,192,127351,1,0,0:0:0:0:
64,192,127351,1,0,0:0:0:0:
448,192,127407,1,0,0:0:0:0:
320,192,127463,1,0,0:0:0:0:
192,192,127518,128,0,127601:0:0:0:0:
320,192,127601,128,0,127685:0:0:0:0:
64,192,127685,128,0,127768:0:0:0:0:
448,192,127685,128,0,127851:0:0:0:0:
192,192,127768,1,0,0:0:0:0:
320,192,127851,1,0,0:0:0:0:
192,192,127935,128,0,128101:0:0:0:0:
64,192,128018,128,0,128101:0:0:0:0:
448,192,128018,1,0,0:0:0:0:
320,192,128101,1,0,0:0:0:0:
192,192,128185,128,0,128268:0:0:0:0:
448,192,128185,128,0,128351:0:0:0:0:
64,192,128268,1,0,0:0:0:0:
192,192,128351,1,0,0:0:0:0:
64,192,128435,128,0,128601:0:0:0:0:
320,192,128435,128,0,128518:0:0:0:0:
448,192,128518,1,0,0:0:0:0:
320,192,128601,1,0,0:0:0:0:
448,192,128685,128,0,128851:0:0:0:0:
192,192,128685,128,0,128768:0:0:0:0:
64,192,128768,1,0,0:0:0:0:
192,192,128851,128,0,129018:0:0:0:0:
320,192,128851,128,0,128935:0:0:0:0:
320,192,129018,1,0,0:0:0:0:
448,192,129018,128,0,129185:0:0:0:0:
192,192,129185,128,0,129351:0:0:0:0:
64,192,129268,128,0,129351:0:0:0:0:
320,192,129351,128,0,129435:0:0:0:0:
448,192,129351,1,0,0:0:0:0:
192,192,129435,1,0,0:0:0:0:
320,192,129518,128,0,129685:0:0:0:0:
448,192,129601,128,0,129685:0:0:0:0:
192,192,129685,1,0,0:0:0:0:
64,192,129685,128,0,129935:0:0:0:0:
320,192,129768,1,0,0:0:0:0:
192,192,129851,128,0,129935:0:0:0:0:
448,192,129935,1,0,0:0:0:0:
64,192,130018,1,0,0:0:0:0:
192,192,130018,128,0,130101:0:0:0:0:
320,192,130101,128,0,130185:0:0:0:0:
192,192,130185,1,0,0:0:0:0:
64,192,130185,128,0,130518:0:0:0:0:
448,192,130185,128,0,130518:0:0:0:0:
192,192,130518,1,0,0:0:0:0:
320,192,130574,1,0,0:0:0:0:
448,192,130629,1,0,0:0:0:0:
64,192,130685,1,0,0:0:0:0:
192,192,130685,128,0,130768:0:0:0:0:
320,192,130768,128,0,130851:0:0:0:0:
192,192,130851,1,0,0:0:0:0:
448,192,130851,128,0,130935:0:0:0:0:
64,192,130935,128,0,131018:0:0:0:0:
448,192,131018,1,0,0:0:0:0:
320,192,131018,1,0,0:0:0:0:
192,192,131018,1,0,0:0:0:0:
320,192,131185,1,0,0:0:0:0:
320,192,131268,1,0,0:0:0:0:
64,192,131352,128,0,131518:0:0:0:0:
448,192,131352,1,0,0:0:0:0:
320,192,131518,128,0,131685:0:0:0:0:
192,192,131518,1,0,0:0:0:0:
192,192,131685,128,0,131852:0:0:0:0:
64,192,131685,1,0,0:0:0:0:
448,192,131852,128,0,132018:0:0:0:0:
320,192,131935,128,0,132018:0:0:0:0:
64,192,132018,128,0,132102:0:0:0:0:
192,192,132018,1,0,0:0:0:0:
448,192,132102,1,0,0:0:0:0:
64,192,132185,128,0,132352:0:0:0:0:
192,192,132268,128,0,132352:0:0:0:0:
448,192,132352,1,0,0:0:0:0:
320,192,132352,128,0,132602:0:0:0:0:
64,192,132435,1,0,0:0:0:0:
448,192,132518,128,0,132602:0:0:0:0:
192,192,132602,1,0,0:0:0:0:
320,192,132685,128,0,132851:0:0:0:0:
448,192,132685,1,0,0:0:0:0:
64,192,132768,1,0,0:0:0:0:
192,192,132851,128,0,132935:0:0:0:0:
320,192,132935,128,0,133018:0:0:0:0:
64,192,133018,1,0,0:0:0:0:
192,192,133018,1,0,0:0:0:0:
448,192,133018,1,0,0:0:0:0:
64,192,133101,128,0,133268:0:0:0:0:
448,192,133268,1,0,0:0:0:0:
320,192,133268,1,0,0:0:0:0:
448,192,133351,128,0,133518:0:0:0:0:
192,192,133518,1,0,0:0:0:0:
64,192,133518,1,0,0:0:0:0:
192,192,133601,128,0,133768:0:0:0:0:
320,192,133768,1,0,0:0:0:0:
448,192,133768,1,0,0:0:0:0:
320,192,133851,128,0,134018:0:0:0:0:
64,192,134018,1,0,0:0:0:0:
448,192,134018,128,0,134185:0:0:0:0:
192,192,134101,1,0,0:0:0:0:
64,192,134185,1,0,0:0:0:0:
320,192,134185,128,0,134351:0:0:0:0:
448,192,134268,1,0,0:0:0:0:
192,192,134351,1,0,0:0:0:0:
64,192,134351,128,0,134518:0:0:0:0:
320,192,134518,128,0,134685:0:0:0:0:
448,192,134601,128,0,134685:0:0:0:0:
64,192,134685,1,0,0:0:0:0:
192,192,134685,128,0,134768:0:0:0:0:
320,192,134768,1,0,0:0:0:0:
192,192,134851,128,0,135018:0:0:0:0:
64,192,134935,128,0,135018:0:0:0:0:
320,192,135018,1,0,0:0:0:0:
448,192,135018,128,0,135268:0:0:0:0:
192,192,135101,1,0,0:0:0:0:
320,192,135185,128,0,135268:0:0:0:0:
64,192,135268,1,0,0:0:0:0:
448,192,135351,1,0,0:0:0:0:
320,192,135351,1,0,0:0:0:0:
192,192,135407,1,0,0:0:0:0:
64,192,135463,1,0,0:0:0:0:
448,192,135518,128,0,135685:0:0:0:0:
64,192,135685,1,0,0:0:0:0:
192,192,135685,1,0,0:0:0:0:
320,192,135685,1,0,0:0:0:0:
192,192,135768,128,0,135935:0:0:0:0:
320,192,135935,1,0,0:0:0:0:
448,192,135935,1,0,0:0:0:0:
320,192,136018,128,0,136185:0:0:0:0:
192,192,136185,1,0,0:0:0:0:
64,192,136185,1,0,0:0:0:0:
64,192,136268,128,0,136435:0:0:0:0:
320,192,136435,1,0,0:0:0:0:
448,192,136435,1,0,0:0:0:0:
448,192,136518,128,0,136685:0:0:0:0:
64,192,136685,1,0,0:0:0:0:
320,192,136685,128,0,136851:0:0:0:0:
192,192,136768,1,0,0:0:0:0:
448,192,136851,128,0,136935:0:0:0:0:
192,192,136935,1,0,0:0:0:0:
64,192,136976,1,0,0:0:0:0:
320,192,137018,1,0,0:0:0:0:
448,192,137018,128,0,137185:0:0:0:0:
192,192,137185,128,0,137351:0:0:0:0:
64,192,137268,128,0,137351:0:0:0:0:
320,192,137351,128,0,137435:0:0:0:0:
448,192,137351,1,0,0:0:0:0:
192,192,137435,1,0,0:0:0:0:
320,192,137518,128,0,137685:0:0:0:0:
448,192,137601,128,0,137685:0:0:0:0:
192,192,137685,1,0,0:0:0:0:
64,192,137685,128,0,137768:0:0:0:0:
320,192,137768,128,0,137851:0:0:0:0:
192,192,137851,128,0,137935:0:0:0:0:
448,192,137935,128,0,138018:0:0:0:0:
64,192,138018,1,0,0:0:0:0:
192,192,138018,1,0,0:0:0:0:
320,192,138074,1,0,0:0:0:0:
448,192,138129,1,0,0:0:0:0:
64,192,138185,128,0,138351:0:0:0:0:
448,192,138268,128,0,138351:0:0:0:0:
320,192,138351,128,0,138518:0:0:0:0:
192,192,138351,128,0,138435:0:0:0:0:
64,192,138435,1,0,0:0:0:0:
448,192,138518,1,0,0:0:0:0:
64,192,138601,128,0,138768:0:0:0:0:
320,192,138685,1,0,0:0:0:0:
192,192,138685,128,0,138768:0:0:0:0:
448,192,138768,1,0,0:0:0:0:
320,192,138851,128,0,139018:0:0:0:0:
64,192,138851,128,0,138935:0:0:0:0:
192,192,138935,1,0,0:0:0:0:
64,192,139018,1,0,0:0:0:0:
448,192,139101,128,0,139185:0:0:0:0:
192,192,139101,128,0,139268:0:0:0:0:
320,192,139185,1,0,0:0:0:0:
448,192,139268,1,0,0:0:0:0:
64,192,139351,128,0,139435:0:0:0:0:
320,192,139351,128,0,139518:0:0:0:0:
192,192,139435,1,0,0:0:0:0:
448,192,139518,128,0,139685:0:0:0:0:
64,192,139518,128,0,139601:0:0:0:0:
64,192,139685,128,0,139851:0:0:0:0:
192,192,139685,1,0,0:0:0:0:
320,192,139851,128,0,140018:0:0:0:0:
448,192,139935,128,0,140018:0:0:0:0:
64,192,140018,1,0,0:0:0:0:
192,192,140018,128,0,140101:0:0:0:0:
320,192,140101,128,0,140268:0:0:0:0:
192,192,140185,128,0,140351:0:0:0:0:
64,192,140268,128,0,140351:0:0:0:0:
320,192,140351,1,0,0:0:0:0:
448,192,140351,128,0,140601:0:0:0:0:
192,192,140435,1,0,0:0:0:0:
320,192,140518,128,0,140601:0:0:0:0:
64,192,140601,1,0,0:0:0:0:
320,192,140685,1,0,0:0:0:0:
448,192,140685,128,0,140935:0:0:0:0:
192,192,140796,1,0,0:0:0:0:
64,192,140851,128,0,141018:0:0:0:0:
448,192,141018,128,0,141185:0:0:0:0:
192,192,141018,128,0,141101:0:0:0:0:
192,192,141185,128,0,141351:0:0:0:0:
320,192,141185,128,0,141268:0:0:0:0:
320,192,141351,128,0,141518:0:0:0:0:
64,192,141351,128,0,141435:0:0:0:0:
64,192,141518,128,0,141685:0:0:0:0:
448,192,141518,128,0,141601:0:0:0:0:
192,192,141685,128,0,141768:0:0:0:0:
448,192,141685,128,0,141851:0:0:0:0:
192,192,141851,128,0,142018:0:0:0:0:
320,192,141851,128,0,141935:0:0:0:0:
64,192,142018,128,0,142101:0:0:0:0:
320,192,142018,128,0,142185:0:0:0:0:
448,192,142185,128,0,142268:0:0:0:0:
64,192,142185,128,0,142518:0:0:0:0:
320,192,142351,1,0,0:0:0:0:
448,192,142351,1,0,0:0:0:0:
192,192,142518,1,0,0:0:0:0:
320,192,142574,1,0,0:0:0:0:
448,192,142629,1,0,0:0:0:0:
192,192,142685,1,0,0:0:0:0:
64,192,142685,1,0,0:0:0:0:
320,192,142851,1,0,0:0:0:0:
192,192,142907,1,0,0:0:0:0:
64,192,142963,1,0,0:0:0:0:
320,192,143018,1,0,0:0:0:0:
448,192,143018,1,0,0:0:0:0:
64,192,143185,1,0,0:0:0:0:
192,192,143226,1,0,0:0:0:0:
320,192,143268,1,0,0:0:0:0:
448,192,143310,1,0,0:0:0:0:
192,192,143351,1,0,0:0:0:0:
64,192,143351,1,0,0:0:0:0:
320,192,143435,1,0,0:0:0:0:
448,192,143435,1,0,0:0:0:0:
192,192,143518,1,0,0:0:0:0:
64,192,143518,1,0,0:0:0:0:
448,192,143601,1,0,0:0:0:0:
320,192,143601,1,0,0:0:0:0:
64,192,143685,1,0,0:0:0:0:
320,192,143851,128,0,144018:0:0:0:0:
448,192,143935,1,0,0:0:0:0:
192,192,144018,128,0,144185:0:0:0:0:
64,192,144101,1,0,0:0:0:0:
320,192,144185,128,0,144268:0:0:0:0:
448,192,144268,128,0,144351:0:0:0:0:
320,192,144351,128,0,144435:0:0:0:0:
192,192,144435,1,0,0:0:0:0:
448,192,144518,1,0,0:0:0:0:
320,192,144574,1,0,0:0:0:0:
192,192,144629,1,0,0:0:0:0:
448,192,144685,1,0,0:0:0:0:
320,192,144685,128,0,144935:0:0:0:0:
192,192,144851,128,0,145018:0:0:0:0:
320,192,145018,1,0,0:0:0:0:
64,192,145018,128,0,145185:0:0:0:0:
448,192,145018,128,0,145185:0:0:0:0:
192,192,145185,1,0,0:0:0:0:
320,192,145268,1,0,0:0:0:0:
192,192,145351,1,0,0:0:0:0:
64,192,145393,1,0,0:0:0:0:
448,192,145518,1,0,0:0:0:0:
320,192,145601,1,0,0:0:0:0:
64,192,145685,1,0,0:0:0:0:
448,192,145768,1,0,0:0:0:0:
320,192,145768,128,0,145851:0:0:0:0:
192,192,145851,1,0,0:0:0:0:
64,192,145851,128,0,146018:0:0:0:0:
192,192,146018,1,0,0:0:0:0:
448,192,146018,128,0,146185:0:0:0:0:
64,192,146185,1,0,0:0:0:0:
192,192,146240,1,0,0:0:0:0:
320,192,146296,1,0,0:0:0:0:
192,192,146351,128,0,146518:0:0:0:0:
64,192,146351,128,0,146518:0:0:0:0:
320,192,146518,128,0,146685:0:0:0:0:
448,192,146601,1,0,0:0:0:0:
192,192,146685,128,0,146851:0:0:0:0:
64,192,146768,1,0,0:0:0:0:
448,192,146851,128,0,146935:0:0:0:0:
320,192,146935,128,0,147018:0:0:0:0:
448,192,147018,128,0,147101:0:0:0:0:
192,192,147101,1,0,0:0:0:0:
320,192,147185,1,0,0:0:0:0:
448,192,147226,128,0,147351:0:0:0:0:
64,192,147351,1,0,0:0:0:0:
320,192,147435,1,0,0:0:0:0:
192,192,147518,1,0,0:0:0:0:
448,192,147518,1,0,0:0:0:0:
64,192,147601,1,0,0:0:0:0:
320,192,147685,1,0,0:0:0:0:
448,192,147685,1,0,0:0:0:0:
320,192,147768,1,0,0:0:0:0:
448,192,147768,1,0,0:0:0:0:
64,192,147935,1,0,0:0:0:0:
192,192,147935,1,0,0:0:0:0:
192,192,148018,1,0,0:0:0:0:
64,192,148018,1,0,0:0:0:0:
320,192,148185,1,0,0:0:0:0:
448,192,148185,1,0,0:0:0:0:
448,192,148268,1,0,0:0:0:0:
320,192,148268,1,0,0:0:0:0:
192,192,148435,1,0,0:0:0:0:
64,192,148435,1,0,0:0:0:0:
64,192,148518,1,0,0:0:0:0:
192,192,148518,1,0,0:0:0:0:
320,192,148685,1,0,0:0:0:0:
192,192,148685,1,0,0:0:0:0:
64,192,148851,1,0,0:0:0:0:
448,192,148907,1,0,0:0:0:0:
320,192,148963,1,0,0:0:0:0:
192,192,149018,1,0,0:0:0:0:
64,192,149018,1,0,0:0:0:0:
192,192,149101,1,0,0:0:0:0:
64,192,149101,1,0,0:0:0:0:
320,192,149268,1,0,0:0:0:0:
448,192,149268,1,0,0:0:0:0:
320,192,149351,1,0,0:0:0:0:
448,192,149351,1,0,0:0:0:0:
192,192,149518,1,0,0:0:0:0:
64,192,149518,1,0,0:0:0:0:
64,192,149601,1,0,0:0:0:0:
192,192,149601,1,0,0:0:0:0:
320,192,149768,1,0,0:0:0:0:
448,192,149768,1,0,0:0:0:0:
448,192,149851,1,0,0:0:0:0:
320,192,149851,1,0,0:0:0:0:
320,192,150018,1,0,0:0:0:0:
64,192,150018,128,0,150101:0:0:0:0:
192,192,150101,128,0,150185:0:0:0:0:
64,192,150185,1,0,0:0:0:0:
448,192,150185,128,0,150268:0:0:0:0:
320,192,150268,128,0,150351:0:0:0:0:
320,192,150685,1,0,0:0:0:0:
448,192,150685,128,0,151351:0:0:0:0:
64,192,150685,128,0,151685:0:0:0:0:
