osu file format v14

[General]
AudioFilename: audio.mp3
AudioLeadIn: 0
PreviewTime: 54169
Countdown: 0
SampleSet: Soft
StackLeniency: 0.7
Mode: 3
LetterboxInBreaks: 0
SpecialStyle: 0
WidescreenStoryboard: 1

[Editor]
DistanceSpacing: 1.3
BeatDivisor: 6
GridSize: 4
TimelineZoom: 3.099999

[Metadata]
Title:Glooorious!!
TitleUnicode:Glooorious!!
Artist:Hino Isuka vs. s-don
ArtistUnicode:翡乃イスカ vs. s-don
Creator:Lott
Version:Advanced
Source:osu!mania 7K World Cup 2023
Tags:fa featured artist mg mpg mappers mappers' guild M3-2023春 2023 春M3 electronic instrumental tournament rg rhythm game MWC 7K 2023 23 MWC7K2023 original glorious gloorious gloooorious hybrid quaver official tournament 2023 qot2023 qot23 qot riss-Frantzz Trrricksters​!​!
BeatmapID:4524455
BeatmapSetID:1998672

[Difficulty]
HPDrainRate:7
CircleSize:4
OverallDifficulty:6.5
ApproachRate:5
SliderMultiplier:1.4
SliderTickRate:1

[Events]
//Background and Video events
0,0,"bg2.jpg",0,0
//Break Periods
//Storyboard Layer 0 (Background)
//Storyboard Layer 1 (Fail)
//Storyboard Layer 2 (Pass)
//Storyboard Layer 3 (Foreground)
//Storyboard Layer 4 (Overlay)
//Storyboard Sound Samples

[TimingPoints]
1524,387.096774193548,4,2,1,15,1,0
3072,-100,4,2,1,20,0,0
3362,-100,4,2,1,25,0,0
3653,-100,4,2,1,30,0,0
3846,-100,4,2,1,35,0,0
29782,-100,4,2,1,35,0,1
29878,-100,4,2,1,35,0,0
54169,-100,4,2,1,40,0,1
66556,-100,4,2,1,30,0,0
72749,-100,4,2,1,35,0,0
74298,413.793103448276,4,2,1,35,1,0
74298,-93.4579439252336,4,2,1,35,0,0
75953,444.444444444444,4,2,1,35,1,0
75953,-86.9565217391304,4,2,1,35,0,0
77730,468.75,4,2,1,25,1,0
77730,-82.6446280991736,4,2,1,25,0,0
79605,-82.6446280991736,4,2,1,35,0,0
80073,-82.6446280991736,4,2,1,35,0,1
80190,-82.6446280991736,4,2,1,35,0,0
95542,-82.6446280991736,4,2,1,35,0,1
96480,-82.6446280991736,4,2,1,35,0,0
97417,-82.6446280991736,4,2,1,35,0,1
98355,-82.6446280991736,4,2,1,35,0,0
99292,-82.6446280991736,4,2,1,35,0,1
100230,-82.6446280991736,4,2,1,35,0,0
101167,-82.6446280991736,4,2,1,35,0,1
102105,-82.6446280991736,4,2,1,35,0,0
103042,-82.6446280991736,4,2,1,35,0,1
103980,-82.6446280991736,4,2,1,35,0,0
104917,-82.6446280991736,4,2,1,35,0,1
105855,-82.6446280991736,4,2,1,35,0,0
106792,-82.6446280991736,4,2,1,35,0,1
107730,-82.6446280991736,4,2,1,35,0,0
108667,-82.6446280991736,4,2,1,35,0,1
108784,-82.6446280991736,4,2,1,25,0,0
109605,387.096774193548,4,2,1,30,1,0
109605,-100,4,2,1,30,0,0
112701,363.636363636364,4,2,1,30,1,0
112701,-106.382978723404,4,2,1,30,0,0
115610,342.857142857143,4,2,1,10,1,0
115610,-112.359550561798,4,2,1,10,0,0
116295,-112.359550561798,4,2,1,15,0,0
116981,-112.359550561798,4,2,1,20,0,0
117667,-112.359550561798,4,2,1,25,0,0
118352,333.333333333333,4,2,1,30,1,0
118352,-116.279069767442,4,2,1,30,0,0
122352,-116.279069767442,4,2,1,40,0,1
122435,-116.279069767442,4,2,1,40,0,0
122602,-116.279069767442,4,2,1,40,0,1
122685,-116.279069767442,4,2,1,40,0,0
122852,-116.279069767442,4,2,1,40,0,1
122935,-116.279069767442,4,2,1,40,0,0
123102,-116.279069767442,4,2,1,40,0,1
123185,-116.279069767442,4,2,1,40,0,0
123352,-116.279069767442,4,2,1,40,0,1
123435,-116.279069767442,4,2,1,30,0,0
125018,-116.279069767442,4,2,1,40,0,1
125102,-116.279069767442,4,2,1,40,0,0
125268,-116.279069767442,4,2,1,40,0,1
125351,-116.279069767442,4,2,1,40,0,0
125518,-116.279069767442,4,2,1,40,0,1
125601,-116.279069767442,4,2,1,25,0,0
126351,-116.279069767442,4,2,1,40,0,1
143685,-116.279069767442,4,2,1,40,0,0
145018,-116.279069767442,4,2,1,40,0,1
145185,-116.279069767442,4,2,1,40,0,0
146351,-116.279069767442,4,2,1,40,0,1
146518,-116.279069767442,4,2,1,40,0,0
150685,-116.279069767442,4,2,1,30,0,1
151351,-116.279069767442,4,2,1,25,0,0

[HitObjects]
64,192,1524,5,0,0:0:0:0:
448,192,2394,1,0,0:0:0:0:
192,192,2491,1,0,0:0:0:0:
448,192,2588,1,0,0:0:0:0:
192,192,3072,1,0,0:0:0:0:
320,192,3072,1,0,0:0:0:0:
64,192,3362,1,0,0:0:0:0:
320,192,3362,1,0,0:0:0:0:
64,192,3653,1,0,0:0:0:0:
448,192,3653,1,0,0:0:0:0:
320,192,3846,1,0,0:0:0:0:
448,192,3846,1,0,0:0:0:0:
192,192,4040,128,0,4233:0:0:0:0:
448,192,4233,1,0,0:0:0:0:
64,192,4330,1,0,0:0:0:0:
320,192,4427,1,0,0:0:0:0:
192,192,4523,1,0,0:0:0:0:
448,192,4620,1,0,0:0:0:0:
64,192,4620,128,0,5007:0:0:0:0:
320,192,5201,1,0,0:0:0:0:
320,192,5394,128,0,5588:0:0:0:0:
192,192,5588,1,0,0:0:0:0:
64,192,5685,1,0,0:0:0:0:
320,192,5782,1,0,0:0:0:0:
448,192,5782,1,0,0:0:0:0:
448,192,5975,1,0,0:0:0:0:
64,192,5975,1,0,0:0:0:0:
64,192,6169,128,0,6362:0:0:0:0:
192,192,6362,128,0,6556:0:0:0:0:
320,192,6556,1,0,0:0:0:0:
192,192,6653,1,0,0:0:0:0:
320,192,6749,1,0,0:0:0:0:
448,192,6943,1,0,0:0:0:0:
64,192,7136,1,0,0:0:0:0:
320,192,7233,1,0,0:0:0:0:
192,192,7330,1,0,0:0:0:0:
64,192,7330,1,0,0:0:0:0:
192,192,7523,1,0,0:0:0:0:
448,192,7523,1,0,0:0:0:0:
64,192,7717,128,0,8104:0:0:0:0:
448,192,7717,1,0,0:0:0:0:
320,192,8298,1,0,0:0:0:0:
320,192,8491,128,0,8685:0:0:0:0:
192,192,8685,1,0,0:0:0:0:
64,192,8782,1,0,0:0:0:0:
448,192,8878,1,0,0:0:0:0:
320,192,8878,1,0,0:0:0:0:
448,192,9072,1,0,0:0:0:0:
192,192,9072,1,0,0:0:0:0:
320,192,9265,1,0,0:0:0:0:
192,192,9265,128,0,9556:0:0:0:0:
64,192,9556,1,0,0:0:0:0:
320,192,9556,128,0,9846:0:0:0:0:
448,192,9846,1,0,0:0:0:0:
64,192,9846,128,0,10136:0:0:0:0:
192,192,10136,1,0,0:0:0:0:
320,192,10136,1,0,0:0:0:0:
448,192,10233,1,0,0:0:0:0:
64,192,10330,1,0,0:0:0:0:
320,192,10427,1,0,0:0:0:0:
192,192,10427,128,0,10620:0:0:0:0:
320,192,10620,128,0,10814:0:0:0:0:
64,192,10620,1,0,0:0:0:0:
448,192,10814,128,0,11201:0:0:0:0:
64,192,10814,1,0,0:0:0:0:
192,192,11394,1,0,0:0:0:0:
192,192,11588,128,0,11782:0:0:0:0:
320,192,11782,1,0,0:0:0:0:
448,192,11878,1,0,0:0:0:0:
64,192,11975,1,0,0:0:0:0:
192,192,11975,1,0,0:0:0:0:
448,192,12169,1,0,0:0:0:0:
64,192,12169,1,0,0:0:0:0:
448,192,12362,128,0,12556:0:0:0:0:
320,192,12556,128,0,12749:0:0:0:0:
192,192,12749,1,0,0:0:0:0:
320,192,12846,1,0,0:0:0:0:
192,192,12943,1,0,0:0:0:0:
64,192,13136,1,0,0:0:0:0:
448,192,13330,1,0,0:0:0:0:
192,192,13427,1,0,0:0:0:0:
448,192,13523,1,0,0:0:0:0:
320,192,13523,1,0,0:0:0:0:
64,192,13717,1,0,0:0:0:0:
320,192,13717,1,0,0:0:0:0:
64,192,13911,1,0,0:0:0:0:
448,192,13911,128,0,14298:0:0:0:0:
192,192,14491,1,0,0:0:0:0:
192,192,14685,128,0,14878:0:0:0:0:
320,192,14878,1,0,0:0:0:0:
448,192,14975,1,0,0:0:0:0:
192,192,15072,1,0,0:0:0:0:
64,192,15072,1,0,0:0:0:0:
320,192,15265,1,0,0:0:0:0:
64,192,15265,128,0,16620:0:0:0:0:
320,192,15459,128,0,15653:0:0:0:0:
448,192,15653,128,0,15846:0:0:0:0:
320,192,16427,1,0,0:0:0:0:
448,192,16523,1,0,0:0:0:0:
192,192,16620,1,0,0:0:0:0:
320,192,16717,1,0,0:0:0:0:
64,192,16814,1,0,0:0:0:0:
448,192,16911,1,0,0:0:0:0:
192,192,17007,1,0,0:0:0:0:
320,192,17007,1,0,0:0:0:0:
64,192,17201,1,0,0:0:0:0:
320,192,17394,1,0,0:0:0:0:
64,192,17588,1,0,0:0:0:0:
320,192,17782,1,0,0:0:0:0:
64,192,17975,1,0,0:0:0:0:
192,192,18072,1,0,0:0:0:0:
448,192,18362,1,0,0:0:0:0:
320,192,18459,1,0,0:0:0:0:
192,192,18556,1,0,0:0:0:0:
64,192,18653,1,0,0:0:0:0:
448,192,18749,1,0,0:0:0:0:
64,192,18943,128,0,19330:0:0:0:0:
192,192,19136,1,0,0:0:0:0:
320,192,19330,1,0,0:0:0:0:
448,192,19523,1,0,0:0:0:0:
64,192,19523,1,0,0:0:0:0:
192,192,19717,1,0,0:0:0:0:
64,192,19717,1,0,0:0:0:0:
320,192,19911,1,0,0:0:0:0:
448,192,19911,1,0,0:0:0:0:
448,192,20104,1,0,0:0:0:0:
64,192,20104,1,0,0:0:0:0:
192,192,20298,1,0,0:0:0:0:
448,192,20491,1,0,0:0:0:0:
192,192,20685,1,0,0:0:0:0:
448,192,20878,1,0,0:0:0:0:
192,192,21072,1,0,0:0:0:0:
64,192,21169,1,0,0:0:0:0:
448,192,21265,1,0,0:0:0:0:
64,192,21459,1,0,0:0:0:0:
192,192,21556,1,0,0:0:0:0:
320,192,21653,1,0,0:0:0:0:
448,192,21749,1,0,0:0:0:0:
64,192,21846,128,0,22233:0:0:0:0:
320,192,22233,1,0,0:0:0:0:
192,192,22330,1,0,0:0:0:0:
64,192,22427,1,0,0:0:0:0:
448,192,22427,1,0,0:0:0:0:
192,192,22717,1,0,0:0:0:0:
448,192,22717,1,0,0:0:0:0:
64,192,23007,1,0,0:0:0:0:
320,192,23007,1,0,0:0:0:0:
64,192,23201,1,0,0:0:0:0:
448,192,23201,128,0,23394:0:0:0:0:
192,192,23782,1,0,0:0:0:0:
448,192,23782,1,0,0:0:0:0:
448,192,23975,1,0,0:0:0:0:
192,192,23975,128,0,24169:0:0:0:0:
192,192,24556,1,0,0:0:0:0:
320,192,24556,1,0,0:0:0:0:
192,192,24749,1,0,0:0:0:0:
320,192,24749,128,0,24943:0:0:0:0:
320,192,25330,1,0,0:0:0:0:
64,192,25330,1,0,0:0:0:0:
320,192,25523,1,0,0:0:0:0:
64,192,25523,128,0,25717:0:0:0:0:
64,192,26104,1,0,0:0:0:0:
448,192,26104,1,0,0:0:0:0:
320,192,26298,1,0,0:0:0:0:
448,192,26298,1,0,0:0:0:0:
192,192,26394,1,0,0:0:0:0:
320,192,26491,1,0,0:0:0:0:
448,192,26588,1,0,0:0:0:0:
64,192,26685,1,0,0:0:0:0:
192,192,26685,1,0,0:0:0:0:
320,192,26782,1,0,0:0:0:0:
192,192,26878,1,0,0:0:0:0:
64,192,26975,1,0,0:0:0:0:
448,192,27072,1,0,0:0:0:0:
192,192,27169,1,0,0:0:0:0:
448,192,27265,1,0,0:0:0:0:
192,192,27362,1,0,0:0:0:0:
320,192,27459,1,0,0:0:0:0:
64,192,27556,1,0,0:0:0:0:
320,192,27653,1,0,0:0:0:0:
64,192,27749,1,0,0:0:0:0:
192,192,27846,1,0,0:0:0:0:
192,192,28136,1,0,0:0:0:0:
448,192,28330,1,0,0:0:0:0:
320,192,28427,1,0,0:0:0:0:
64,192,28814,1,0,0:0:0:0:
320,192,28911,1,0,0:0:0:0:
192,192,29007,1,0,0:0:0:0:
448,192,29104,1,0,0:0:0:0:
448,192,29298,1,0,0:0:0:0:
192,192,29394,1,0,0:0:0:0:
64,192,29394,1,0,0:0:0:0:
448,192,29588,1,0,0:0:0:0:
320,192,29588,1,0,0:0:0:0:
448,192,29782,1,0,0:0:0:0:
64,192,29782,128,0,30169:0:0:0:0:
320,192,30169,1,0,0:0:0:0:
448,192,30169,1,0,0:0:0:0:
448,192,30362,1,0,0:0:0:0:
320,192,30459,1,0,0:0:0:0:
192,192,30556,1,0,0:0:0:0:
64,192,30556,1,0,0:0:0:0:
448,192,30653,1,0,0:0:0:0:
64,192,30846,1,0,0:0:0:0:
448,192,30943,1,0,0:0:0:0:
320,192,30943,128,0,31330:0:0:0:0:
64,192,31330,1,0,0:0:0:0:
448,192,31330,128,0,31523:0:0:0:0:
192,192,31523,128,0,31717:0:0:0:0:
448,192,31717,1,0,0:0:0:0:
64,192,31717,1,0,0:0:0:0:
320,192,31814,1,0,0:0:0:0:
192,192,31911,1,0,0:0:0:0:
320,192,32007,1,0,0:0:0:0:
64,192,32104,1,0,0:0:0:0:
448,192,32104,1,0,0:0:0:0:
64,192,32298,1,0,0:0:0:0:
320,192,32491,128,0,32878:0:0:0:0:
448,192,32878,1,0,0:0:0:0:
64,192,32878,1,0,0:0:0:0:
448,192,33072,128,0,33265:0:0:0:0:
192,192,33265,1,0,0:0:0:0:
64,192,33265,1,0,0:0:0:0:
192,192,33459,1,0,0:0:0:0:
448,192,33653,1,0,0:0:0:0:
320,192,33653,128,0,34040:0:0:0:0:
64,192,34040,1,0,0:0:0:0:
192,192,34136,1,0,0:0:0:0:
320,192,34233,1,0,0:0:0:0:
448,192,34233,1,0,0:0:0:0:
192,192,34427,1,0,0:0:0:0:
320,192,34523,1,0,0:0:0:0:
192,192,34717,1,0,0:0:0:0:
64,192,34717,1,0,0:0:0:0:
448,192,34911,1,0,0:0:0:0:
64,192,35007,1,0,0:0:0:0:
320,192,35201,1,0,0:0:0:0:
448,192,35201,1,0,0:0:0:0:
192,192,35394,1,0,0:0:0:0:
64,192,35394,1,0,0:0:0:0:
448,192,35588,1,0,0:0:0:0:
320,192,35588,128,0,35782:0:0:0:0:
64,192,35975,1,0,0:0:0:0:
448,192,35975,128,0,36362:0:0:0:0:
320,192,36169,1,0,0:0:0:0:
192,192,36362,1,0,0:0:0:0:
64,192,36362,1,0,0:0:0:0:
320,192,36556,1,0,0:0:0:0:
448,192,36653,1,0,0:0:0:0:
64,192,36749,1,0,0:0:0:0:
448,192,36846,1,0,0:0:0:0:
192,192,37040,1,0,0:0:0:0:
320,192,37136,1,0,0:0:0:0:
64,192,37136,128,0,37523:0:0:0:0:
320,192,37523,1,0,0:0:0:0:
448,192,37523,1,0,0:0:0:0:
192,192,37620,1,0,0:0:0:0:
320,192,37717,1,0,0:0:0:0:
448,192,37814,1,0,0:0:0:0:
192,192,37911,1,0,0:0:0:0:
64,192,37911,1,0,0:0:0:0:
320,192,38104,1,0,0:0:0:0:
192,192,38201,1,0,0:0:0:0:
448,192,38298,1,0,0:0:0:0:
64,192,38298,1,0,0:0:0:0:
448,192,38491,1,0,0:0:0:0:
64,192,38685,128,0,38878:0:0:0:0:
320,192,38878,128,0,39072:0:0:0:0:
448,192,39072,1,0,0:0:0:0:
192,192,39072,1,0,0:0:0:0:
64,192,39265,1,0,0:0:0:0:
192,192,39362,1,0,0:0:0:0:
320,192,39459,1,0,0:0:0:0:
448,192,39459,1,0,0:0:0:0:
192,192,39749,1,0,0:0:0:0:
64,192,39749,1,0,0:0:0:0:
320,192,40040,1,0,0:0:0:0:
448,192,40040,1,0,0:0:0:0:
64,192,40233,1,0,0:0:0:0:
192,192,40620,128,0,41007:0:0:0:0:
448,192,41007,1,0,0:0:0:0:
320,192,41104,1,0,0:0:0:0:
192,192,41201,1,0,0:0:0:0:
64,192,41298,1,0,0:0:0:0:
448,192,41394,128,0,41588:0:0:0:0:
320,192,41588,128,0,41782:0:0:0:0:
192,192,41782,1,0,0:0:0:0:
64,192,41782,1,0,0:0:0:0:
320,192,41975,1,0,0:0:0:0:
448,192,41975,1,0,0:0:0:0:
448,192,42169,128,0,42556:0:0:0:0:
64,192,42169,1,0,0:0:0:0:
320,192,42362,1,0,0:0:0:0:
64,192,42556,1,0,0:0:0:0:
192,192,42556,1,0,0:0:0:0:
448,192,42653,1,0,0:0:0:0:
320,192,42749,1,0,0:0:0:0:
64,192,42846,1,0,0:0:0:0:
448,192,42943,1,0,0:0:0:0:
64,192,43040,1,0,0:0:0:0:
192,192,43233,1,0,0:0:0:0:
320,192,43330,128,0,43717:0:0:0:0:
448,192,43330,1,0,0:0:0:0:
448,192,43717,1,0,0:0:0:0:
64,192,43717,1,0,0:0:0:0:
192,192,43814,1,0,0:0:0:0:
320,192,43911,1,0,0:0:0:0:
448,192,44007,1,0,0:0:0:0:
192,192,44104,1,0,0:0:0:0:
64,192,44104,1,0,0:0:0:0:
320,192,44394,1,0,0:0:0:0:
448,192,44394,1,0,0:0:0:0:
192,192,44685,1,0,0:0:0:0:
64,192,44685,1,0,0:0:0:0:
320,192,44878,1,0,0:0:0:0:
320,192,45072,1,0,0:0:0:0:
64,192,45265,128,0,45653:0:0:0:0:
192,192,45653,1,0,0:0:0:0:
192,192,45846,1,0,0:0:0:0:
448,192,46040,1,0,0:0:0:0:
320,192,46040,1,0,0:0:0:0:
448,192,46427,1,0,0:0:0:0:
320,192,46523,1,0,0:0:0:0:
64,192,46620,1,0,0:0:0:0:
192,192,46620,1,0,0:0:0:0:
320,192,46814,1,0,0:0:0:0:
192,192,46911,1,0,0:0:0:0:
448,192,47104,1,0,0:0:0:0:
320,192,47104,1,0,0:0:0:0:
64,192,47298,1,0,0:0:0:0:
448,192,47394,1,0,0:0:0:0:
64,192,47588,1,0,0:0:0:0:
192,192,47588,1,0,0:0:0:0:
448,192,47782,1,0,0:0:0:0:
320,192,47782,1,0,0:0:0:0:
192,192,47975,128,0,48169:0:0:0:0:
64,192,47975,1,0,0:0:0:0:
64,192,48362,128,0,48749:0:0:0:0:
448,192,48362,1,0,0:0:0:0:
192,192,48556,1,0,0:0:0:0:
448,192,48749,1,0,0:0:0:0:
320,192,48749,1,0,0:0:0:0:
64,192,48846,1,0,0:0:0:0:
192,192,48943,1,0,0:0:0:0:
448,192,49040,1,0,0:0:0:0:
64,192,49136,1,0,0:0:0:0:
448,192,49233,1,0,0:0:0:0:
192,192,49427,1,0,0:0:0:0:
448,192,49523,128,0,49911:0:0:0:0:
320,192,49523,1,0,0:0:0:0:
64,192,49911,1,0,0:0:0:0:
192,192,49911,1,0,0:0:0:0:
320,192,50007,1,0,0:0:0:0:
192,192,50104,1,0,0:0:0:0:
64,192,50201,1,0,0:0:0:0:
448,192,50298,1,0,0:0:0:0:
320,192,50298,1,0,0:0:0:0:
192,192,50491,1,0,0:0:0:0:
320,192,50588,1,0,0:0:0:0:
448,192,50685,1,0,0:0:0:0:
64,192,50685,1,0,0:0:0:0:
64,192,50878,1,0,0:0:0:0:
192,192,51072,1,0,0:0:0:0:
320,192,51072,1,0,0:0:0:0:
448,192,51265,1,0,0:0:0:0:
320,192,51459,1,0,0:0:0:0:
192,192,51459,1,0,0:0:0:0:
64,192,51653,1,0,0:0:0:0:
192,192,51749,1,0,0:0:0:0:
320,192,51846,1,0,0:0:0:0:
448,192,51846,1,0,0:0:0:0:
448,192,52040,1,0,0:0:0:0:
320,192,52136,1,0,0:0:0:0:
192,192,52233,1,0,0:0:0:0:
64,192,52233,1,0,0:0:0:0:
64,192,52427,1,0,0:0:0:0:
320,192,52523,1,0,0:0:0:0:
192,192,52620,128,0,52814:0:0:0:0:
320,192,53298,1,0,0:0:0:0:
448,192,53394,1,0,0:0:0:0:
448,192,53588,1,0,0:0:0:0:
64,192,53782,1,0,0:0:0:0:
192,192,53782,128,0,54169:0:0:0:0:
320,192,53975,128,0,54169:0:0:0:0:
448,192,54169,1,0,0:0:0:0:
64,192,54169,1,0,0:0:0:0:
448,192,54362,1,0,0:0:0:0:
320,192,54459,1,0,0:0:0:0:
64,192,54556,1,0,0:0:0:0:
192,192,54556,1,0,0:0:0:0:
448,192,54653,1,0,0:0:0:0:
64,192,54749,1,0,0:0:0:0:
192,192,54846,1,0,0:0:0:0:
320,192,54943,1,0,0:0:0:0:
448,192,54943,1,0,0:0:0:0:
64,192,55040,1,0,0:0:0:0:
320,192,55136,1,0,0:0:0:0:
192,192,55233,1,0,0:0:0:0:
64,192,55330,1,0,0:0:0:0:
448,192,55330,1,0,0:0:0:0:
192,192,55427,1,0,0:0:0:0:
320,192,55523,1,0,0:0:0:0:
448,192,55620,1,0,0:0:0:0:
192,192,55717,1,0,0:0:0:0:
64,192,55717,128,0,56007:0:0:0:0:
192,192,56007,128,0,56298:0:0:0:0:
320,192,56104,1,0,0:0:0:0:
448,192,56104,1,0,0:0:0:0:
320,192,56298,128,0,56588:0:0:0:0:
192,192,56491,1,0,0:0:0:0:
64,192,56491,1,0,0:0:0:0:
448,192,56588,128,0,56878:0:0:0:0:
320,192,56878,1,0,0:0:0:0:
192,192,56878,128,0,57072:0:0:0:0:
64,192,57072,128,0,57265:0:0:0:0:
320,192,57265,1,0,0:0:0:0:
448,192,57265,1,0,0:0:0:0:
320,192,57459,1,0,0:0:0:0:
448,192,57556,1,0,0:0:0:0:
192,192,57653,1,0,0:0:0:0:
64,192,57653,1,0,0:0:0:0:
320,192,57749,1,0,0:0:0:0:
192,192,57846,1,0,0:0:0:0:
64,192,57943,1,0,0:0:0:0:
448,192,58040,1,0,0:0:0:0:
320,192,58040,1,0,0:0:0:0:
192,192,58136,1,0,0:0:0:0:
448,192,58233,1,0,0:0:0:0:
320,192,58330,1,0,0:0:0:0:
64,192,58427,1,0,0:0:0:0:
192,192,58491,1,0,0:0:0:0:
320,192,58556,1,0,0:0:0:0:
448,192,58620,128,0,58814:0:0:0:0:
192,192,58814,1,0,0:0:0:0:
64,192,58814,128,0,59104:0:0:0:0:
192,192,59104,128,0,59394:0:0:0:0:
320,192,59104,1,0,0:0:0:0:
64,192,59394,1,0,0:0:0:0:
320,192,59394,128,0,59685:0:0:0:0:
64,192,59685,128,0,59975:0:0:0:0:
448,192,59685,1,0,0:0:0:0:
320,192,59975,1,0,0:0:0:0:
448,192,59975,128,0,60169:0:0:0:0:
192,192,60169,128,0,60362:0:0:0:0:
448,192,60362,1,0,0:0:0:0:
64,192,60362,1,0,0:0:0:0:
64,192,60556,1,0,0:0:0:0:
192,192,60653,1,0,0:0:0:0:
320,192,60749,1,0,0:0:0:0:
448,192,60749,1,0,0:0:0:0:
64,192,60846,1,0,0:0:0:0:
448,192,60943,1,0,0:0:0:0:
320,192,61040,1,0,0:0:0:0:
64,192,61136,1,0,0:0:0:0:
192,192,61136,1,0,0:0:0:0:
448,192,61233,1,0,0:0:0:0:
192,192,61330,1,0,0:0:0:0:
320,192,61427,1,0,0:0:0:0:
64,192,61523,1,0,0:0:0:0:
448,192,61523,1,0,0:0:0:0:
320,192,61620,1,0,0:0:0:0:
192,192,61717,1,0,0:0:0:0:
64,192,61814,1,0,0:0:0:0:
448,192,61911,128,0,62201:0:0:0:0:
320,192,61911,1,0,0:0:0:0:
320,192,62201,128,0,62491:0:0:0:0:
64,192,62298,1,0,0:0:0:0:
192,192,62298,1,0,0:0:0:0:
192,192,62491,128,0,62782:0:0:0:0:
448,192,62685,1,0,0:0:0:0:
320,192,62685,1,0,0:0:0:0:
64,192,62782,128,0,63072:0:0:0:0:
320,192,63072,128,0,63265:0:0:0:0:
192,192,63072,1,0,0:0:0:0:
448,192,63265,128,0,63459:0:0:0:0:
64,192,63459,1,0,0:0:0:0:
192,192,63459,1,0,0:0:0:0:
192,192,63653,1,0,0:0:0:0:
64,192,63749,1,0,0:0:0:0:
448,192,63846,1,0,0:0:0:0:
320,192,63846,1,0,0:0:0:0:
192,192,63943,1,0,0:0:0:0:
320,192,64040,1,0,0:0:0:0:
448,192,64136,1,0,0:0:0:0:
192,192,64233,1,0,0:0:0:0:
64,192,64233,1,0,0:0:0:0:
320,192,64330,1,0,0:0:0:0:
64,192,64427,1,0,0:0:0:0:
192,192,64523,1,0,0:0:0:0:
448,192,64620,1,0,0:0:0:0:
320,192,64620,1,0,0:0:0:0:
192,192,64717,1,0,0:0:0:0:
64,192,64814,128,0,65007:0:0:0:0:
320,192,65007,1,0,0:0:0:0:
448,192,65007,1,0,0:0:0:0:
320,192,65201,1,0,0:0:0:0:
448,192,65201,1,0,0:0:0:0:
192,192,65394,1,0,0:0:0:0:
64,192,65394,1,0,0:0:0:0:
192,192,65588,1,0,0:0:0:0:
64,192,65588,1,0,0:0:0:0:
448,192,65782,1,0,0:0:0:0:
64,192,65878,1,0,0:0:0:0:
320,192,65975,1,0,0:0:0:0:
192,192,66072,1,0,0:0:0:0:
64,192,66169,1,0,0:0:0:0:
320,192,66265,1,0,0:0:0:0:
448,192,66362,1,0,0:0:0:0:
192,192,66556,1,0,0:0:0:0:
192,192,66749,1,0,0:0:0:0:
448,192,66943,1,0,0:0:0:0:
320,192,67040,1,0,0:0:0:0:
192,192,67136,1,0,0:0:0:0:
64,192,67233,1,0,0:0:0:0:
448,192,67330,1,0,0:0:0:0:
64,192,67523,1,0,0:0:0:0:
192,192,67717,1,0,0:0:0:0:
320,192,67814,1,0,0:0:0:0:
448,192,67911,1,0,0:0:0:0:
192,192,68007,1,0,0:0:0:0:
64,192,68104,1,0,0:0:0:0:
320,192,68201,1,0,0:0:0:0:
64,192,68298,1,0,0:0:0:0:
448,192,68491,1,0,0:0:0:0:
192,192,68588,1,0,0:0:0:0:
448,192,68685,1,0,0:0:0:0:
64,192,68878,1,0,0:0:0:0:
192,192,68975,1,0,0:0:0:0:
320,192,69072,1,0,0:0:0:0:
448,192,69072,1,0,0:0:0:0:
320,192,69265,1,0,0:0:0:0:
192,192,69362,1,0,0:0:0:0:
448,192,69459,1,0,0:0:0:0:
320,192,69556,1,0,0:0:0:0:
192,192,69653,1,0,0:0:0:0:
64,192,69653,1,0,0:0:0:0:
448,192,69846,1,0,0:0:0:0:
320,192,70040,128,0,70233:0:0:0:0:
192,192,70233,128,0,70427:0:0:0:0:
64,192,70427,1,0,0:0:0:0:
448,192,70523,1,0,0:0:0:0:
192,192,70620,1,0,0:0:0:0:
320,192,70717,1,0,0:0:0:0:
448,192,70911,1,0,0:0:0:0:
192,192,71007,128,0,71201:0:0:0:0:
64,192,71201,128,0,71975:0:0:0:0:
448,192,71394,1,0,0:0:0:0:
320,192,71588,1,0,0:0:0:0:
192,192,71782,1,0,0:0:0:0:
320,192,71975,1,0,0:0:0:0:
448,192,71975,1,0,0:0:0:0:
192,192,72169,1,0,0:0:0:0:
64,192,72169,1,0,0:0:0:0:
320,192,72362,1,0,0:0:0:0:
448,192,72362,1,0,0:0:0:0:
448,192,72749,1,0,0:0:0:0:
64,192,72749,1,0,0:0:0:0:
64,192,72943,1,0,0:0:0:0:
448,192,73040,1,0,0:0:0:0:
192,192,73136,1,0,0:0:0:0:
320,192,73136,1,0,0:0:0:0:
64,192,73233,1,0,0:0:0:0:
192,192,73330,1,0,0:0:0:0:
448,192,73523,1,0,0:0:0:0:
64,192,73523,1,0,0:0:0:0:
448,192,73717,1,0,0:0:0:0:
64,192,73814,1,0,0:0:0:0:
192,192,73911,1,0,0:0:0:0:
320,192,73911,1,0,0:0:0:0:
448,192,74007,1,0,0:0:0:0:
320,192,74104,1,0,0:0:0:0:
448,192,74298,1,0,0:0:0:0:
64,192,74298,1,0,0:0:0:0:
64,192,74504,1,0,0:0:0:0:
320,192,74608,1,0,0:0:0:0:
192,192,74711,1,0,0:0:0:0:
448,192,74711,1,0,0:0:0:0:
64,192,74815,1,0,0:0:0:0:
192,192,74918,1,0,0:0:0:0:
448,192,75125,1,0,0:0:0:0:
64,192,75125,1,0,0:0:0:0:
448,192,75332,1,0,0:0:0:0:
192,192,75435,1,0,0:0:0:0:
64,192,75539,1,0,0:0:0:0:
320,192,75539,1,0,0:0:0:0:
448,192,75642,1,0,0:0:0:0:
320,192,75746,1,0,0:0:0:0:
192,192,75953,1,0,0:0:0:0:
64,192,75953,1,0,0:0:0:0:
320,192,76064,1,0,0:0:0:0:
192,192,76175,1,0,0:0:0:0:
64,192,76286,1,0,0:0:0:0:
320,192,76397,1,0,0:0:0:0:
448,192,76397,1,0,0:0:0:0:
192,192,76508,1,0,0:0:0:0:
448,192,76619,1,0,0:0:0:0:
320,192,76730,1,0,0:0:0:0:
64,192,76841,1,0,0:0:0:0:
192,192,76841,1,0,0:0:0:0:
448,192,76953,1,0,0:0:0:0:
64,192,77064,1,0,0:0:0:0:
192,192,77175,1,0,0:0:0:0:
320,192,77286,1,0,0:0:0:0:
448,192,77286,1,0,0:0:0:0:
64,192,77397,1,0,0:0:0:0:
320,192,77508,1,0,0:0:0:0:
448,192,77619,1,0,0:0:0:0:
192,192,77730,1,0,0:0:0:0:
192,192,77964,1,0,0:0:0:0:
320,192,78198,1,0,0:0:0:0:
320,192,78433,1,0,0:0:0:0:
192,192,78550,1,0,0:0:0:0:
64,192,78550,1,0,0:0:0:0:
64,192,78784,1,0,0:0:0:0:
192,192,78784,1,0,0:0:0:0:
448,192,78901,1,0,0:0:0:0:
320,192,79019,1,0,0:0:0:0:
192,192,79136,1,0,0:0:0:0:
64,192,79370,1,0,0:0:0:0:
320,192,79605,128,0,80073:0:0:0:0:
192,192,79605,128,0,80073:0:0:0:0:
448,192,80073,1,0,0:0:0:0:
64,192,80073,1,0,0:0:0:0:
64,192,80308,1,0,0:0:0:0:
192,192,80425,1,0,0:0:0:0:
448,192,80542,1,0,0:0:0:0:
320,192,80542,128,0,80776:0:0:0:0:
192,192,80776,1,0,0:0:0:0:
448,192,81011,1,0,0:0:0:0:
64,192,81011,1,0,0:0:0:0:
320,192,81128,1,0,0:0:0:0:
448,192,81245,1,0,0:0:0:0:
64,192,81480,1,0,0:0:0:0:
192,192,81480,1,0,0:0:0:0:
320,192,81597,1,0,0:0:0:0:
192,192,81714,128,0,81831:0:0:0:0:
448,192,81948,1,0,0:0:0:0:
64,192,81948,1,0,0:0:0:0:
320,192,82065,1,0,0:0:0:0:
448,192,82183,1,0,0:0:0:0:
192,192,82300,1,0,0:0:0:0:
320,192,82417,1,0,0:0:0:0:
64,192,82417,128,0,82886:0:0:0:0:
320,192,82651,1,0,0:0:0:0:
448,192,82886,128,0,83355:0:0:0:0:
192,192,82886,1,0,0:0:0:0:
192,192,83120,1,0,0:0:0:0:
64,192,83355,1,0,0:0:0:0:
320,192,83355,128,0,83823:0:0:0:0:
192,192,83589,1,0,0:0:0:0:
448,192,83823,1,0,0:0:0:0:
64,192,83823,1,0,0:0:0:0:
320,192,83940,1,0,0:0:0:0:
192,192,84058,1,0,0:0:0:0:
320,192,84175,1,0,0:0:0:0:
192,192,84292,1,0,0:0:0:0:
64,192,84292,128,0,84526:0:0:0:0:
448,192,84526,1,0,0:0:0:0:
64,192,84644,1,0,0:0:0:0:
448,192,84761,1,0,0:0:0:0:
320,192,84761,1,0,0:0:0:0:
192,192,84995,1,0,0:0:0:0:
320,192,84995,1,0,0:0:0:0:
64,192,85230,1,0,0:0:0:0:
192,192,85347,1,0,0:0:0:0:
64,192,85464,128,0,85698:0:0:0:0:
448,192,85464,1,0,0:0:0:0:
192,192,85698,1,0,0:0:0:0:
448,192,85698,128,0,85933:0:0:0:0:
192,192,85933,1,0,0:0:0:0:
64,192,85933,1,0,0:0:0:0:
320,192,86050,1,0,0:0:0:0:
448,192,86050,1,0,0:0:0:0:
64,192,86284,1,0,0:0:0:0:
64,192,86519,1,0,0:0:0:0:
320,192,86636,1,0,0:0:0:0:
448,192,86636,128,0,86870:0:0:0:0:
192,192,86870,1,0,0:0:0:0:
320,192,86987,1,0,0:0:0:0:
64,192,87105,128,0,87573:0:0:0:0:
448,192,87105,128,0,87573:0:0:0:0:
192,192,87573,1,0,0:0:0:0:
320,192,87573,1,0,0:0:0:0:
448,192,87808,1,0,0:0:0:0:
320,192,87925,1,0,0:0:0:0:
192,192,88042,128,0,88276:0:0:0:0:
64,192,88042,1,0,0:0:0:0:
320,192,88276,1,0,0:0:0:0:
448,192,88394,1,0,0:0:0:0:
64,192,88511,1,0,0:0:0:0:
192,192,88511,1,0,0:0:0:0:
320,192,88628,1,0,0:0:0:0:
64,192,88745,1,0,0:0:0:0:
320,192,88980,1,0,0:0:0:0:
448,192,88980,1,0,0:0:0:0:
192,192,89097,1,0,0:0:0:0:
320,192,89214,128,0,89331:0:0:0:0:
448,192,89331,1,0,0:0:0:0:
64,192,89448,1,0,0:0:0:0:
192,192,89448,1,0,0:0:0:0:
448,192,89565,1,0,0:0:0:0:
320,192,89683,1,0,0:0:0:0:
64,192,89800,1,0,0:0:0:0:
448,192,89917,128,0,90386:0:0:0:0:
192,192,89917,1,0,0:0:0:0:
192,192,90151,1,0,0:0:0:0:
320,192,90386,1,0,0:0:0:0:
64,192,90386,128,0,90855:0:0:0:0:
320,192,90620,1,0,0:0:0:0:
192,192,90855,128,0,91089:0:0:0:0:
448,192,90855,1,0,0:0:0:0:
320,192,91089,1,0,0:0:0:0:
192,192,91206,1,0,0:0:0:0:
448,192,91323,1,0,0:0:0:0:
64,192,91323,1,0,0:0:0:0:
64,192,91558,1,0,0:0:0:0:
192,192,91675,1,0,0:0:0:0:
448,192,91792,128,0,92026:0:0:0:0:
320,192,91792,1,0,0:0:0:0:
64,192,92026,1,0,0:0:0:0:
448,192,92144,1,0,0:0:0:0:
192,192,92261,1,0,0:0:0:0:
64,192,92261,1,0,0:0:0:0:
320,192,92495,1,0,0:0:0:0:
192,192,92612,1,0,0:0:0:0:
64,192,92730,128,0,93198:0:0:0:0:
320,192,92730,128,0,92964:0:0:0:0:
320,192,93198,128,0,93667:0:0:0:0:
192,192,93198,128,0,93433:0:0:0:0:
192,192,93667,128,0,94136:0:0:0:0:
448,192,93667,128,0,93901:0:0:0:0:
64,192,94136,128,0,94605:0:0:0:0:
448,192,94136,128,0,94605:0:0:0:0:
192,192,94605,1,0,0:0:0:0:
320,192,94605,1,0,0:0:0:0:
64,192,94722,1,0,0:0:0:0:
192,192,94839,1,0,0:0:0:0:
320,192,94956,1,0,0:0:0:0:
448,192,95073,128,0,95542:0:0:0:0:
64,192,95190,128,0,95542:0:0:0:0:
320,192,95542,128,0,96011:0:0:0:0:
192,192,95542,128,0,96480:0:0:0:0:
320,192,96480,1,0,0:0:0:0:
448,192,96480,1,0,0:0:0:0:
64,192,96597,1,0,0:0:0:0:
192,192,96714,1,0,0:0:0:0:
320,192,96831,1,0,0:0:0:0:
64,192,96948,128,0,97417:0:0:0:0:
448,192,97065,128,0,97417:0:0:0:0:
192,192,97417,128,0,97886:0:0:0:0:
320,192,97417,128,0,98355:0:0:0:0:
192,192,98355,1,0,0:0:0:0:
64,192,98355,1,0,0:0:0:0:
448,192,98472,1,0,0:0:0:0:
192,192,98589,1,0,0:0:0:0:
320,192,98706,1,0,0:0:0:0:
448,192,98823,128,0,99292:0:0:0:0:
64,192,98940,128,0,99292:0:0:0:0:
320,192,99292,128,0,99761:0:0:0:0:
192,192,99292,128,0,100230:0:0:0:0:
320,192,100230,1,0,0:0:0:0:
448,192,100230,1,0,0:0:0:0:
64,192,100347,1,0,0:0:0:0:
192,192,100464,1,0,0:0:0:0:
320,192,100581,1,0,0:0:0:0:
448,192,100698,128,0,101167:0:0:0:0:
64,192,100815,128,0,101167:0:0:0:0:
320,192,101167,128,0,102105:0:0:0:0:
192,192,101167,128,0,101636:0:0:0:0:
192,192,102105,1,0,0:0:0:0:
64,192,102105,1,0,0:0:0:0:
448,192,102222,1,0,0:0:0:0:
320,192,102339,1,0,0:0:0:0:
192,192,102456,1,0,0:0:0:0:
64,192,102573,128,0,103042:0:0:0:0:
448,192,102690,128,0,103042:0:0:0:0:
192,192,103042,1,0,0:0:0:0:
320,192,103042,1,0,0:0:0:0:
448,192,103159,1,0,0:0:0:0:
192,192,103276,1,0,0:0:0:0:
64,192,103394,1,0,0:0:0:0:
448,192,103745,1,0,0:0:0:0:
64,192,103980,1,0,0:0:0:0:
192,192,103980,1,0,0:0:0:0:
448,192,104097,1,0,0:0:0:0:
320,192,104214,1,0,0:0:0:0:
192,192,104331,1,0,0:0:0:0:
448,192,104448,128,0,104917:0:0:0:0:
64,192,104565,128,0,104917:0:0:0:0:
320,192,104917,1,0,0:0:0:0:
192,192,104917,1,0,0:0:0:0:
64,192,105034,1,0,0:0:0:0:
320,192,105386,1,0,0:0:0:0:
448,192,105503,1,0,0:0:0:0:
192,192,105855,1,0,0:0:0:0:
64,192,105855,1,0,0:0:0:0:
64,192,106089,1,0,0:0:0:0:
320,192,106089,1,0,0:0:0:0:
192,192,106323,1,0,0:0:0:0:
320,192,106323,1,0,0:0:0:0:
192,192,106558,1,0,0:0:0:0:
448,192,106558,1,0,0:0:0:0:
320,192,106792,1,0,0:0:0:0:
448,192,106792,1,0,0:0:0:0:
64,192,106909,1,0,0:0:0:0:
320,192,107026,1,0,0:0:0:0:
64,192,107144,1,0,0:0:0:0:
192,192,107261,1,0,0:0:0:0:
448,192,107378,1,0,0:0:0:0:
192,192,107495,1,0,0:0:0:0:
448,192,107612,1,0,0:0:0:0:
64,192,107730,1,0,0:0:0:0:
192,192,107847,1,0,0:0:0:0:
64,192,107964,1,0,0:0:0:0:
320,192,108081,1,0,0:0:0:0:
192,192,108198,1,0,0:0:0:0:
448,192,108315,1,0,0:0:0:0:
320,192,108433,1,0,0:0:0:0:
448,192,108550,1,0,0:0:0:0:
192,192,108667,1,0,0:0:0:0:
64,192,108667,1,0,0:0:0:0:
320,192,109605,1,0,0:0:0:0:
448,192,109605,1,0,0:0:0:0:
64,192,109798,1,0,0:0:0:0:
320,192,109992,1,0,0:0:0:0:
192,192,110185,1,0,0:0:0:0:
64,192,110379,1,0,0:0:0:0:
448,192,110475,1,0,0:0:0:0:
192,192,110572,1,0,0:0:0:0:
320,192,110669,1,0,0:0:0:0:
448,192,110959,1,0,0:0:0:0:
192,192,111153,1,0,0:0:0:0:
64,192,111153,1,0,0:0:0:0:
320,192,111443,1,0,0:0:0:0:
192,192,111734,1,0,0:0:0:0:
448,192,112024,1,0,0:0:0:0:
320,192,112314,1,0,0:0:0:0:
64,192,112508,1,0,0:0:0:0:
320,192,112701,1,0,0:0:0:0:
192,192,112701,1,0,0:0:0:0:
448,192,112882,1,0,0:0:0:0:
64,192,113064,1,0,0:0:0:0:
192,192,113155,1,0,0:0:0:0:
320,192,113246,1,0,0:0:0:0:
64,192,113428,1,0,0:0:0:0:
192,192,113519,1,0,0:0:0:0:
448,192,113610,1,0,0:0:0:0:
64,192,113791,1,0,0:0:0:0:
320,192,113882,1,0,0:0:0:0:
448,192,113973,1,0,0:0:0:0:
192,192,114155,1,0,0:0:0:0:
64,192,114155,1,0,0:0:0:0:
320,192,114246,1,0,0:0:0:0:
448,192,114337,1,0,0:0:0:0:
320,192,114519,1,0,0:0:0:0:
192,192,114610,1,0,0:0:0:0:
64,192,114701,1,0,0:0:0:0:
448,192,114791,1,0,0:0:0:0:
192,192,114882,1,0,0:0:0:0:
320,192,114973,1,0,0:0:0:0:
448,192,115064,1,0,0:0:0:0:
192,192,115246,128,0,115428:0:0:0:0:
64,192,115610,1,0,0:0:0:0:
64,192,116295,1,0,0:0:0:0:
192,192,116381,1,0,0:0:0:0:
320,192,116467,1,0,0:0:0:0:
64,192,116981,128,0,117324:0:0:0:0:
448,192,117324,1,0,0:0:0:0:
64,192,117667,128,0,118010:0:0:0:0:
448,192,117752,1,0,0:0:0:0:
320,192,117838,1,0,0:0:0:0:
192,192,118010,1,0,0:0:0:0:
64,192,118181,1,0,0:0:0:0:
192,192,118352,1,0,0:0:0:0:
320,192,118435,1,0,0:0:0:0:
448,192,118518,1,0,0:0:0:0:
320,192,118685,1,0,0:0:0:0:
192,192,118768,1,0,0:0:0:0:
64,192,118852,1,0,0:0:0:0:
192,192,119018,1,0,0:0:0:0:
320,192,119102,1,0,0:0:0:0:
448,192,119185,1,0,0:0:0:0:
320,192,119352,1,0,0:0:0:0:
192,192,119435,1,0,0:0:0:0:
64,192,119518,1,0,0:0:0:0:
448,192,119685,1,0,0:0:0:0:
320,192,119685,1,0,0:0:0:0:
320,192,119852,1,0,0:0:0:0:
448,192,119852,1,0,0:0:0:0:
192,192,120018,1,0,0:0:0:0:
64,192,120018,1,0,0:0:0:0:
64,192,120185,1,0,0:0:0:0:
192,192,120185,1,0,0:0:0:0:
320,192,120352,128,0,120518:0:0:0:0:
192,192,120518,128,0,120685:0:0:0:0:
320,192,120685,128,0,121018:0:0:0:0:
192,192,120852,128,0,121018:0:0:0:0:
64,192,121018,128,0,121352:0:0:0:0:
448,192,121185,1,0,0:0:0:0:
192,192,121352,1,0,0:0:0:0:
320,192,121518,1,0,0:0:0:0:
448,192,121685,128,0,122185:0:0:0:0:
192,192,122018,128,0,122352:0:0:0:0:
64,192,122185,128,0,122352:0:0:0:0:
448,192,122352,1,0,0:0:0:0:
320,192,122352,1,0,0:0:0:0:
320,192,122518,1,0,0:0:0:0:
192,192,122602,1,0,0:0:0:0:
192,192,122768,1,0,0:0:0:0:
448,192,122852,1,0,0:0:0:0:
448,192,123018,1,0,0:0:0:0:
64,192,123102,1,0,0:0:0:0:
64,192,123268,1,0,0:0:0:0:
448,192,123352,1,0,0:0:0:0:
320,192,123352,128,0,123518:0:0:0:0:
192,192,123518,128,0,123685:0:0:0:0:
64,192,123685,1,0,0:0:0:0:
448,192,123685,1,0,0:0:0:0:
192,192,123852,1,0,0:0:0:0:
320,192,124018,1,0,0:0:0:0:
448,192,124185,1,0,0:0:0:0:
64,192,124352,1,0,0:0:0:0:
320,192,124518,1,0,0:0:0:0:
192,192,124685,128,0,125018:0:0:0:0:
64,192,124852,128,0,125018:0:0:0:0:
320,192,125018,1,0,0:0:0:0:
448,192,125018,1,0,0:0:0:0:
448,192,125185,1,0,0:0:0:0:
64,192,125268,1,0,0:0:0:0:
64,192,125435,1,0,0:0:0:0:
320,192,125518,1,0,0:0:0:0:
192,192,125851,1,0,0:0:0:0:
448,192,126018,1,0,0:0:0:0:
64,192,126018,1,0,0:0:0:0:
192,192,126185,1,0,0:0:0:0:
320,192,126351,1,0,0:0:0:0:
448,192,126351,1,0,0:0:0:0:
448,192,126518,1,0,0:0:0:0:
320,192,126601,1,0,0:0:0:0:
64,192,126685,128,0,126851:0:0:0:0:
192,192,126685,1,0,0:0:0:0:
448,192,126851,128,0,127018:0:0:0:0:
320,192,127018,1,0,0:0:0:0:
64,192,127018,1,0,0:0:0:0:
64,192,127185,1,0,0:0:0:0:
192,192,127351,1,0,0:0:0:0:
320,192,127351,1,0,0:0:0:0:
320,192,127518,1,0,0:0:0:0:
64,192,127685,1,0,0:0:0:0:
448,192,127685,128,0,127935:0:0:0:0:
192,192,127935,128,0,128185:0:0:0:0:
320,192,127935,1,0,0:0:0:0:
320,192,128185,128,0,128435:0:0:0:0:
64,192,128185,1,0,0:0:0:0:
448,192,128435,1,0,0:0:0:0:
64,192,128435,128,0,128685:0:0:0:0:
320,192,128685,1,0,0:0:0:0:
448,192,128685,128,0,129018:0:0:0:0:
192,192,128851,128,0,129018:0:0:0:0:
64,192,129018,1,0,0:0:0:0:
320,192,129018,1,0,0:0:0:0:
320,192,129185,1,0,0:0:0:0:
448,192,129268,1,0,0:0:0:0:
64,192,129351,1,0,0:0:0:0:
192,192,129351,128,0,129518:0:0:0:0:
320,192,129518,128,0,129685:0:0:0:0:
448,192,129685,1,0,0:0:0:0:
64,192,129685,1,0,0:0:0:0:
64,192,129851,1,0,0:0:0:0:
320,192,130018,1,0,0:0:0:0:
448,192,130018,1,0,0:0:0:0:
192,192,130185,128,0,130518:0:0:0:0:
320,192,130185,1,0,0:0:0:0:
64,192,130518,1,0,0:0:0:0:
448,192,130601,1,0,0:0:0:0:
192,192,130685,1,0,0:0:0:0:
320,192,130768,1,0,0:0:0:0:
192,192,130851,1,0,0:0:0:0:
64,192,130935,1,0,0:0:0:0:
320,192,131018,1,0,0:0:0:0:
448,192,131018,1,0,0:0:0:0:
320,192,131185,1,0,0:0:0:0:
448,192,131268,1,0,0:0:0:0:
192,192,131352,1,0,0:0:0:0:
64,192,131352,1,0,0:0:0:0:
192,192,131518,1,0,0:0:0:0:
64,192,131685,1,0,0:0:0:0:
448,192,131685,1,0,0:0:0:0:
448,192,131852,1,0,0:0:0:0:
320,192,131935,1,0,0:0:0:0:
64,192,132018,1,0,0:0:0:0:
192,192,132018,128,0,132185:0:0:0:0:
448,192,132185,128,0,132352:0:0:0:0:
320,192,132352,1,0,0:0:0:0:
64,192,132352,1,0,0:0:0:0:
64,192,132518,1,0,0:0:0:0:
192,192,132685,1,0,0:0:0:0:
320,192,132685,128,0,133018:0:0:0:0:
192,192,133018,1,0,0:0:0:0:
64,192,133018,1,0,0:0:0:0:
448,192,133101,1,0,0:0:0:0:
448,192,133268,1,0,0:0:0:0:
192,192,133351,1,0,0:0:0:0:
192,192,133518,1,0,0:0:0:0:
320,192,133601,1,0,0:0:0:0:
320,192,133768,1,0,0:0:0:0:
64,192,133851,1,0,0:0:0:0:
448,192,134018,1,0,0:0:0:0:
64,192,134018,1,0,0:0:0:0:
320,192,134101,1,0,0:0:0:0:
448,192,134185,1,0,0:0:0:0:
192,192,134268,1,0,0:0:0:0:
64,192,134351,1,0,0:0:0:0:
320,192,134351,1,0,0:0:0:0:
64,192,134518,1,0,0:0:0:0:
192,192,134601,1,0,0:0:0:0:
320,192,134685,128,0,134851:0:0:0:0:
448,192,134685,1,0,0:0:0:0:
64,192,134851,128,0,135018:0:0:0:0:
192,192,135018,1,0,0:0:0:0:
448,192,135018,1,0,0:0:0:0:
448,192,135185,1,0,0:0:0:0:
320,192,135351,1,0,0:0:0:0:
192,192,135435,1,0,0:0:0:0:
64,192,135518,1,0,0:0:0:0:
320,192,135685,1,0,0:0:0:0:
448,192,135685,1,0,0:0:0:0:
192,192,135768,1,0,0:0:0:0:
192,192,135935,1,0,0:0:0:0:
448,192,136018,1,0,0:0:0:0:
448,192,136185,1,0,0:0:0:0:
64,192,136268,1,0,0:0:0:0:
64,192,136435,1,0,0:0:0:0:
320,192,136518,1,0,0:0:0:0:
320,192,136685,1,0,0:0:0:0:
192,192,136768,1,0,0:0:0:0:
448,192,136851,128,0,137018:0:0:0:0:
192,192,137018,1,0,0:0:0:0:
64,192,137018,1,0,0:0:0:0:
192,192,137185,1,0,0:0:0:0:
320,192,137268,1,0,0:0:0:0:
64,192,137351,1,0,0:0:0:0:
448,192,137351,128,0,137518:0:0:0:0:
192,192,137518,128,0,137685:0:0:0:0:
320,192,137685,1,0,0:0:0:0:
448,192,137685,1,0,0:0:0:0:
64,192,137768,1,0,0:0:0:0:
320,192,137851,1,0,0:0:0:0:
192,192,137935,1,0,0:0:0:0:
64,192,138018,128,0,138185:0:0:0:0:
448,192,138018,1,0,0:0:0:0:
192,192,138185,128,0,138351:0:0:0:0:
448,192,138351,1,0,0:0:0:0:
320,192,138351,128,0,138601:0:0:0:0:
64,192,138601,1,0,0:0:0:0:
448,192,138601,128,0,138851:0:0:0:0:
320,192,138851,1,0,0:0:0:0:
64,192,138851,128,0,139101:0:0:0:0:
320,192,139101,128,0,139351:0:0:0:0:
192,192,139101,1,0,0:0:0:0:
64,192,139351,1,0,0:0:0:0:
192,192,139351,128,0,139685:0:0:0:0:
448,192,139518,128,0,139685:0:0:0:0:
64,192,139685,1,0,0:0:0:0:
320,192,139685,1,0,0:0:0:0:
64,192,139851,1,0,0:0:0:0:
192,192,139935,1,0,0:0:0:0:
448,192,140018,1,0,0:0:0:0:
320,192,140018,128,0,140185:0:0:0:0:
64,192,140185,128,0,140351:0:0:0:0:
448,192,140351,1,0,0:0:0:0:
192,192,140351,1,0,0:0:0:0:
448,192,140518,1,0,0:0:0:0:
64,192,140685,1,0,0:0:0:0:
192,192,140685,1,0,0:0:0:0:
320,192,140768,1,0,0:0:0:0:
64,192,140851,128,0,141018:0:0:0:0:
320,192,141018,1,0,0:0:0:0:
448,192,141018,1,0,0:0:0:0:
192,192,141185,1,0,0:0:0:0:
448,192,141185,1,0,0:0:0:0:
320,192,141351,1,0,0:0:0:0:
192,192,141351,1,0,0:0:0:0:
64,192,141518,1,0,0:0:0:0:
320,192,141518,1,0,0:0:0:0:
448,192,141685,1,0,0:0:0:0:
64,192,141685,1,0,0:0:0:0:
192,192,141851,1,0,0:0:0:0:
448,192,141851,1,0,0:0:0:0:
320,192,142018,1,0,0:0:0:0:
192,192,142018,1,0,0:0:0:0:
320,192,142185,1,0,0:0:0:0:
448,192,142185,128,0,142518:0:0:0:0:
64,192,142351,1,0,0:0:0:0:
192,192,142351,1,0,0:0:0:0:
64,192,142518,1,0,0:0:0:0:
192,192,142601,1,0,0:0:0:0:
320,192,142685,1,0,0:0:0:0:
448,192,142685,1,0,0:0:0:0:
448,192,142851,1,0,0:0:0:0:
320,192,142935,1,0,0:0:0:0:
192,192,143018,1,0,0:0:0:0:
64,192,143018,1,0,0:0:0:0:
64,192,143185,1,0,0:0:0:0:
192,192,143268,1,0,0:0:0:0:
448,192,143351,1,0,0:0:0:0:
64,192,143435,1,0,0:0:0:0:
448,192,143518,1,0,0:0:0:0:
64,192,143601,1,0,0:0:0:0:
192,192,143685,1,0,0:0:0:0:
320,192,143851,1,0,0:0:0:0:
64,192,144018,1,0,0:0:0:0:
192,192,144185,1,0,0:0:0:0:
320,192,144351,1,0,0:0:0:0:
192,192,144518,1,0,0:0:0:0:
64,192,144601,1,0,0:0:0:0:
320,192,144685,1,0,0:0:0:0:
448,192,144685,128,0,144851:0:0:0:0:
192,192,144851,1,0,0:0:0:0:
64,192,145018,128,0,145185:0:0:0:0:
448,192,145018,128,0,145185:0:0:0:0:
320,192,145185,1,0,0:0:0:0:
64,192,145351,1,0,0:0:0:0:
192,192,145518,1,0,0:0:0:0:
320,192,145768,1,0,0:0:0:0:
448,192,145768,1,0,0:0:0:0:
192,192,145851,1,0,0:0:0:0:
64,192,145851,1,0,0:0:0:0:
320,192,146018,1,0,0:0:0:0:
448,192,146018,1,0,0:0:0:0:
192,192,146185,1,0,0:0:0:0:
64,192,146268,1,0,0:0:0:0:
320,192,146351,128,0,146518:0:0:0:0:
448,192,146351,128,0,146518:0:0:0:0:
192,192,146518,1,0,0:0:0:0:
448,192,146685,1,0,0:0:0:0:
64,192,146851,1,0,0:0:0:0:
192,192,147018,1,0,0:0:0:0:
320,192,147185,128,0,147351:0:0:0:0:
64,192,147351,1,0,0:0:0:0:
192,192,147435,1,0,0:0:0:0:
448,192,147518,1,0,0:0:0:0:
320,192,147601,1,0,0:0:0:0:
192,192,147685,1,0,0:0:0:0:
448,192,147768,1,0,0:0:0:0:
448,192,147935,1,0,0:0:0:0:
192,192,148018,1,0,0:0:0:0:
192,192,148185,1,0,0:0:0:0:
448,192,148268,1,0,0:0:0:0:
448,192,148435,1,0,0:0:0:0:
192,192,148518,1,0,0:0:0:0:
320,192,148685,1,0,0:0:0:0:
448,192,148685,1,0,0:0:0:0:
64,192,148851,1,0,0:0:0:0:
192,192,148935,1,0,0:0:0:0:
320,192,149018,1,0,0:0:0:0:
64,192,149101,1,0,0:0:0:0:
64,192,149268,1,0,0:0:0:0:
320,192,149351,1,0,0:0:0:0:
320,192,149518,1,0,0:0:0:0:
64,192,149601,1,0,0:0:0:0:
64,192,149768,1,0,0:0:0:0:
320,192,149851,1,0,0:0:0:0:
192,192,150018,1,0,0:0:0:0:
64,192,150018,1,0,0:0:0:0:
192,192,150185,1,0,0:0:0:0:
320,192,150185,1,0,0:0:0:0:
448,192,150268,1,0,0:0:0:0:
448,192,150685,128,0,151351:0:0:0:0:
64,192,150685,128,0,151685:0:0:0:0:
