osu file format v14

[General]
AudioFilename: audio.mp3
AudioLeadIn: 0
PreviewTime: 9713
Countdown: 0
SampleSet: Soft
StackLeniency: 0.7
Mode: 3
LetterboxInBreaks: 0
SpecialStyle: 0
WidescreenStoryboard: 1

[Editor]
DistanceSpacing: 0.5
BeatDivisor: 8
GridSize: 4
TimelineZoom: 1.7

[Metadata]
Title:Wonderful Paradise
TitleUnicode:ワンダフォー・パラダイス
Artist:Hino Isuka
ArtistUnicode:翡乃イスカ
Creator:Murumoo
Version:Hard
Source:THE BMS OF FIGHTERS XVII -VISION THE RETRO FUTURE-
Tags:famoss featured artist fa mappers' guild mg BOFXVII スパイス香る落とし卵の柑橘うどん electronic instrumental j-happyhardcore j-core happy hardcore
BeatmapID:3520593
BeatmapSetID:1722598

[Difficulty]
HPDrainRate:7.5
CircleSize:4
OverallDifficulty:7.5
ApproachRate:5
SliderMultiplier:1.4
SliderTickRate:1

[Events]
//Background and Video events
0,0,"bg.jpg",0,0
//Break Periods
//Storyboard Layer 0 (Background)
//Storyboard Layer 1 (Fail)
//Storyboard Layer 2 (Pass)
//Storyboard Layer 3 (Foreground)
//Storyboard Layer 4 (Overlay)
//Storyboard Sound Samples
Sample,22416,0,"amenbreak_snare2.wav",70

[TimingPoints]
1065,270.27027027027,4,2,2,50,1,0
9713,-100,4,2,1,50,0,0
27281,-100,4,2,2,50,0,0
35659,-100,4,2,1,50,0,0
85389,-100,4,2,2,50,0,0
89713,-100,4,2,1,50,0,0

[HitObjects]
64,192,1065,128,2,1335:0:0:0:0:
192,192,1065,1,0,0:0:0:0:
320,192,1200,1,0,0:0:0:0:
192,192,1335,128,0,1605:0:0:0:0:
448,192,1335,1,0,0:0:0:0:
64,192,1470,1,0,0:0:0:0:
320,192,1605,1,2,0:0:0:0:
448,192,1605,128,0,1875:0:0:0:0:
192,192,1740,1,0,0:0:0:0:
64,192,1875,1,0,0:0:0:0:
320,192,1875,128,0,2146:0:0:0:0:
448,192,2010,1,0,0:0:0:0:
64,192,2146,128,2,2416:0:0:0:0:
192,192,2146,1,0,0:0:0:0:
320,192,2281,1,0,0:0:0:0:
192,192,2416,128,0,2686:0:0:0:0:
448,192,2416,1,0,0:0:0:0:
64,192,2551,1,0,0:0:0:0:
320,192,2686,1,2,0:0:0:0:
448,192,2686,128,0,2956:0:0:0:0:
192,192,2821,1,0,0:0:0:0:
64,192,2956,1,0,0:0:0:0:
320,192,2956,128,0,3227:0:0:0:0:
448,192,3092,1,0,0:0:0:0:
64,192,3227,1,2,0:0:0:0:
192,192,3227,128,0,3497:0:0:0:0:
320,192,3362,1,0,0:0:0:0:
64,192,3497,128,0,3767:0:0:0:0:
448,192,3497,1,0,0:0:0:0:
192,192,3632,1,0,0:0:0:0:
320,192,3767,128,2,4037:0:0:0:0:
448,192,3767,1,0,0:0:0:0:
192,192,3902,1,0,0:0:0:0:
64,192,4037,1,0,0:0:0:0:
448,192,4037,128,0,4308:0:0:0:0:
320,192,4173,1,0,0:0:0:0:
64,192,4308,1,2,0:0:0:0:
192,192,4308,128,0,4578:0:0:0:0:
320,192,4443,1,0,0:0:0:0:
64,192,4578,128,0,4848:0:0:0:0:
448,192,4578,1,0,0:0:0:0:
192,192,4713,1,0,0:0:0:0:
320,192,4848,128,2,5119:0:0:0:0:
448,192,4848,1,0,0:0:0:0:
192,192,4983,1,0,0:0:0:0:
64,192,5119,1,0,0:0:0:0:
448,192,5119,128,0,5389:0:0:0:0:
320,192,5254,1,0,0:0:0:0:
64,192,5389,1,0,0:0:0:50:LR4_KickGBDV.wav
192,192,5389,128,0,5524:0:0:0:0:
320,192,5524,128,0,5659:0:0:0:0:
64,192,5659,1,0,0:0:0:0:
448,192,5659,128,0,5794:0:0:0:0:
192,192,5794,1,0,0:0:0:0:
320,192,5929,128,2,6064:0:0:0:0:
448,192,5929,1,0,0:0:0:0:
192,192,6064,128,0,6200:0:0:0:0:
448,192,6132,1,0,0:0:0:0:
64,192,6200,128,0,6335:0:0:0:0:
320,192,6335,1,0,0:0:0:0:
64,192,6470,1,2,0:0:0:0:
192,192,6470,128,0,6605:0:0:0:0:
320,192,6605,128,0,6740:0:0:0:0:
64,192,6740,1,0,0:0:0:0:
448,192,6740,128,0,6875:0:0:0:0:
192,192,6875,1,0,0:0:0:0:
320,192,7010,128,2,7146:0:0:0:0:
448,192,7010,1,0,0:0:0:0:
192,192,7146,128,0,7281:0:0:0:0:
64,192,7281,128,0,7416:0:0:0:0:
448,192,7281,1,0,0:0:0:0:
320,192,7416,1,0,0:0:0:0:
64,192,7551,128,2,7619:0:0:0:0:
448,192,7551,1,0,0:0:0:0:
320,192,7686,1,0,0:0:0:0:
192,192,7821,1,0,0:0:0:0:
448,192,7821,1,0,0:0:0:0:
64,192,7956,1,0,0:0:0:0:
320,192,8092,128,2,8159:0:0:0:0:
448,192,8092,128,0,8159:0:0:0:0:
192,192,8227,1,0,0:0:0:0:
64,192,8362,1,0,0:0:0:0:
320,192,8362,1,0,0:0:0:0:
448,192,8497,1,0,0:0:0:0:
64,192,8632,128,0,8700:0:0:0:0:
192,192,8632,128,0,8700:0:0:0:0:
320,192,8632,128,0,8700:0:0:0:0:
448,192,8767,1,0,0:0:0:0:
64,192,8902,128,0,8970:0:0:0:0:
192,192,8902,128,0,8970:0:0:0:0:
320,192,9037,1,0,0:0:0:0:
64,192,9173,128,0,9240:0:0:0:0:
448,192,9173,1,0,0:0:0:0:
64,192,9443,1,0,0:0:0:70:sukaru_001.wav
320,192,9443,1,0,0:0:0:0:
448,192,9443,1,0,0:0:0:0:
64,192,9713,1,2,0:0:0:0:
192,192,9713,1,4,0:0:0:0:
448,192,9713,1,0,0:0:0:0:
320,192,9848,1,0,0:0:0:0:
64,192,9983,1,2,0:0:0:0:
192,192,9983,1,8,0:0:0:0:
320,192,10119,1,0,0:0:0:0:
64,192,10254,1,2,0:0:0:0:
192,192,10254,1,0,0:0:0:0:
320,192,10389,1,0,0:0:0:0:
192,192,10456,1,0,0:0:0:0:
64,192,10524,1,8,0:0:0:0:
448,192,10524,1,2,0:0:0:0:
320,192,10659,1,0,0:0:0:0:
64,192,10794,1,2,0:0:0:0:
448,192,10794,1,0,0:0:0:0:
192,192,10862,1,0,0:0:0:0:
320,192,10929,1,0,0:0:0:0:
64,192,11064,1,2,0:0:0:0:
192,192,11064,1,8,0:0:0:0:
448,192,11200,1,0,0:0:0:0:
64,192,11335,1,2,0:0:0:0:
320,192,11335,1,0,0:0:0:0:
192,192,11470,1,0,0:0:0:0:
64,192,11605,1,8,0:0:0:0:
448,192,11605,1,2,0:0:0:0:
192,192,11740,1,0,0:0:0:0:
320,192,11875,1,2,0:0:0:0:
448,192,11875,1,0,0:0:0:0:
192,192,12010,1,0,0:0:0:0:
320,192,12146,1,8,0:0:0:0:
448,192,12146,1,2,0:0:0:0:
192,192,12281,1,0,0:0:0:0:
320,192,12416,1,2,0:0:0:0:
448,192,12416,1,0,0:0:0:0:
192,192,12551,1,0,0:0:0:0:
320,192,12619,1,0,0:0:0:0:
64,192,12686,1,2,0:0:0:0:
448,192,12686,1,8,0:0:0:0:
192,192,12821,1,0,0:0:0:0:
64,192,12956,128,2,13227:0:0:0:0:
448,192,12956,1,4,0:0:0:0:
320,192,13092,1,0,0:0:0:0:
192,192,13227,1,0,0:0:0:0:
448,192,13227,128,0,13497:0:0:0:0:
64,192,13362,1,0,0:0:0:0:
192,192,13497,128,0,13767:0:0:0:0:
320,192,13497,1,0,0:0:0:0:
448,192,13632,1,0,0:0:0:0:
64,192,13767,1,0,0:0:0:70:sukaru_001.wav
320,192,13767,1,0,0:0:0:0:
64,192,14037,1,4,0:0:0:0:
320,192,14037,1,2,0:0:0:0:
448,192,14037,1,0,0:0:0:0:
192,192,14173,1,0,0:0:0:0:
320,192,14308,1,8,0:0:0:0:
448,192,14308,1,2,0:0:0:0:
192,192,14443,1,0,0:0:0:0:
320,192,14578,1,2,0:0:0:0:
448,192,14578,1,0,0:0:0:0:
192,192,14713,1,0,0:0:0:0:
320,192,14781,1,0,0:0:0:0:
64,192,14848,1,2,0:0:0:0:
448,192,14848,1,8,0:0:0:0:
192,192,14983,1,0,0:0:0:0:
64,192,15119,1,2,0:0:0:0:
448,192,15119,1,0,0:0:0:0:
320,192,15186,1,0,0:0:0:0:
192,192,15254,1,0,0:0:0:0:
320,192,15389,1,8,0:0:0:0:
448,192,15389,1,2,0:0:0:0:
64,192,15524,1,0,0:0:0:0:
192,192,15659,1,2,0:0:0:0:
448,192,15659,1,0,0:0:0:0:
320,192,15794,1,0,0:0:0:0:
64,192,15929,1,2,0:0:0:0:
192,192,15929,1,8,0:0:0:0:
448,192,16064,1,0,0:0:0:0:
64,192,16200,1,0,0:0:0:70:LR4_KickGBDV.wav
192,192,16200,1,0,0:0:0:0:
320,192,16335,1,0,0:0:0:0:
64,192,16470,1,2,0:0:0:0:
448,192,16470,1,8,0:0:0:0:
192,192,16605,1,0,0:0:0:0:
320,192,16740,1,2,0:0:0:0:
448,192,16740,1,0,0:0:0:0:
64,192,16875,1,0,0:0:0:0:
192,192,17010,1,8,0:0:0:0:
320,192,17010,1,2,0:0:0:0:
448,192,17146,1,0,0:0:0:0:
64,192,17281,128,4,17416:0:0:0:0:
320,192,17281,1,2,0:0:0:0:
192,192,17416,128,0,17551:0:0:0:0:
320,192,17551,128,0,17686:0:0:0:0:
448,192,17686,128,0,17821:0:0:0:0:
64,192,17821,1,0,0:0:0:50:LR_Kick-bass.wav
192,192,17889,1,0,0:0:0:0:
448,192,17956,1,0,0:0:0:0:
320,192,18024,1,0,0:0:0:0:
192,192,18092,1,0,0:0:0:0:
64,192,18159,1,0,0:0:0:0:
320,192,18227,1,0,0:0:0:0:
448,192,18294,1,0,0:0:0:0:
64,192,18362,1,6,0:0:0:0:
192,192,18362,1,0,0:0:0:70:sukaru_001.wav
192,192,18497,1,0,0:0:0:0:
320,192,18632,1,10,0:0:0:0:
448,192,18632,1,0,0:0:0:70:sukaru_001.wav
320,192,18767,1,0,0:0:0:0:
64,192,18902,1,2,0:0:0:0:
192,192,18902,1,0,0:0:0:70:sukaru_001.wav
320,192,19037,1,0,0:0:0:0:
192,192,19105,1,0,0:0:0:0:
64,192,19173,1,10,0:0:0:0:
448,192,19173,1,0,0:0:0:70:sukaru_001.wav
320,192,19308,1,0,0:0:0:0:
64,192,19443,1,2,0:0:0:0:
448,192,19443,1,0,0:0:0:70:sukaru_001.wav
192,192,19510,1,0,0:0:0:0:
320,192,19578,1,0,0:0:0:0:
64,192,19713,1,10,0:0:0:0:
192,192,19713,1,0,0:0:0:70:sukaru_001.wav
448,192,19848,1,0,0:0:0:0:
64,192,19983,1,2,0:0:0:0:
320,192,19983,1,0,0:0:0:70:sukaru_001.wav
192,192,20119,1,8,0:0:0:0:
320,192,20254,1,10,0:0:0:0:
448,192,20254,1,0,0:0:0:70:sukaru_001.wav
64,192,20389,1,8,0:0:0:0:
192,192,20389,1,0,0:0:0:0:
320,192,20524,1,2,0:0:0:0:
448,192,20524,1,0,0:0:0:0:
64,192,20794,1,14,0:0:0:0:
320,192,20794,1,0,0:0:0:70:sukaru_001.wav
192,192,20929,1,0,0:0:0:0:
320,192,21064,1,2,0:0:0:0:
448,192,21064,1,0,0:0:0:70:sukaru_001.wav
192,192,21200,1,0,0:0:0:0:
320,192,21267,1,0,0:0:0:0:
64,192,21335,1,10,0:0:0:0:
448,192,21335,1,0,0:0:0:70:sukaru_001.wav
192,192,21470,1,0,0:0:0:0:
64,192,21605,1,2,0:0:0:0:
320,192,21605,1,4,0:0:0:0:
448,192,21605,1,0,0:0:0:0:
192,192,21740,1,0,0:0:0:0:
320,192,21875,1,0,0:0:0:70:amenbreak_snare2.wav
448,192,21875,1,0,0:0:0:0:
64,192,22010,1,2,0:0:0:0:
192,192,22010,1,0,0:0:0:0:
448,192,22146,1,0,0:0:0:0:
192,192,22281,1,0,0:0:0:70:amenbreak_snare2.wav
320,192,22281,1,0,0:0:0:0:
64,192,22416,1,2,0:0:0:0:
192,192,22483,1,0,0:0:0:70:amenbreak_snare2.wav
320,192,22551,1,0,0:0:0:70:amenbreak_snare2.wav
448,192,22619,1,0,0:0:0:70:amenbreak_snare2.wav
64,192,22686,128,4,22956:0:0:0:0:
192,192,22686,1,0,0:0:0:50:LR_Kick-bass.wav
320,192,22821,1,0,0:0:0:0:
192,192,22956,1,0,0:0:0:70:amenbreak_snare2.wav
448,192,22956,128,0,23227:0:0:0:0:
64,192,23227,1,2,0:0:0:0:
192,192,23227,1,4,0:0:0:0:
320,192,23294,1,2,0:0:0:0:
448,192,23362,1,2,0:0:0:0:
64,192,23497,1,2,0:0:0:0:
192,192,23497,1,0,0:0:0:0:
320,192,23632,1,2,0:0:0:0:
448,192,23632,1,0,0:0:0:0:
192,192,23700,1,2,0:0:0:0:
64,192,23767,1,6,0:0:0:0:
320,192,23902,1,2,0:0:0:0:
448,192,23902,1,0,0:0:0:0:
64,192,24037,1,2,0:0:0:0:
192,192,24037,1,0,0:0:0:0:
320,192,24105,1,2,0:0:0:0:
448,192,24173,1,2,0:0:0:0:
64,192,24308,1,6,0:0:0:0:
192,192,24375,1,2,0:0:0:0:
320,192,24443,1,2,0:0:0:0:
448,192,24510,1,2,0:0:0:0:
64,192,24578,1,2,0:0:0:0:
192,192,24578,1,0,0:0:0:0:
320,192,24713,1,2,0:0:0:0:
192,192,24848,1,6,0:0:0:0:
320,192,24916,1,2,0:0:0:0:
64,192,24983,1,0,0:0:0:0:
448,192,24983,1,0,0:0:0:0:
192,192,25119,1,2,0:0:0:0:
64,192,25186,1,2,0:0:0:0:
320,192,25254,1,0,0:0:0:0:
448,192,25254,1,0,0:0:0:0:
64,192,25389,1,2,0:0:0:0:
192,192,25389,1,4,0:0:0:0:
320,192,25456,1,2,0:0:0:0:
448,192,25524,1,2,0:0:0:0:
192,192,25592,1,2,0:0:0:0:
64,192,25659,1,6,0:0:0:0:
448,192,25727,1,2,0:0:0:0:
320,192,25794,1,2,0:0:0:0:
192,192,25862,1,2,0:0:0:0:
64,192,25929,128,6,26064:0:0:0:0:
320,192,26064,128,0,26200:0:0:0:0:
448,192,26200,128,0,26335:0:0:0:0:
64,192,26335,128,0,26470:0:0:0:0:
192,192,26470,128,0,26605:0:0:0:0:
320,192,26605,128,0,26740:0:0:0:0:
64,192,26740,1,0,0:0:0:50:LR_Kick-bass.wav
192,192,26740,1,0,0:0:0:0:
64,192,27010,128,2,27281:0:0:0:0:
192,192,27010,1,4,0:0:0:0:
448,192,27010,1,0,0:0:0:0:
320,192,27191,1,0,0:0:0:0:
192,192,27281,1,0,0:0:0:0:
448,192,27281,1,0,0:0:0:0:
64,192,27461,1,0,0:0:0:0:
192,192,27551,1,8,0:0:0:0:
448,192,27551,128,0,27731:0:0:0:0:
320,192,27731,1,0,0:0:0:0:
64,192,27821,1,0,0:0:0:0:
192,192,27821,1,0,0:0:0:0:
320,192,28001,1,0,0:0:0:0:
448,192,28001,128,0,28362:0:0:0:0:
320,192,28362,1,2,0:0:0:0:
192,192,28452,1,0,0:0:0:0:
64,192,28542,128,0,28812:0:0:0:0:
320,192,28632,1,8,0:0:0:0:
448,192,28632,1,0,0:0:0:0:
320,192,28812,1,0,0:0:0:0:
64,192,28902,1,0,0:0:0:0:
192,192,28902,128,0,29083:0:0:0:0:
320,192,29083,1,0,0:0:0:0:
64,192,29173,1,2,0:0:0:0:
448,192,29173,128,0,29443:0:0:0:0:
192,192,29353,1,0,0:0:0:0:
64,192,29443,1,2,0:0:0:0:
320,192,29443,1,0,0:0:0:0:
448,192,29623,1,0,0:0:0:0:
64,192,29713,128,8,29893:0:0:0:0:
320,192,29713,1,0,0:0:0:0:
192,192,29893,1,0,0:0:0:0:
320,192,29983,1,2,0:0:0:0:
448,192,29983,1,0,0:0:0:0:
64,192,30164,128,0,30524:0:0:0:0:
192,192,30164,1,0,0:0:0:0:
192,192,30524,1,2,0:0:0:0:
320,192,30614,1,0,0:0:0:0:
448,192,30704,128,0,30974:0:0:0:0:
64,192,30794,1,8,0:0:0:0:
192,192,30794,1,0,0:0:0:0:
192,192,30974,1,0,0:0:0:0:
320,192,31064,128,0,31245:0:0:0:0:
448,192,31064,1,0,0:0:0:0:
192,192,31245,1,0,0:0:0:0:
64,192,31335,128,2,31605:0:0:0:0:
448,192,31335,1,0,0:0:0:0:
320,192,31515,1,0,0:0:0:0:
192,192,31605,1,0,0:0:0:0:
448,192,31605,1,0,0:0:0:0:
64,192,31785,1,0,0:0:0:0:
192,192,31875,1,8,0:0:0:0:
448,192,31875,128,0,32055:0:0:0:0:
320,192,32055,1,0,0:0:0:0:
64,192,32146,1,0,0:0:0:0:
192,192,32146,1,0,0:0:0:0:
448,192,32326,128,0,32596:0:0:0:0:
320,192,32416,1,0,0:0:0:0:
64,192,32506,1,0,0:0:0:0:
192,192,32596,1,0,0:0:0:0:
320,192,32686,1,2,0:0:0:0:
64,192,32776,1,0,0:0:0:0:
448,192,32866,1,0,0:0:0:0:
192,192,32956,128,8,33137:0:0:0:0:
320,192,33137,1,0,0:0:0:0:
64,192,33227,128,0,33407:0:0:0:0:
192,192,33227,1,0,0:0:0:0:
320,192,33407,1,0,0:0:0:0:
192,192,33497,1,2,0:0:0:0:
448,192,33497,128,0,33767:0:0:0:0:
64,192,33677,1,0,0:0:0:0:
192,192,33767,1,2,0:0:0:0:
320,192,33767,1,0,0:0:0:0:
448,192,33947,1,0,0:0:0:0:
192,192,34037,1,8,0:0:0:0:
320,192,34037,1,0,0:0:0:0:
64,192,34128,1,0,0:0:0:0:
448,192,34218,1,0,0:0:0:0:
320,192,34308,1,0,0:0:0:0:
64,192,34398,1,0,0:0:0:0:
192,192,34488,1,0,0:0:0:0:
320,192,34578,1,0,0:0:0:0:
448,192,34668,1,0,0:0:0:0:
192,192,34758,1,0,0:0:0:0:
320,192,34848,128,0,35119:0:0:0:0:
192,192,35119,1,0,0:0:0:0:
64,192,35209,1,0,0:0:0:0:
320,192,35299,1,0,0:0:0:0:
192,192,35389,128,0,35659:0:0:0:0:
64,192,35659,1,2,0:0:0:0:
320,192,35659,1,4,0:0:0:0:
448,192,35659,1,0,0:0:0:0:
192,192,35794,1,0,0:0:0:0:
320,192,35929,1,0,0:0:0:50:Clap Hand.wav
448,192,35929,1,0,0:0:0:0:
192,192,36064,1,0,0:0:0:0:
320,192,36200,1,0,0:0:0:50:Clap Hand.wav
448,192,36200,1,0,0:0:0:0:
192,192,36335,1,0,0:0:0:0:
320,192,36402,1,0,0:0:0:0:
64,192,36470,1,0,0:0:0:50:Clap Hand.wav
448,192,36470,1,0,0:0:0:0:
192,192,36605,1,0,0:0:0:0:
64,192,36740,1,0,0:0:0:50:Clap Hand.wav
448,192,36740,1,0,0:0:0:0:
320,192,36808,1,0,0:0:0:0:
192,192,36875,1,0,0:0:0:0:
320,192,37010,1,0,0:0:0:50:Clap Hand.wav
448,192,37010,1,0,0:0:0:0:
64,192,37146,1,0,0:0:0:0:
192,192,37281,1,0,0:0:0:50:Clap Hand.wav
448,192,37281,1,0,0:0:0:0:
320,192,37416,1,0,0:0:0:0:
64,192,37551,1,0,0:0:0:50:Clap Hand.wav
448,192,37551,1,0,0:0:0:0:
320,192,37686,1,0,0:0:0:0:
64,192,37821,1,0,0:0:0:50:Clap Hand.wav
192,192,37821,1,0,0:0:0:0:
320,192,37956,1,0,0:0:0:0:
64,192,38092,1,0,0:0:0:50:Clap Hand.wav
192,192,38092,1,0,0:0:0:0:
320,192,38227,1,0,0:0:0:0:
64,192,38362,1,0,0:0:0:50:Clap Hand.wav
192,192,38362,1,0,0:0:0:0:
320,192,38497,1,0,0:0:0:0:
192,192,38564,1,0,0:0:0:0:
64,192,38632,1,0,0:0:0:50:Clap Hand.wav
448,192,38632,1,0,0:0:0:0:
320,192,38767,1,0,0:0:0:0:
64,192,38902,1,4,0:0:0:0:
192,192,38902,128,2,39037:0:0:0:0:
448,192,39037,128,0,39173:0:0:0:50:Clap Hand.wav
64,192,39173,1,0,0:0:0:50:Clap Hand.wav
192,192,39173,128,0,39308:0:0:0:0:
320,192,39308,128,0,39443:0:0:0:50:Clap Hand.wav
64,192,39443,1,0,0:0:0:50:Clap Hand.wav
192,192,39510,1,0,0:0:0:0:
320,192,39578,1,0,0:0:0:50:Clap Hand.wav
448,192,39646,1,0,0:0:0:0:
64,192,39713,1,0,0:0:0:50:Clap Hand.wav
192,192,39713,1,0,0:0:0:0:
64,192,39983,1,4,0:0:0:0:
320,192,39983,1,2,0:0:0:0:
448,192,39983,1,0,0:0:0:0:
192,192,40119,1,0,0:0:0:0:
64,192,40254,1,2,0:0:0:0:
448,192,40254,1,4,0:0:0:0:
320,192,40389,1,0,0:0:0:0:
192,192,40524,1,4,0:0:0:0:
448,192,40524,1,2,0:0:0:0:
320,192,40659,1,0,0:0:0:0:
64,192,40794,1,4,0:0:0:0:
448,192,40794,1,2,0:0:0:0:
192,192,40929,1,0,0:0:0:0:
64,192,41064,1,4,0:0:0:0:
320,192,41064,1,2,0:0:0:0:
192,192,41200,1,0,0:0:0:0:
64,192,41335,1,2,0:0:0:0:
448,192,41335,1,4,0:0:0:0:
320,192,41470,1,0,0:0:0:0:
192,192,41605,1,2,0:0:0:0:
448,192,41605,1,4,0:0:0:0:
320,192,41740,1,0,0:0:0:0:
64,192,41875,1,4,0:0:0:0:
448,192,41875,1,2,0:0:0:0:
192,192,42010,1,0,0:0:0:0:
320,192,42146,1,6,0:0:0:0:
192,192,42213,1,2,0:0:0:0:
64,192,42281,1,0,0:0:0:50:amenbreak_snare2.wav
448,192,42281,1,0,0:0:0:0:
320,192,42416,1,6,0:0:0:0:
448,192,42483,1,2,0:0:0:0:
64,192,42551,1,0,0:0:0:50:amenbreak_snare2.wav
192,192,42551,1,0,0:0:0:0:
320,192,42686,1,6,0:0:0:0:
192,192,42754,1,2,0:0:0:0:
64,192,42821,1,2,0:0:0:0:
320,192,42889,1,2,0:0:0:0:
448,192,42956,1,6,0:0:0:0:
64,192,43024,1,2,0:0:0:0:
192,192,43092,1,2,0:0:0:0:
320,192,43159,1,2,0:0:0:0:
64,192,43227,1,4,0:0:0:0:
448,192,43227,1,2,0:0:0:0:
64,192,44308,128,2,44578:0:0:0:0:
448,192,44308,1,0,0:0:0:0:
192,192,44578,128,0,44848:0:0:0:0:
320,192,44848,1,0,0:0:0:50:Clap Hand.wav
320,192,44983,1,0,0:0:0:0:
320,192,45119,1,0,0:0:0:0:
320,192,45254,1,0,0:0:0:0:
64,192,45389,128,0,45456:0:0:0:0:
192,192,45389,128,0,45456:0:0:0:0:
448,192,45389,128,0,45456:0:0:0:0:
320,192,45524,1,0,0:0:0:0:
64,192,45659,128,0,45727:0:0:0:0:
192,192,45659,128,0,45727:0:0:0:0:
320,192,45794,1,0,0:0:0:0:
64,192,45929,128,0,45997:0:0:0:50:Clap Hand.wav
192,192,45997,1,0,0:0:0:0:
320,192,46064,1,0,0:0:0:0:
448,192,46132,1,0,0:0:0:0:
64,192,46200,1,0,0:0:0:70:sukaru_001.wav
192,192,46200,1,0,0:0:0:0:
64,192,46470,1,2,0:0:0:0:
192,192,46470,1,4,0:0:0:0:
448,192,46470,1,0,0:0:0:0:
320,192,46605,1,0,0:0:0:0:
64,192,46740,1,2,0:0:0:0:
448,192,46740,1,8,0:0:0:0:
192,192,46875,1,0,0:0:0:0:
320,192,47010,1,2,0:0:0:0:
64,192,47078,1,0,0:0:0:0:
320,192,47146,1,0,0:0:0:0:
64,192,47213,1,0,0:0:0:0:
192,192,47281,1,10,0:0:0:0:
448,192,47348,1,0,0:0:0:0:
320,192,47416,1,0,0:0:0:0:
64,192,47483,1,0,0:0:0:0:
192,192,47551,1,2,0:0:0:0:
448,192,47551,1,0,0:0:0:0:
320,192,47686,1,0,0:0:0:0:
64,192,47821,1,2,0:0:0:0:
192,192,47821,1,8,0:0:0:0:
320,192,47956,1,0,0:0:0:0:
64,192,48092,1,2,0:0:0:0:
448,192,48092,1,0,0:0:0:0:
192,192,48227,1,8,0:0:0:0:
64,192,48294,1,0,0:0:0:0:
320,192,48362,1,2,0:0:0:0:
448,192,48362,1,0,0:0:0:0:
192,192,48497,1,8,0:0:0:0:
320,192,48564,1,0,0:0:0:0:
64,192,48632,1,2,0:0:0:0:
448,192,48632,1,4,0:0:0:0:
192,192,48767,1,0,0:0:0:0:
320,192,48902,1,8,0:0:0:0:
448,192,48902,1,2,0:0:0:0:
192,192,49037,1,0,0:0:0:0:
448,192,49173,1,2,0:0:0:0:
320,192,49240,1,0,0:0:0:0:
192,192,49308,1,0,0:0:0:0:
64,192,49375,1,0,0:0:0:0:
320,192,49443,1,10,0:0:0:0:
448,192,49510,1,0,0:0:0:0:
192,192,49578,1,0,0:0:0:0:
64,192,49646,1,0,0:0:0:0:
320,192,49713,1,2,0:0:0:0:
448,192,49713,1,4,0:0:0:0:
192,192,49848,1,8,0:0:0:0:
192,192,49983,1,8,0:0:0:0:
64,192,50119,1,2,0:0:0:0:
448,192,50119,1,0,0:0:0:0:
320,192,50254,1,8,0:0:0:0:
320,192,50389,1,8,0:0:0:0:
320,192,50524,1,2,0:0:0:0:
448,192,50592,1,2,0:0:0:0:
192,192,50659,1,2,0:0:0:0:
64,192,50727,1,2,0:0:0:0:
320,192,50794,1,2,0:0:0:0:
448,192,50794,1,4,0:0:0:0:
192,192,50929,1,0,0:0:0:0:
64,192,51064,1,8,0:0:0:0:
448,192,51064,1,2,0:0:0:0:
192,192,51200,1,0,0:0:0:0:
320,192,51335,1,2,0:0:0:0:
64,192,51402,1,0,0:0:0:0:
192,192,51470,1,0,0:0:0:0:
320,192,51537,1,0,0:0:0:0:
64,192,51605,1,2,0:0:0:0:
448,192,51605,1,8,0:0:0:0:
192,192,51740,1,0,0:0:0:0:
320,192,51875,1,2,0:0:0:0:
448,192,51875,1,0,0:0:0:0:
192,192,52010,1,0,0:0:0:0:
64,192,52146,1,8,0:0:0:0:
448,192,52146,1,2,0:0:0:0:
320,192,52281,1,0,0:0:0:0:
64,192,52416,1,2,0:0:0:0:
192,192,52483,1,0,0:0:0:0:
448,192,52483,1,0,0:0:0:0:
320,192,52551,1,8,0:0:0:0:
64,192,52686,1,2,0:0:0:0:
192,192,52686,1,0,0:0:0:0:
320,192,52821,1,8,0:0:0:0:
448,192,52956,1,2,0:0:0:0:
320,192,53024,1,2,0:0:0:0:
192,192,53092,1,2,0:0:0:0:
64,192,53159,1,2,0:0:0:0:
320,192,53227,1,2,0:0:0:0:
448,192,53227,1,8,0:0:0:0:
64,192,53362,1,2,0:0:0:0:
192,192,53429,1,2,0:0:0:0:
320,192,53497,1,2,0:0:0:0:
448,192,53564,1,2,0:0:0:0:
64,192,53632,1,2,0:0:0:0:
192,192,53632,1,8,0:0:0:0:
320,192,53767,1,2,0:0:0:0:
192,192,53835,1,2,0:0:0:0:
448,192,53902,1,10,0:0:0:0:
320,192,53970,1,0,0:0:0:0:
64,192,54037,1,4,0:0:0:0:
192,192,54037,1,2,0:0:0:0:
320,192,54173,1,0,0:0:0:0:
192,192,54308,1,0,0:0:0:70:amenbreak_snare2.wav
320,192,54375,1,0,0:0:0:0:
64,192,54443,1,2,0:0:0:0:
448,192,54443,1,0,0:0:0:0:
192,192,54578,1,0,0:0:0:0:
320,192,54646,1,0,0:0:0:0:
64,192,54713,1,0,0:0:0:70:amenbreak_snare2.wav
192,192,54781,1,0,0:0:0:0:
448,192,54848,1,2,0:0:0:0:
320,192,54916,1,2,0:0:0:0:
192,192,54983,1,2,0:0:0:0:
64,192,55051,1,2,0:0:0:0:
320,192,55119,1,4,0:0:0:0:
448,192,55119,1,2,0:0:0:0:
192,192,55254,1,0,0:0:0:0:
448,192,55389,1,0,0:0:0:0:
64,192,55524,1,2,0:0:0:0:
192,192,55524,1,0,0:0:0:0:
320,192,55659,1,8,0:0:0:0:
448,192,55659,1,0,0:0:0:0:
64,192,55794,1,0,0:0:0:0:
320,192,55929,1,2,0:0:0:0:
448,192,55929,1,0,0:0:0:0:
320,192,56064,1,8,0:0:0:0:
64,192,56200,1,2,0:0:0:0:
192,192,56200,1,0,0:0:0:0:
320,192,56335,1,8,0:0:0:0:
64,192,56470,1,2,0:0:0:0:
192,192,56470,1,0,0:0:0:0:
320,192,56605,1,2,0:0:0:0:
448,192,56605,1,0,0:0:0:0:
64,192,56740,1,8,0:0:0:0:
192,192,56740,1,0,0:0:0:0:
448,192,56875,1,0,0:0:0:0:
64,192,57010,1,0,0:0:0:50:Clap Hand.wav
320,192,57010,1,0,0:0:0:0:
192,192,57146,1,0,0:0:0:0:
320,192,57281,1,2,0:0:0:0:
448,192,57281,1,4,0:0:0:0:
64,192,57416,1,8,0:0:0:0:
320,192,57551,1,2,0:0:0:0:
448,192,57551,1,0,0:0:0:0:
64,192,57686,1,2,0:0:0:0:
192,192,57686,1,0,0:0:0:0:
320,192,57821,1,8,0:0:0:0:
448,192,57821,1,0,0:0:0:0:
64,192,57956,1,0,0:0:0:0:
192,192,58092,1,0,0:0:0:50:Clap Hand.wav
320,192,58159,1,0,0:0:0:0:
448,192,58227,1,0,0:0:0:50:Clap Hand.wav
64,192,58362,1,0,0:0:0:0:
192,192,58429,1,0,0:0:0:0:
320,192,58497,1,0,0:0:0:0:
448,192,58564,1,0,0:0:0:0:
64,192,58632,1,8,0:0:0:0:
192,192,58632,1,2,0:0:0:0:
448,192,58767,1,0,0:0:0:0:
320,192,58835,1,0,0:0:0:0:
192,192,58902,1,0,0:0:0:0:
64,192,58970,1,0,0:0:0:0:
320,192,59037,1,8,0:0:0:0:
448,192,59037,1,2,0:0:0:0:
64,192,59173,1,2,0:0:0:0:
192,192,59240,1,2,0:0:0:0:
320,192,59308,1,2,0:0:0:0:
448,192,59375,1,2,0:0:0:0:
64,192,59443,1,2,0:0:0:0:
192,192,59510,1,2,0:0:0:0:
448,192,59578,1,2,0:0:0:0:
320,192,59646,1,2,0:0:0:0:
64,192,59713,1,4,0:0:0:0:
192,192,59713,1,2,0:0:0:0:
320,192,59848,1,2,0:0:0:0:
448,192,59983,1,2,0:0:0:0:
320,192,60051,1,2,0:0:0:0:
64,192,60119,1,2,0:0:0:0:
192,192,60186,1,2,0:0:0:0:
320,192,60254,1,2,0:0:0:0:
448,192,60254,1,4,0:0:0:0:
192,192,60389,1,2,0:0:0:0:
64,192,60524,1,6,0:0:0:0:
192,192,60592,1,2,0:0:0:0:
320,192,60659,1,2,0:0:0:0:
448,192,60659,1,0,0:0:0:0:
192,192,60794,1,6,0:0:0:0:
320,192,60862,1,2,0:0:0:0:
64,192,60929,1,2,0:0:0:0:
448,192,60929,1,0,0:0:0:0:
192,192,61064,1,6,0:0:0:0:
64,192,61132,1,2,0:0:0:0:
320,192,61200,1,2,0:0:0:0:
448,192,61267,1,2,0:0:0:0:
192,192,61335,1,6,0:0:0:0:
64,192,61402,1,2,0:0:0:0:
320,192,61470,1,2,0:0:0:0:
448,192,61537,1,2,0:0:0:0:
64,192,61605,1,2,0:0:0:0:
192,192,61605,1,4,0:0:0:0:
320,192,61740,1,0,0:0:0:0:
64,192,61875,1,0,0:0:0:50:Clap Hand.wav
448,192,61875,1,0,0:0:0:0:
192,192,62010,1,0,0:0:0:0:
320,192,62146,1,0,0:0:0:50:Clap Hand.wav
448,192,62146,1,0,0:0:0:0:
192,192,62281,1,0,0:0:0:50:Clap Hand.wav
320,192,62348,1,0,0:0:0:50:Clap Hand.wav
64,192,62416,1,0,0:0:0:50:Clap Hand.wav
192,192,62483,1,0,0:0:0:0:
320,192,62551,1,0,0:0:0:50:Clap Hand.wav
448,192,62551,1,0,0:0:0:0:
64,192,62686,1,0,0:0:0:70:LR4_KickGBDV.wav
192,192,62686,1,0,0:0:0:0:
320,192,62821,1,0,0:0:0:0:
64,192,62956,1,0,0:0:0:70:LR4_KickGBDV.wav
192,192,62956,1,0,0:0:0:0:
448,192,63092,1,0,0:0:0:0:
64,192,63227,1,0,0:0:0:70:LR4_KickGBDV.wav
192,192,63294,1,0,0:0:0:0:
448,192,63362,1,0,0:0:0:0:
320,192,63429,1,0,0:0:0:0:
64,192,63497,1,8,0:0:0:0:
192,192,63497,1,0,0:0:0:0:
320,192,63632,1,0,0:0:0:0:
64,192,63767,1,4,0:0:0:0:
192,192,63767,1,2,0:0:0:0:
448,192,63767,1,0,0:0:0:0:
320,192,63902,1,0,0:0:0:0:
64,192,64037,1,8,0:0:0:0:
448,192,64037,1,2,0:0:0:0:
192,192,64173,1,0,0:0:0:0:
320,192,64308,1,2,0:0:0:0:
448,192,64308,1,0,0:0:0:0:
192,192,64443,1,0,0:0:0:0:
448,192,64578,1,10,0:0:0:0:
320,192,64646,1,0,0:0:0:0:
192,192,64713,1,0,0:0:0:0:
64,192,64781,1,0,0:0:0:0:
320,192,64848,1,2,0:0:0:0:
448,192,64848,1,0,0:0:0:0:
192,192,64983,1,0,0:0:0:0:
64,192,65051,1,0,0:0:0:0:
320,192,65119,1,8,0:0:0:0:
448,192,65119,1,2,0:0:0:0:
192,192,65254,1,0,0:0:0:0:
64,192,65389,1,2,0:0:0:0:
448,192,65389,1,0,0:0:0:0:
320,192,65524,1,8,0:0:0:0:
64,192,65659,1,2,0:0:0:0:
320,192,65727,1,0,0:0:0:0:
64,192,65794,1,8,0:0:0:0:
320,192,65862,1,0,0:0:0:0:
448,192,65929,1,6,0:0:0:0:
64,192,65997,1,0,0:0:0:0:
320,192,66064,1,0,0:0:0:0:
192,192,66132,1,0,0:0:0:0:
64,192,66200,1,2,0:0:0:0:
448,192,66200,1,8,0:0:0:0:
320,192,66335,1,0,0:0:0:0:
192,192,66470,1,2,0:0:0:0:
320,192,66537,1,0,0:0:0:0:
64,192,66605,1,0,0:0:0:0:
448,192,66673,1,0,0:0:0:0:
320,192,66740,1,10,0:0:0:0:
64,192,66808,1,2,0:0:0:0:
192,192,66875,1,2,0:0:0:0:
320,192,66943,1,2,0:0:0:0:
64,192,67010,128,4,67146:0:0:0:0:
448,192,67010,128,2,67146:0:0:0:0:
192,192,67281,128,0,67416:0:0:0:0:
320,192,67281,128,0,67416:0:0:0:0:
448,192,67551,1,0,0:0:0:0:
320,192,67619,1,0,0:0:0:0:
192,192,67686,1,0,0:0:0:0:
64,192,67754,1,0,0:0:0:0:
448,192,67821,1,0,0:0:0:70:Clap Hand.wav
320,192,67889,1,0,0:0:0:0:
64,192,67956,1,0,0:0:0:0:
192,192,68024,1,0,0:0:0:0:
320,192,68092,1,4,0:0:0:0:
448,192,68092,1,2,0:0:0:0:
192,192,68227,1,0,0:0:0:0:
64,192,68362,1,2,0:0:0:0:
448,192,68362,1,8,0:0:0:0:
320,192,68497,1,0,0:0:0:0:
64,192,68632,1,2,0:0:0:0:
192,192,68632,1,0,0:0:0:0:
320,192,68767,1,0,0:0:0:0:
448,192,68835,1,0,0:0:0:0:
64,192,68902,1,10,0:0:0:0:
192,192,68970,1,0,0:0:0:0:
320,192,69037,1,0,0:0:0:0:
448,192,69105,1,0,0:0:0:0:
64,192,69173,1,2,0:0:0:0:
192,192,69173,1,0,0:0:0:0:
320,192,69308,1,0,0:0:0:0:
448,192,69375,1,0,0:0:0:0:
64,192,69443,1,2,0:0:0:0:
192,192,69443,1,8,0:0:0:0:
320,192,69578,1,0,0:0:0:0:
64,192,69713,1,2,0:0:0:0:
448,192,69713,1,0,0:0:0:0:
192,192,69848,1,0,0:0:0:0:
448,192,69983,1,10,0:0:0:0:
192,192,70051,1,0,0:0:0:0:
448,192,70119,1,0,0:0:0:0:
192,192,70186,1,0,0:0:0:0:
64,192,70254,1,6,0:0:0:0:
448,192,70321,1,0,0:0:0:0:
192,192,70389,1,0,0:0:0:0:
320,192,70456,1,0,0:0:0:0:
64,192,70524,1,2,0:0:0:0:
448,192,70524,1,8,0:0:0:0:
192,192,70659,1,0,0:0:0:0:
320,192,70794,1,2,0:0:0:0:
192,192,70862,1,0,0:0:0:0:
448,192,70929,1,0,0:0:0:0:
320,192,70997,1,0,0:0:0:0:
64,192,71064,1,10,0:0:0:0:
448,192,71132,1,2,0:0:0:0:
320,192,71200,1,2,0:0:0:0:
192,192,71267,1,2,0:0:0:0:
64,192,71335,128,4,71470:0:0:0:0:
448,192,71335,128,2,71470:0:0:0:0:
192,192,71605,128,0,71740:0:0:0:70:amenbreak_snare2.wav
320,192,71605,128,0,71740:0:0:0:0:
64,192,71875,128,0,72010:0:0:0:0:
448,192,71875,128,0,72010:0:0:0:0:
192,192,72010,1,0,0:0:0:70:amenbreak_snare2.wav
320,192,72010,1,0,0:0:0:0:
64,192,72146,1,0,0:0:0:70:amenbreak_snare2.wav
192,192,72213,1,0,0:0:0:70:amenbreak_snare2.wav
320,192,72281,1,0,0:0:0:70:amenbreak_snare2.wav
448,192,72348,1,0,0:0:0:70:amenbreak_snare2.wav
64,192,72416,128,2,72551:0:0:0:0:
192,192,72416,128,4,72551:0:0:0:0:
320,192,72551,1,8,0:0:0:0:
448,192,72686,1,2,0:0:0:0:
320,192,72754,1,2,0:0:0:0:
192,192,72821,1,8,0:0:0:0:
64,192,72889,1,0,0:0:0:0:
320,192,72956,128,2,73092:0:0:0:0:
448,192,72956,128,4,73092:0:0:0:0:
192,192,73092,1,8,0:0:0:0:
64,192,73227,1,2,0:0:0:0:
192,192,73294,1,2,0:0:0:0:
320,192,73362,1,8,0:0:0:0:
448,192,73429,1,0,0:0:0:0:
192,192,73497,128,4,73632:0:0:0:0:
320,192,73497,128,2,73632:0:0:0:0:
64,192,73632,1,8,0:0:0:0:
448,192,73767,1,2,0:0:0:0:
192,192,73835,1,2,0:0:0:0:
64,192,73902,1,8,0:0:0:0:
320,192,73970,1,0,0:0:0:0:
64,192,74037,128,2,74173:0:0:0:0:
192,192,74037,128,4,74173:0:0:0:0:
448,192,74173,1,8,0:0:0:0:
64,192,74308,1,2,0:0:0:0:
192,192,74375,1,2,0:0:0:0:
448,192,74443,1,8,0:0:0:0:
320,192,74510,1,0,0:0:0:0:
64,192,74578,1,14,0:0:0:0:
192,192,74646,1,2,0:0:0:0:
320,192,74713,1,2,0:0:0:0:
448,192,74713,1,0,0:0:0:0:
192,192,74848,1,14,0:0:0:0:
320,192,74916,1,2,0:0:0:0:
64,192,74983,1,2,0:0:0:0:
448,192,74983,1,0,0:0:0:0:
320,192,75119,1,14,0:0:0:0:
192,192,75186,1,2,0:0:0:0:
64,192,75254,1,2,0:0:0:0:
320,192,75321,1,14,0:0:0:0:
448,192,75389,1,2,0:0:0:0:
64,192,75456,1,2,0:0:0:0:
192,192,75524,1,14,0:0:0:0:
320,192,75592,1,2,0:0:0:0:
64,192,75659,1,0,0:0:0:70:sukaru_001.wav
448,192,75659,1,0,0:0:0:0:
192,192,75794,1,0,0:0:0:0:
320,192,75929,1,0,0:0:0:0:
448,192,75929,1,0,0:0:0:0:
192,192,76064,1,0,0:0:0:0:
448,192,76200,1,0,0:0:0:0:
320,192,76267,1,0,0:0:0:0:
192,192,76335,1,0,0:0:0:0:
64,192,76402,1,0,0:0:0:0:
448,192,76470,1,8,0:0:0:0:
320,192,76537,1,8,0:0:0:0:
64,192,76605,1,8,0:0:0:0:
192,192,76673,1,8,0:0:0:0:
320,192,76740,1,6,0:0:0:0:
448,192,76740,1,8,0:0:0:0:
64,192,76943,1,6,0:0:0:0:
192,192,76943,1,8,0:0:0:0:
320,192,77146,1,12,0:0:0:0:
448,192,77146,1,2,0:0:0:0:
64,192,77348,1,6,0:0:0:0:
192,192,77348,1,8,0:0:0:0:
64,192,77551,1,14,0:0:0:0:
192,192,77619,1,8,0:0:0:0:
320,192,77686,1,8,0:0:0:0:
448,192,77754,1,8,0:0:0:0:
64,192,77821,1,12,0:0:0:0:
192,192,77821,1,2,0:0:0:0:
320,192,78024,1,12,0:0:0:0:
448,192,78024,1,2,0:0:0:0:
64,192,78227,1,6,0:0:0:0:
192,192,78227,1,8,0:0:0:0:
320,192,78429,1,12,0:0:0:0:
448,192,78429,1,2,0:0:0:0:
64,192,78632,1,14,0:0:0:0:
192,192,78700,1,8,0:0:0:0:
320,192,78767,1,8,0:0:0:0:
448,192,78835,1,8,0:0:0:0:
64,192,78902,1,6,0:0:0:0:
192,192,78970,1,2,0:0:0:0:
448,192,79037,1,2,0:0:0:0:
320,192,79105,1,2,0:0:0:0:
64,192,79173,1,2,0:0:0:0:
192,192,79173,1,0,0:0:0:0:
320,192,79308,1,2,0:0:0:0:
448,192,79443,1,2,0:0:0:0:
320,192,79510,1,2,0:0:0:0:
192,192,79578,1,2,0:0:0:0:
64,192,79646,1,2,0:0:0:0:
448,192,79713,1,2,0:0:0:0:
320,192,79781,1,2,0:0:0:0:
64,192,79848,1,2,0:0:0:0:
192,192,79916,1,2,0:0:0:0:
320,192,79983,1,2,0:0:0:0:
448,192,79983,1,0,0:0:0:0:
192,192,80119,1,0,0:0:0:0:
192,192,80254,1,0,0:0:0:0:
320,192,80389,1,0,0:0:0:0:
64,192,80524,1,0,0:0:0:0:
448,192,80659,1,0,0:0:0:0:
64,192,80727,1,0,0:0:0:0:
192,192,80794,1,0,0:0:0:0:
320,192,80862,1,0,0:0:0:0:
64,192,80929,1,0,0:0:0:0:
448,192,80997,1,0,0:0:0:0:
64,192,81064,128,4,81200:0:0:0:0:
320,192,81064,1,0,0:0:0:0:
448,192,81200,1,0,0:0:0:0:
192,192,81335,128,0,81470:0:0:0:0:
64,192,81470,1,0,0:0:0:0:
448,192,81605,128,0,81740:0:0:0:0:
192,192,81740,1,0,0:0:0:0:
64,192,81808,1,0,0:0:0:0:
320,192,81875,128,0,82010:0:0:0:0:
192,192,82010,128,0,82146:0:0:0:0:
64,192,82146,1,0,0:0:0:0:
320,192,82281,1,0,0:0:0:0:
192,192,82348,1,0,0:0:0:0:
448,192,82416,128,0,82551:0:0:0:0:
192,192,82551,1,0,0:0:0:0:
320,192,82619,1,0,0:0:0:0:
64,192,82686,128,0,82821:0:0:0:0:
448,192,82821,1,0,0:0:0:0:
320,192,82866,1,0,0:0:0:0:
192,192,82911,1,0,0:0:0:0:
64,192,82956,128,0,83092:0:0:0:0:
192,192,83092,128,0,83227:0:0:0:0:
448,192,83227,128,0,83362:0:0:0:0:
64,192,83362,1,0,0:0:0:0:
320,192,83497,128,0,83632:0:0:0:0:
192,192,83632,1,0,0:0:0:0:
64,192,83767,128,0,83902:0:0:0:0:
320,192,83902,1,0,0:0:0:0:
448,192,83970,1,0,0:0:0:0:
192,192,84037,128,0,84173:0:0:0:0:
320,192,84173,128,0,84308:0:0:0:0:
448,192,84308,1,0,0:0:0:0:
192,192,84443,1,0,0:0:0:0:
320,192,84510,1,0,0:0:0:0:
64,192,84578,128,0,84713:0:0:0:0:
320,192,84713,1,0,0:0:0:0:
192,192,84781,1,0,0:0:0:0:
448,192,84848,128,0,84983:0:0:0:0:
64,192,84983,1,0,0:0:0:0:
192,192,85051,1,0,0:0:0:0:
320,192,85119,128,0,85254:0:0:0:0:
192,192,85254,128,0,85389:0:0:0:0:
64,192,85389,128,2,85524:0:0:0:0:
448,192,85524,1,0,0:0:0:0:
192,192,85659,128,0,85794:0:0:0:0:
64,192,85794,1,0,0:0:0:0:
448,192,85929,128,8,86064:0:0:0:0:
192,192,86064,1,0,0:0:0:0:
64,192,86132,1,0,0:0:0:0:
320,192,86200,128,0,86335:0:0:0:0:
192,192,86335,128,0,86470:0:0:0:0:
64,192,86470,1,2,0:0:0:0:
320,192,86605,1,0,0:0:0:0:
192,192,86673,1,0,0:0:0:0:
448,192,86740,128,0,86875:0:0:0:0:
192,192,86875,1,0,0:0:0:0:
320,192,86943,1,0,0:0:0:0:
64,192,87010,128,8,87146:0:0:0:0:
448,192,87146,1,0,0:0:0:0:
320,192,87191,1,0,0:0:0:0:
192,192,87236,1,0,0:0:0:0:
64,192,87281,128,0,87416:0:0:0:0:
192,192,87416,128,0,87551:0:0:0:0:
448,192,87551,128,2,87686:0:0:0:0:
64,192,87686,1,0,0:0:0:0:
192,192,87821,128,0,87956:0:0:0:0:
320,192,87956,1,0,0:0:0:0:
64,192,88092,128,8,88227:0:0:0:0:
320,192,88227,1,0,0:0:0:0:
448,192,88294,1,0,0:0:0:0:
192,192,88362,128,0,88497:0:0:0:0:
64,192,88497,128,8,88632:0:0:0:0:
192,192,88632,128,2,88700:0:0:0:0:
320,192,88632,128,0,88700:0:0:0:0:
448,192,88632,128,0,88700:0:0:0:0:
64,192,88767,1,0,0:0:0:0:
320,192,88902,128,0,88970:0:0:0:0:
448,192,88902,128,0,88970:0:0:0:0:
192,192,89037,1,0,0:0:0:0:
64,192,89173,1,0,0:0:0:0:
448,192,89173,128,0,89240:0:0:0:0:
320,192,89308,1,0,0:0:0:0:
192,192,89375,1,0,0:0:0:0:
64,192,89443,1,0,0:0:0:0:
448,192,89443,1,0,0:0:0:0:
320,192,89578,1,0,0:0:0:0:
64,192,89713,1,4,0:0:0:0:
192,192,89713,1,0,0:0:0:0:
448,192,89713,1,0,0:0:0:0:
320,192,89848,1,0,0:0:0:0:
64,192,89983,1,0,0:0:0:50:Clap Hand.wav
192,192,89983,1,0,0:0:0:0:
320,192,90119,1,0,0:0:0:0:
64,192,90254,1,0,0:0:0:50:Clap Hand.wav
192,192,90254,1,0,0:0:0:0:
320,192,90389,1,0,0:0:0:0:
192,192,90456,1,0,0:0:0:0:
64,192,90524,1,0,0:0:0:50:Clap Hand.wav
448,192,90524,1,0,0:0:0:0:
192,192,90659,1,0,0:0:0:0:
320,192,90794,1,0,0:0:0:50:Clap Hand.wav
448,192,90794,1,0,0:0:0:0:
192,192,90929,1,0,0:0:0:0:
320,192,91064,1,0,0:0:0:50:Clap Hand.wav
448,192,91064,1,0,0:0:0:0:
192,192,91200,1,0,0:0:0:0:
320,192,91335,1,2,0:0:0:0:
448,192,91335,1,0,0:0:0:0:
192,192,91470,1,0,0:0:0:0:
320,192,91537,1,0,0:0:0:0:
64,192,91605,1,2,0:0:0:0:
448,192,91605,1,0,0:0:0:0:
320,192,91740,1,0,0:0:0:0:
64,192,91875,1,2,0:0:0:0:
192,192,91875,1,0,0:0:0:0:
320,192,92010,1,0,0:0:0:0:
64,192,92146,1,2,0:0:0:0:
192,192,92146,1,0,0:0:0:0:
320,192,92281,1,0,0:0:0:0:
64,192,92416,1,2,0:0:0:0:
192,192,92416,1,0,0:0:0:0:
320,192,92551,1,0,0:0:0:0:
192,192,92619,1,0,0:0:0:0:
64,192,92686,1,2,0:0:0:0:
448,192,92686,1,0,0:0:0:0:
320,192,92821,1,0,0:0:0:0:
64,192,92956,1,2,0:0:0:0:
448,192,92956,1,0,0:0:0:0:
192,192,93092,1,0,0:0:0:0:
320,192,93227,1,0,0:0:0:0:
192,192,93362,1,0,0:0:0:0:
320,192,93429,1,0,0:0:0:0:
64,192,93497,1,0,0:0:0:0:
448,192,93497,1,0,0:0:0:0:
320,192,93632,1,0,0:0:0:0:
64,192,93767,1,0,0:0:0:0:
192,192,93767,1,0,0:0:0:0:
64,192,94037,1,4,0:0:0:0:
320,192,94037,1,2,0:0:0:0:
448,192,94037,1,0,0:0:0:0:
320,192,94173,1,0,0:0:0:0:
64,192,94308,1,2,0:0:0:0:
192,192,94308,1,0,0:0:0:0:
192,192,94443,1,0,0:0:0:0:
320,192,94578,1,2,0:0:0:0:
448,192,94578,1,0,0:0:0:0:
192,192,94713,1,0,0:0:0:0:
320,192,94781,1,0,0:0:0:0:
64,192,94848,1,2,0:0:0:0:
448,192,94848,1,0,0:0:0:0:
192,192,94983,1,0,0:0:0:0:
320,192,95119,1,6,0:0:0:0:
192,192,95186,1,2,0:0:0:0:
64,192,95254,1,0,0:0:0:50:amenbreak_snare2.wav
448,192,95254,1,0,0:0:0:0:
320,192,95389,1,6,0:0:0:0:
448,192,95456,1,2,0:0:0:0:
64,192,95524,1,0,0:0:0:50:amenbreak_snare2.wav
192,192,95524,1,0,0:0:0:0:
320,192,95659,1,6,0:0:0:0:
192,192,95727,1,2,0:0:0:0:
64,192,95794,1,2,0:0:0:0:
320,192,95862,1,2,0:0:0:0:
448,192,95929,1,6,0:0:0:0:
64,192,95997,1,2,0:0:0:0:
192,192,96064,1,2,0:0:0:0:
320,192,96132,1,2,0:0:0:0:
64,192,96200,128,2,96335:0:0:0:0:
448,192,96200,1,0,0:0:0:0:
320,192,96335,1,0,0:0:0:0:
448,192,96470,128,0,96605:0:0:0:0:
192,192,96605,1,0,0:0:0:0:
64,192,96740,128,0,96875:0:0:0:0:
320,192,96875,1,0,0:0:0:0:
192,192,96943,1,0,0:0:0:0:
448,192,97010,128,0,97146:0:0:0:0:
320,192,97146,128,0,97281:0:0:0:0:
64,192,97281,128,0,97416:0:0:0:70:LR4_KickGBDV.wav
192,192,97281,128,0,97416:0:0:0:0:
448,192,97416,1,0,0:0:0:0:
192,192,97551,128,0,97686:0:0:0:70:LR4_KickGBDV.wav
320,192,97551,128,0,97686:0:0:0:0:
64,192,97686,1,0,0:0:0:0:
448,192,97821,1,0,0:0:0:70:LR4_KickGBDV.wav
320,192,97889,1,0,0:0:0:0:
192,192,97956,1,0,0:0:0:0:
64,192,98024,1,0,0:0:0:0:
320,192,98092,1,8,0:0:0:0:
448,192,98092,1,0,0:0:0:0:
192,192,98227,1,0,0:0:0:0:
64,192,98362,1,4,0:0:0:0:
320,192,98362,1,2,0:0:0:0:
448,192,98362,1,0,0:0:0:0:
192,192,98497,1,0,0:0:0:0:
320,192,98632,1,8,0:0:0:0:
448,192,98632,1,2,0:0:0:0:
192,192,98767,1,0,0:0:0:0:
320,192,98902,1,2,0:0:0:0:
448,192,98902,1,0,0:0:0:0:
192,192,99037,1,0,0:0:0:0:
320,192,99105,1,0,0:0:0:0:
64,192,99173,1,2,0:0:0:0:
448,192,99173,1,8,0:0:0:0:
192,192,99240,1,0,0:0:0:0:
320,192,99308,1,0,0:0:0:0:
64,192,99443,1,2,0:0:0:0:
192,192,99443,1,0,0:0:0:0:
320,192,99578,1,0,0:0:0:0:
192,192,99646,1,0,0:0:0:0:
64,192,99713,1,8,0:0:0:0:
448,192,99713,1,2,0:0:0:0:
192,192,99848,1,0,0:0:0:0:
64,192,99916,1,0,0:0:0:0:
320,192,99983,1,2,0:0:0:0:
448,192,99983,1,0,0:0:0:0:
192,192,100119,1,0,0:0:0:0:
320,192,100186,1,0,0:0:0:0:
64,192,100254,1,2,0:0:0:0:
448,192,100254,1,8,0:0:0:0:
320,192,100389,1,0,0:0:0:0:
64,192,100524,1,2,0:0:0:0:
192,192,100524,1,4,0:0:0:0:
320,192,100659,1,0,0:0:0:0:
64,192,100794,1,2,0:0:0:0:
192,192,100794,1,8,0:0:0:0:
320,192,100929,1,0,0:0:0:0:
64,192,101064,1,2,0:0:0:0:
192,192,101064,1,0,0:0:0:0:
320,192,101200,1,0,0:0:0:0:
192,192,101267,1,0,0:0:0:0:
64,192,101335,1,8,0:0:0:0:
448,192,101335,1,2,0:0:0:0:
320,192,101402,1,0,0:0:0:0:
192,192,101470,1,0,0:0:0:0:
320,192,101605,1,4,0:0:0:0:
448,192,101605,1,2,0:0:0:0:
192,192,101740,1,8,0:0:0:0:
320,192,101808,1,0,0:0:0:0:
64,192,101875,1,2,0:0:0:0:
448,192,101875,1,0,0:0:0:0:
320,192,102010,1,8,0:0:0:0:
448,192,102078,1,0,0:0:0:0:
64,192,102146,1,2,0:0:0:0:
192,192,102146,1,0,0:0:0:0:
320,192,102281,1,8,0:0:0:0:
192,192,102348,1,0,0:0:0:0:
64,192,102416,1,2,0:0:0:0:
448,192,102416,1,8,0:0:0:0:
192,192,102551,1,0,0:0:0:0:
64,192,102686,1,2,0:0:0:0:
320,192,102686,1,4,0:0:0:0:
448,192,102686,1,8,0:0:0:0:
320,192,102821,1,0,0:0:0:0:
64,192,102956,1,2,0:0:0:0:
192,192,102956,1,8,0:0:0:0:
192,192,103092,1,0,0:0:0:0:
320,192,103227,1,2,0:0:0:0:
448,192,103227,1,8,0:0:0:0:
192,192,103362,1,0,0:0:0:0:
320,192,103429,1,0,0:0:0:0:
64,192,103497,1,8,0:0:0:0:
448,192,103497,1,2,0:0:0:0:
192,192,103564,1,0,0:0:0:0:
320,192,103632,1,8,0:0:0:0:
64,192,103767,1,2,0:0:0:0:
192,192,103767,1,8,0:0:0:0:
448,192,103767,1,0,0:0:0:0:
320,192,103902,1,0,0:0:0:0:
192,192,103970,1,0,0:0:0:0:
64,192,104037,1,2,0:0:0:0:
448,192,104037,1,8,0:0:0:0:
192,192,104173,1,0,0:0:0:0:
64,192,104240,1,0,0:0:0:0:
320,192,104308,1,2,0:0:0:0:
448,192,104308,1,8,0:0:0:0:
192,192,104443,1,0,0:0:0:0:
320,192,104510,1,0,0:0:0:0:
64,192,104578,1,2,0:0:0:0:
448,192,104578,1,8,0:0:0:0:
320,192,104713,1,8,0:0:0:0:
64,192,104848,1,6,0:0:0:0:
448,192,104848,1,8,0:0:0:0:
192,192,104916,1,8,0:0:0:0:
320,192,104983,1,8,0:0:0:0:
448,192,105051,1,8,0:0:0:0:
64,192,105119,1,10,0:0:0:0:
192,192,105186,1,8,0:0:0:0:
448,192,105254,1,8,0:0:0:0:
320,192,105321,1,8,0:0:0:0:
64,192,105389,1,2,0:0:0:0:
192,192,105389,1,8,0:0:0:0:
320,192,105524,1,8,0:0:0:0:
192,192,105592,1,8,0:0:0:0:
448,192,105659,1,10,0:0:0:0:
320,192,105727,1,8,0:0:0:0:
192,192,105794,1,8,0:0:0:0:
64,192,105862,1,8,0:0:0:0:
320,192,105929,1,4,0:0:0:0:
448,192,105929,1,2,0:0:0:0:
192,192,106064,1,0,0:0:0:0:
320,192,106132,1,0,0:0:0:0:
64,192,106200,1,0,0:0:0:70:amenbreak_snare2.wav
448,192,106200,1,0,0:0:0:0:
320,192,106335,1,0,0:0:0:0:
64,192,106470,1,0,0:0:0:70:amenbreak_snare2.wav
192,192,106537,1,0,0:0:0:0:
320,192,106605,1,0,0:0:0:0:
448,192,106673,1,0,0:0:0:0:
64,192,106740,1,0,0:0:0:70:amenbreak_snare2.wav
192,192,106740,1,0,0:0:0:0:
320,192,106875,1,0,0:0:0:0:
64,192,107010,1,4,0:0:0:0:
192,192,107010,1,2,0:0:0:0:
448,192,107010,1,0,0:0:0:0:
320,192,107146,1,0,0:0:0:0:
64,192,107281,1,0,0:0:0:0:
320,192,107416,1,2,0:0:0:0:
448,192,107416,1,0,0:0:0:0:
64,192,107551,1,8,0:0:0:0:
192,192,107551,1,0,0:0:0:0:
448,192,107686,1,0,0:0:0:0:
64,192,107821,1,2,0:0:0:0:
192,192,107821,1,0,0:0:0:0:
192,192,107956,1,8,0:0:0:0:
320,192,108092,1,2,0:0:0:0:
448,192,108092,1,0,0:0:0:0:
192,192,108227,1,8,0:0:0:0:
320,192,108362,1,2,0:0:0:0:
448,192,108362,1,0,0:0:0:0:
64,192,108497,1,2,0:0:0:0:
192,192,108497,1,0,0:0:0:0:
320,192,108632,1,8,0:0:0:0:
448,192,108632,1,0,0:0:0:0:
64,192,108767,1,0,0:0:0:0:
192,192,108902,1,0,0:0:0:50:Clap Hand.wav
448,192,108902,1,0,0:0:0:0:
320,192,109037,1,0,0:0:0:0:
64,192,109173,1,2,0:0:0:0:
192,192,109173,1,4,0:0:0:0:
448,192,109308,1,8,0:0:0:0:
64,192,109443,1,2,0:0:0:0:
192,192,109443,1,0,0:0:0:0:
320,192,109578,1,2,0:0:0:0:
448,192,109578,1,0,0:0:0:0:
64,192,109713,1,8,0:0:0:0:
192,192,109713,1,0,0:0:0:0:
448,192,109848,1,0,0:0:0:0:
320,192,109983,1,0,0:0:0:50:Clap Hand.wav
192,192,110051,1,0,0:0:0:0:
64,192,110119,1,0,0:0:0:50:Clap Hand.wav
448,192,110254,1,0,0:0:0:0:
64,192,110389,1,0,0:0:0:0:
192,192,110434,1,0,0:0:0:0:
320,192,110479,1,0,0:0:0:0:
448,192,110524,1,0,0:0:0:0:
192,192,110659,1,0,0:0:0:0:
64,192,110727,1,0,0:0:0:0:
320,192,110794,1,0,0:0:0:0:
448,192,110862,1,0,0:0:0:0:
192,192,110929,1,0,0:0:0:0:
64,192,110997,1,0,0:0:0:0:
320,192,111064,1,0,0:0:0:0:
448,192,111064,1,0,0:0:0:0:
192,192,111200,1,0,0:0:0:0:
448,192,111335,1,6,0:0:0:0:
320,192,111402,1,2,0:0:0:0:
64,192,111470,1,2,0:0:0:0:
192,192,111537,1,2,0:0:0:0:
320,192,111605,1,2,0:0:0:0:
448,192,111605,1,4,0:0:0:0:
192,192,111740,1,2,0:0:0:0:
64,192,111875,1,6,0:0:0:0:
192,192,111943,1,2,0:0:0:0:
448,192,112010,1,2,0:0:0:0:
320,192,112078,1,2,0:0:0:0:
64,192,112146,1,2,0:0:0:0:
192,192,112146,1,4,0:0:0:0:
320,192,112281,1,2,0:0:0:0:
448,192,112416,1,6,0:0:0:0:
320,192,112483,1,2,0:0:0:0:
64,192,112551,1,2,0:0:0:0:
192,192,112551,1,0,0:0:0:0:
320,192,112686,1,6,0:0:0:0:
192,192,112754,1,2,0:0:0:0:
64,192,112821,1,2,0:0:0:0:
448,192,112821,1,0,0:0:0:0:
320,192,112956,1,6,0:0:0:0:
448,192,113024,1,2,0:0:0:0:
192,192,113092,1,2,0:0:0:0:
64,192,113159,1,2,0:0:0:0:
320,192,113227,1,6,0:0:0:0:
448,192,113294,1,2,0:0:0:0:
192,192,113362,1,2,0:0:0:0:
64,192,113429,1,2,0:0:0:0:
320,192,113497,1,2,0:0:0:0:
448,192,113497,1,4,0:0:0:0:
192,192,113632,1,0,0:0:0:0:
64,192,113767,1,0,0:0:0:50:Clap Hand.wav
448,192,113767,1,0,0:0:0:0:
320,192,113902,1,0,0:0:0:0:
64,192,114037,1,0,0:0:0:50:Clap Hand.wav
192,192,114037,1,0,0:0:0:0:
320,192,114173,1,0,0:0:0:50:Clap Hand.wav
192,192,114240,1,0,0:0:0:50:Clap Hand.wav
448,192,114308,1,0,0:0:0:50:Clap Hand.wav
320,192,114375,1,0,0:0:0:0:
64,192,114443,1,0,0:0:0:50:Clap Hand.wav
192,192,114443,1,0,0:0:0:0:
64,192,114578,1,0,0:0:0:70:LR4_KickGBDV.wav
320,192,114578,1,0,0:0:0:0:
448,192,114578,1,0,0:0:0:0:
192,192,114713,1,0,0:0:0:0:
320,192,114848,1,0,0:0:0:0:
448,192,114983,1,0,0:0:0:0:
64,192,115119,1,0,0:0:0:0:
192,192,115254,1,0,0:0:0:0:
320,192,115389,128,0,115659:0:0:0:0:
64,192,115659,1,6,0:0:0:0:
192,192,115727,1,2,0:0:0:0:
320,192,115794,1,2,0:0:0:0:
448,192,115862,1,2,0:0:0:0:
64,192,115929,1,2,0:0:0:0:
192,192,115997,1,2,0:0:0:0:
448,192,116064,1,2,0:0:0:0:
320,192,116132,1,2,0:0:0:0:
64,192,116200,1,2,0:0:0:0:
192,192,116200,1,0,0:0:0:0:
320,192,116335,1,2,0:0:0:0:
448,192,116470,1,2,0:0:0:0:
320,192,116537,1,2,0:0:0:0:
192,192,116605,1,2,0:0:0:0:
64,192,116673,1,2,0:0:0:0:
448,192,116740,1,2,0:0:0:0:
320,192,116808,1,2,0:0:0:0:
64,192,116875,1,0,0:0:0:0:
192,192,116875,1,0,0:0:0:0:
320,192,117010,1,2,0:0:0:0:
192,192,117078,1,2,0:0:0:0:
64,192,117146,1,0,0:0:0:0:
448,192,117146,1,0,0:0:0:0:
320,192,117281,1,2,0:0:0:0:
448,192,117348,1,2,0:0:0:0:
192,192,117416,1,2,0:0:0:0:
64,192,117483,1,2,0:0:0:0:
320,192,117551,1,8,0:0:0:0:
448,192,117551,1,0,0:0:0:70:Clap Hand.wav
64,192,117821,128,4,117956:0:0:0:0:
192,192,117821,128,2,117956:0:0:0:0:
448,192,117821,1,0,0:0:0:0:
320,192,117956,1,0,0:0:0:0:
448,192,117956,1,0,0:0:0:0:
