osu file format v14

[General]
AudioFilename: audio.mp3
AudioLeadIn: 0
PreviewTime: 66499
Countdown: 0
SampleSet: Soft
StackLeniency: 0.7
Mode: 2
LetterboxInBreaks: 0
WidescreenStoryboard: 1

[Editor]
Bookmarks: 3166,13832,24499,35166,45832,56499,61832,67166,85832,96499,101832,107166,117832,123166,128499
DistanceSpacing: 1
BeatDivisor: 4
GridSize: 16
TimelineZoom: 1.4

[Metadata]
Title:Moonheart
TitleUnicode:Moonheart
Artist:Hino Isuka
ArtistUnicode:翡乃イスカ
Creator:Nosuri
Version:Salad
Source:Arcaea
Tags:electronic instrumental english video game -momox future bass dance futurecore j-core jcore pop moon heart Sound Collection: Memories of Light
BeatmapID:4310424
BeatmapSetID:1774507

[Difficulty]
HPDrainRate:3
CircleSize:2.5
OverallDifficulty:7
ApproachRate:7
SliderMultiplier:1.48
SliderTickRate:1

[Events]
//Background and Video events
0,0,"96426142_p0 cropped.jpg",0,0
//Break Periods
2,86032,95599
//Storyboard Layer 0 (Background)
//Storyboard Layer 1 (Fail)
//Storyboard Layer 2 (Pass)
//Storyboard Layer 3 (Foreground)
//Storyboard Layer 4 (Overlay)
//Storyboard Sound Samples

[TimingPoints]
1833,333.333333333333,4,2,1,70,1,0
13832,-100,4,2,1,70,0,0
24499,-100,4,2,2,70,0,0
24832,-100,4,2,2,70,0,0
25666,-100,4,2,2,70,0,0
35166,-100,4,2,2,70,0,0
40499,-100,4,2,2,70,0,0
43166,-100,4,2,2,70,0,0
44499,-100,4,2,2,70,0,0
45499,-100,4,2,2,70,0,0
45832,-100,4,2,2,70,0,0
46166,-100,4,2,2,70,0,0
48499,-100,4,2,2,70,0,0
49332,-100,4,2,2,70,0,0
56499,-100,4,2,2,70,0,0
56832,-100,4,2,2,70,0,0
59166,-100,4,2,2,70,0,0
59832,-100,4,2,2,70,0,0
61832,-100,4,2,2,70,0,0
65832,-100,4,2,1,70,0,0
67166,-100,4,2,1,70,0,1
69832,-100,4,2,2,70,0,0
71832,-100,4,2,1,70,0,0
72499,-100,4,2,1,70,0,1
75166,-100,4,2,2,70,0,0
76499,-100,4,2,1,70,0,0
77832,-100,4,2,1,70,0,1
80499,-100,4,2,1,70,0,1
83166,-100,4,2,1,70,0,1
85832,-100,4,2,1,70,0,0
96499,-100,4,2,2,70,0,0
104499,-100,4,2,2,70,0,0
105832,-100,4,2,1,70,0,0
107166,-100,4,2,1,70,0,1
115166,-100,4,2,2,70,0,1
117832,-100,4,2,1,70,0,1
123166,-100,4,2,2,70,0,1
125832,-100,4,2,2,70,0,1
127166,-100,4,2,1,70,0,1
128499,-100,4,2,2,70,0,0
131166,-100,4,2,1,5,0,0

[Colours]
Combo1 : 247,247,0
Combo2 : 255,38,147
Combo3 : 255,153,204
Combo4 : 81,168,255

[HitObjects]
340,93,3166,5,2,0:0:0:0:
163,155,3666,2,0,L|163:247,1,74,2|2,0:0|0:0,0:0:0:0:
296,276,4166,1,2,0:0:0:0:
429,204,4499,5,2,0:0:0:0:
251,154,4999,2,0,L|251:246,1,74,2|2,0:0|0:0,0:0:0:0:
384,275,5499,1,2,0:0:0:0:
251,228,5832,5,2,0:0:0:0:
429,135,6332,2,0,L|429:227,1,74,2|2,0:0|0:0,0:0:0:0:
296,256,6832,1,2,0:0:0:0:
163,203,7166,6,0,L|88:262,2,74,2|2|2,0:0|0:0|0:0,0:0:0:0:
281,113,7832,2,0,L|150:212,1,148,2|2,0:0|0:0,0:0:0:0:
30,288,8499,5,2,0:0:0:0:
208,150,8999,2,0,L|208:242,1,74,2|2,0:0|0:0,0:0:0:0:
75,271,9499,1,2,0:0:0:0:
208,224,9832,6,0,P|251:282|197:329,1,148,2|2,0:0|0:0,0:0:0:0:
74,227,10499,2,0,L|227:143,1,148,2|2,0:0|0:0,0:0:0:0:
337,78,11166,5,2,0:0:0:0:
159,107,11666,2,0,L|159:193,1,74,2|2,0:0|0:0,0:0:0:0:
292,243,12166,1,2,0:0:0:0:
159,93,12499,6,0,L|159:189,1,74,2|2,0:0|0:0,0:0:0:0:
292,328,12999,2,0,L|208:328,1,74,2|2,0:0|0:0,0:0:0:0:
84,331,13499,1,2,0:0:0:0:
336,111,13832,6,2,P|381:158|309:209,1,148
201,228,14499,2,0,L|52:294,1,148,2|2,0:0|0:0,0:0:0:0:
65,287,14999,1,2,0:0:0:0:
140,293,15166,6,2,L|312:216,1,148
428,168,15832,2,2,L|427:257,1,74
360,250,16166,1,2,0:0:0:0:
212,189,16499,6,2,P|176:268|213:285,1,148
353,219,17166,2,0,L|492:272,1,148,2|2,0:0|0:0,0:0:0:0:
491,271,17666,1,2,0:0:0:0:
417,271,17832,6,2,L|278:324,1,148
128,128,18499,2,0,L|61:97,2,74,2|2|2,0:0|0:0|0:0,0:0:0:0:
380,189,19166,6,0,L|380:320,1,74,2|0,0:0|0:0,0:0:0:0:
306,299,19499,1,2,0:0:0:0:
158,307,19832,2,0,L|330:226,1,148,2|2,0:0|0:0,0:0:0:0:
291,243,20332,1,2,0:0:0:0:
216,236,20499,6,0,P|168:183|229:144,1,148,2|2,0:0|0:0,0:0:0:0:
362,164,21166,2,0,L|445:144,1,74,2|0,0:0|0:0,0:0:0:0:
433,146,21499,1,2,0:0:0:0:
182,215,21832,5,2,0:0:0:0:
330,276,22166,1,2,0:0:0:0:
404,244,22332,1,0,0:0:0:0:
478,215,22499,1,2,0:0:0:0:
330,276,22833,1,2,0:0:0:0:
78,119,23166,6,0,L|79:300,1,148,2|2,0:0|0:0,0:0:0:0:
212,126,23832,1,2,0:0:0:0:
79,161,24166,1,2,0:0:0:0:
330,93,24499,6,0,P|365:172|285:212,1,148,10|0,0:0|0:0,0:0:0:0:
145,266,25666,6,0,L|333:195,1,148,10|0,0:0|0:0,0:0:0:0:
128,66,26332,2,0,P|66:168|154:205,1,222,10|0,0:0|0:0,0:0:0:0:
291,185,27166,6,10,P|400:155|481:55,2,222
214,112,28332,6,0,P|60:189|61:349,1,296,10|10,0:0|0:0,0:0:0:0:
218,317,29499,1,10,0:0:0:0:
481,80,29832,6,0,P|478:170|284:273,1,296,6|0,0:0|0:0,0:0:0:0:
96,68,30999,6,0,P|232:130|231:279,1,296,10|10,0:0|0:0,0:0:0:0:
74,288,32166,1,10,0:0:0:0:
332,49,32499,6,0,P|365:130|317:163,1,148,10|8,0:0|0:0,0:0:0:0:
179,185,33166,2,0,L|78:233,2,74,8|8|8,0:0|0:0|0:0,0:0:0:0:
333,188,33832,6,0,L|334:292,1,74
178,201,34332,2,0,L|89:197,1,74,10|10,0:0|0:0,0:0:0:0:
237,81,34832,1,10,0:0:0:0:
489,132,35166,6,8,P|493:223|369:296,1,222
283,294,35916,1,8,0:0:0:0:
171,262,36166,1,8,0:0:0:0:
23,132,36499,6,8,P|19:223|143:296,1,222
229,294,37249,1,8,0:0:0:0:
341,262,37499,1,8,0:0:0:0:
193,234,37832,6,8,P|100:137|120:63,1,222
229,37,38582,1,8,0:0:0:0:
341,69,38832,1,8,0:0:0:0:
489,132,39166,6,8,L|256:138,1,222
377,164,39916,1,8,0:0:0:0:
489,132,40166,1,8,0:0:0:0:
226,52,40499,6,0,P|180:109|241:144,1,148,8|8,0:0|0:0,0:0:0:0:
375,170,41166,2,0,P|421:227|360:262,1,148,8|8,0:0|0:0,0:0:0:0:
300,265,41666,1,8,0:0:0:0:
225,253,41832,6,0,L|90:175,1,148,8|8,0:0|0:0,0:0:0:0:
245,178,42499,2,0,L|380:100,1,148,8|8,0:0|0:0,0:0:0:0:
299,73,42999,1,8,0:0:0:0:
143,85,43166,6,8,L|69:139,2,74
291,206,43832,2,8,L|365:260,2,74
31,66,44499,6,2,P|51:204|181:285,1,296,10|10,0:3|0:3,0:0:0:0:
323,284,45499,1,10,0:3:0:0:
64,80,45832,5,2,0:0:0:0:
64,80,46166,2,0,L|212:132,1,148,10|10,0:0|0:0,0:0:0:0:
356,225,46832,2,0,L|445:272,2,74,8|8|8,0:0|0:0|0:0,0:0:0:0:
204,301,47499,6,0,L|32:241,1,148,10|10,0:0|0:0,0:0:0:0:
176,205,48082,1,10,0:0:0:0:
287,191,48332,1,10,0:0:0:0:
362,53,48499,6,0,P|388:136|349:138,1,148,10|0,0:0|0:0,0:0:0:0:
141,142,49332,2,0,L|55:98,1,74,10|10,0:0|0:0,0:0:0:0:
141,142,49666,6,0,L|277:211,1,148,2|0,0:0|0:0,0:0:0:0:
118,50,50332,2,0,P|54:85|137:179,1,222,2|2,0:0|0:0,0:0:0:0:
382,77,51166,5,2,0:0:0:0:
382,77,51499,2,0,L|234:128,1,148,10|10,0:0|0:0,0:0:0:0:
386,298,52166,2,0,L|466:348,2,74,8|8|8,0:0|0:0|0:0,0:0:0:0:
237,209,52832,6,0,L|160:244,1,74,8|8,0:0|0:0,0:0:0:0:
237,209,53166,2,0,L|355:157,1,111,10|10,0:0|0:0,0:0:0:0:
146,54,53832,6,0,L|359:151,2,222,10|10|8,0:0|0:0|0:0,0:0:0:0:
299,52,55166,6,8,L|461:122,1,148
434,110,55832,1,2,0:3:0:0:
296,194,56166,1,2,0:0:0:0:
35,164,56499,5,2,0:0:0:0:
35,164,56832,2,0,L|196:239,1,148,10|10,0:0|0:0,0:0:0:0:
331,215,57499,2,0,L|331:308,1,74,8|8,0:0|0:0,0:0:0:0:
256,314,57832,5,8,0:0:0:0:
96,132,58166,2,0,P|51:187|122:222,1,148,10|10,0:0|0:0,0:0:0:0:
211,226,58749,1,10,0:0:0:0:
328,216,58999,1,10,0:0:0:0:
404,197,59166,6,0,P|451:239|393:295,1,148,10|0,0:0|0:0,0:0:0:0:
183,127,59999,2,0,L|266:105,1,74,10|10,0:0|0:0,0:0:0:0:
332,93,60333,6,0,L|181:149,1,148,2|0,0:0|0:0,0:0:0:0:
46,301,60999,2,0,P|34:222|151:133,1,222,2|2,0:0|0:0,0:0:0:0:
389,48,61832,6,8,P|460:117|406:231,1,222
307,245,62582,1,8,0:0:0:0:
190,224,62832,1,8,0:0:0:0:
42,113,63166,6,8,P|56:246|133:267,1,222
240,267,63916,1,8,0:0:0:0:
357,246,64166,1,8,0:0:0:0:
98,117,64499,6,8,L|99:216,1,74
170,192,64832,1,8,0:0:0:0:
325,191,65166,1,8,0:0:0:0:
391,159,65332,1,8,0:0:0:0:
458,127,65499,1,8,0:0:0:0:
200,52,65832,6,0,P|66:112|88:256,1,296,2|2,0:0|0:0,0:0:0:0:
154,288,66666,1,2,0:0:0:0:
231,286,66832,1,2,0:0:0:0:
491,58,67166,6,0,L|489:226,1,148,10|2,0:0|0:0,0:0:0:0:
415,225,67666,1,8,0:0:0:0:
342,187,67832,2,0,L|488:205,1,148,10|2,0:3|0:0,0:0:0:0:
414,126,68332,6,10,L|235:104,1,148,10|2,0:0|0:0,0:0:0:0:
192,134,68832,1,10,0:0:0:0:
267,107,68998,1,10,0:0:0:0:
349,98,69166,2,2,P|393:131|319:188,1,148,10|2,0:3|0:0,0:0:0:0:
85,176,69832,6,0,P|45:252|102:281,1,148,2|10,0:0|0:0,0:0:0:0:
230,330,70499,1,8,0:0:0:0:
378,313,70832,1,8,0:0:0:0:
109,109,71166,6,0,P|67:171|104:247,1,148,8|8,0:0|0:0,0:0:0:0:
167,280,71666,1,8,0:0:0:0:
242,286,71832,1,10,0:3:0:0:
168,289,71998,1,10,0:3:0:0:
94,293,72165,1,10,0:3:0:0:
168,291,72332,1,10,0:3:0:0:
335,101,72499,6,0,L|336:283,1,148,2|2,0:0|0:0,0:0:0:0:
262,247,72999,1,0,0:0:0:0:
188,254,73166,2,0,L|353:307,1,148,2|2,0:0|0:0,0:0:0:0:
251,110,73666,6,2,P|209:145|269:211,1,148
330,228,74166,2,0,L|415:240,2,74,2|2|2,0:0|0:0|0:0,0:0:0:0:
169,184,74832,1,2,0:0:0:0:
439,132,75166,6,0,P|482:180|417:238,1,148,10|10,0:0|0:0,0:0:0:0:
285,233,75832,1,8,0:0:0:0:
131,187,76166,1,8,0:0:0:0:
398,134,76499,6,0,P|413:216|334:241,1,148,2|10,0:0|0:3,0:0:0:0:
289,236,76999,1,8,0:3:0:0:
210,274,77166,1,10,0:3:0:0:
282,289,77332,1,10,0:3:0:0:
354,304,77499,1,10,0:3:0:0:
282,289,77666,1,2,0:0:0:0:
116,107,77832,6,0,P|72:161|146:207,1,148,2|2,0:0|0:0,0:0:0:0:
191,213,78332,1,0,0:0:0:0:
265,212,78499,2,0,L|102:254,1,148,2|2,0:0|0:0,0:0:0:0:
196,303,78999,6,2,L|361:255,1,148
257,197,79499,2,0,L|258:99,1,74,2|2,0:0|0:0,0:0:0:0:
338,261,79832,2,0,L|480:219,1,148,2|2,0:0|0:0,0:0:0:0:
213,67,80499,6,0,P|200:149|223:242,1,148,2|0,0:0|0:0,0:0:0:0:
285,253,80999,2,2,L|437:203,1,148
351,27,81499,6,0,P|273:43|337:319,1,444,2|2,0:0|0:0,0:0:0:0:
466,244,82832,1,2,0:0:0:0:
196,208,83166,6,0,L|111:246,2,74,2|2|2,0:0|0:0|0:0,0:0:0:0:
343,217,83832,1,2,0:0:0:0:
273,194,83998,1,2,0:0:0:0:
202,172,84165,1,2,0:0:0:0:
276,37,84332,6,0,P|306:179|257:194,1,222,2|0,0:0|0:0,0:0:0:0:
121,91,85166,2,0,P|117:177|167:202,1,148,2|0,0:0|0:0,0:0:0:0:
429,203,85832,5,2,0:0:0:0:
468,138,96499,6,8,P|472:229|348:302,1,222
262,300,97249,1,8,0:0:0:0:
150,268,97499,1,8,0:0:0:0:
313,57,97832,6,8,P|224:110|206:246,1,222
310,234,98582,1,8,0:0:0:0:
422,202,98832,1,8,0:0:0:0:
170,304,99165,6,8,P|77:207|97:133,1,222
207,108,99915,1,8,0:0:0:0:
319,140,100165,1,8,0:0:0:0:
156,149,100499,6,8,P|64:173|33:290,1,222
143,317,101249,1,8,0:0:0:0:
31,285,101499,1,8,0:0:0:0:
297,72,101832,6,0,P|343:129|282:164,1,148,8|8,0:0|0:0,0:0:0:0:
148,190,102499,2,0,P|102:247|163:282,1,148,8|8,0:0|0:0,0:0:0:0:
223,285,102999,1,8,0:0:0:0:
298,273,103165,6,0,L|433:195,1,148,8|8,0:0|0:0,0:0:0:0:
278,198,103832,2,0,L|143:120,1,148,8|8,0:0|0:0,0:0:0:0:
224,93,104332,1,8,0:0:0:0:
380,105,104499,6,8,L|454:159,2,74
232,226,105165,2,8,L|158:280,1,74
172,269,105499,1,8,0:0:0:0:
438,55,105832,6,2,P|321:172|208:280,1,296
389,270,106832,1,2,0:0:0:0:
124,346,107166,6,0,P|84:301|140:234,1,148,10|10,0:0|0:0,0:0:0:0:
278,120,107832,2,2,L|358:168,1,74,10|2,0:0|0:0,0:0:0:0:
341,158,108166,1,10,0:0:0:0:
176,141,108332,6,0,L|167:246,1,74,2|8,0:0|0:0,0:0:0:0:
246,239,108666,1,2,0:0:0:0:
319,252,108832,2,2,L|419:220,1,74,10|2,0:0|0:0,0:0:0:0:
223,156,109166,2,0,P|177:181|179:273,1,148,10|10,0:0|0:0,0:0:0:0:
443,284,109832,6,0,P|456:230|402:160,1,148,10|10,0:0|0:0,0:0:0:0:
255,112,110498,2,2,L|175:160,2,74,10|2|10,0:0|0:0|0:0,0:0:0:0:
423,108,110999,6,2,L|491:165,2,74,2|8|2,0:0|0:0|0:0,0:0:0:0:
345,99,111499,2,0,L|266:147,1,74,10|2,0:0|0:0,0:0:0:0:
115,207,111832,2,0,P|70:275|134:307,1,148,10|10,0:0|0:0,0:0:0:0:
376,310,112499,5,8,0:0:0:0:
310,276,112665,1,8,0:0:0:0:
244,242,112832,1,8,0:0:0:0:
399,190,113166,2,0,L|495:140,2,74,10|0|10,0:0|0:0|0:0,0:0:0:0:
233,213,113666,6,8,L|232:301,1,74,10|8,0:0|0:0,0:0:0:0:
383,199,114166,1,10,0:0:0:0:
315,168,114332,1,2,0:0:0:0:
247,138,114499,1,10,0:0:0:0:
410,69,114832,2,0,L|401:156,1,74,10|10,0:0|0:0,0:0:0:0:
236,151,115166,6,0,P|151:183|134:248,1,148,10|10,0:0|0:0,0:0:0:0:
208,314,115666,1,8,0:0:0:0:
289,307,115832,1,8,0:0:0:0:
208,314,115999,1,8,0:0:0:0:
127,307,116165,1,8,0:0:0:0:
396,71,116499,6,0,P|435:144|385:175,1,148,10|8,0:0|0:0,0:0:0:0:
313,182,116999,1,8,0:0:0:0:
232,175,117165,1,8,0:0:0:0:
313,182,117332,1,8,0:0:0:0:
394,175,117499,1,10,0:0:0:0:
127,334,117832,6,0,P|87:289|143:222,1,148,10|10,0:0|0:0,0:0:0:0:
281,108,118499,2,2,L|361:156,2,74,10|2|10,0:0|0:0|0:0,0:0:0:0:
113,41,118999,6,0,L|104:146,1,74,2|8,0:0|0:0,0:0:0:0:
183,139,119332,1,2,0:0:0:0:
256,152,119499,2,2,L|356:120,1,74,10|2,0:0|0:0,0:0:0:0:
159,63,119832,2,0,P|113:124|170:158,1,148,10|10,0:0|0:0,0:0:0:0:
425,329,120499,6,0,P|465:284|409:217,1,148,10|10,0:0|0:0,0:0:0:0:
271,103,121166,2,2,L|191:151,2,74,10|2|10,0:0|0:0|0:0,0:0:0:0:
439,99,121666,6,0,L|489:155,2,74,2|8|2,0:0|0:0|0:0,0:0:0:0:
361,90,122166,2,2,L|282:138,1,74,10|2,0:0|0:0,0:0:0:0:
131,198,122499,2,2,P|116:262|205:295,1,148,10|10,0:0|0:0,0:0:0:0:
445,40,123166,6,0,P|441:182|366:202,1,222,10|8,0:0|0:0,0:0:0:0:
268,187,123916,1,8,0:0:0:0:
151,142,124166,1,8,0:0:0:0:
305,79,124499,6,0,P|342:213|284:227,1,222,8|8,0:0|0:0,0:0:0:0:
184,249,125249,1,8,0:0:0:0:
67,193,125499,1,8,0:0:0:0:
335,54,125832,6,8,L|395:103,2,74
257,113,126332,1,8,0:0:0:0:
179,192,126499,2,8,L|119:241,2,74
257,160,126999,1,8,0:0:0:0:
425,109,127166,6,0,L|455:207,1,74,2|2,0:0|0:0,0:0:0:0:
374,200,127499,1,2,0:0:0:0:
226,212,127832,2,0,L|67:208,1,148,2|2,0:0|0:0,0:0:0:0:
350,59,128499,5,14,0:0:0:0:
256,192,128832,12,0,131166,0:0:0:0:
