osu file format v14

[General]
AudioFilename: audio.mp3
AudioLeadIn: 0
PreviewTime: 66499
Countdown: 0
SampleSet: Soft
StackLeniency: 0.7
Mode: 2
LetterboxInBreaks: 0
WidescreenStoryboard: 1

[Editor]
Bookmarks: 3166,13832,24499,35166,45832,56499,61832,67166,85832,96499,101832,107166,117832,123166,128499
DistanceSpacing: 1
BeatDivisor: 4
GridSize: 16
TimelineZoom: 1.6

[Metadata]
Title:Moonheart
TitleUnicode:Moonheart
Artist:Hino Isuka
ArtistUnicode:翡乃イスカ
Creator:Nosuri
Version:Platter
Source:Arcaea
Tags:electronic instrumental english video game -momox future bass dance futurecore j-core jcore pop moon heart Sound Collection: Memories of Light
BeatmapID:4310422
BeatmapSetID:1774507

[Difficulty]
HPDrainRate:4
CircleSize:3
OverallDifficulty:8
ApproachRate:8
SliderMultiplier:1.68
SliderTickRate:1

[Events]
//Background and Video events
0,0,"96426142_p0 cropped.jpg",0,0
//Break Periods
2,86032,95749
//Storyboard Layer 0 (Background)
//Storyboard Layer 1 (Fail)
//Storyboard Layer 2 (Pass)
//Storyboard Layer 3 (Foreground)
//Storyboard Layer 4 (Overlay)
//Storyboard Sound Samples

[TimingPoints]
1833,333.333333333333,4,2,1,70,1,0
3166,-100,4,2,1,70,0,0
13832,-100,4,2,1,70,0,0
24499,-100,4,2,2,70,0,0
24832,-100,4,2,2,70,0,0
25666,-100,4,2,2,70,0,0
35166,-100,4,2,2,70,0,0
40499,-100,4,2,2,70,0,0
43166,-100,4,2,2,70,0,0
44499,-100,4,2,2,70,0,0
45499,-100,4,2,2,70,0,0
45832,-100,4,2,2,70,0,0
46166,-100,4,2,2,70,0,0
48499,-100,4,2,2,70,0,0
49332,-100,4,2,2,70,0,0
56499,-100,4,2,2,70,0,0
56832,-100,4,2,2,70,0,0
59166,-100,4,2,2,70,0,0
59832,-100,4,2,2,70,0,0
61832,-100,4,2,2,70,0,0
65832,-100,4,2,1,70,0,0
67166,-100,4,2,1,70,0,1
69832,-100,4,2,2,70,0,0
71832,-100,4,2,1,70,0,0
72499,-100,4,2,1,70,0,1
75166,-100,4,2,2,70,0,0
76499,-100,4,2,1,70,0,0
77832,-100,4,2,1,70,0,1
80499,-100,4,2,1,70,0,1
83166,-100,4,2,1,70,0,1
85832,-100,4,2,1,70,0,0
96499,-100,4,2,2,70,0,0
104499,-100,4,2,2,70,0,0
105832,-100,4,2,1,70,0,0
107166,-100,4,2,1,70,0,1
115166,-100,4,2,2,70,0,1
117832,-100,4,2,1,70,0,1
123166,-100,4,2,2,70,0,1
125832,-100,4,2,2,70,0,1
127166,-100,4,2,1,70,0,1
128499,-100,4,2,2,70,0,0
131166,-100,4,2,1,5,0,0

[Colours]
Combo1 : 247,247,0
Combo2 : 255,38,147
Combo3 : 255,153,204
Combo4 : 81,168,255

[HitObjects]
363,66,3166,6,0,P|392:127|250:221,1,252,2|2,0:0|0:0,0:0:0:0:
194,181,3832,1,2,0:0:0:0:
278,235,3999,2,0,L|393:197,2,84,2|2|2,0:0|0:0|0:0,0:0:0:0:
97,281,4499,6,0,P|68:206|176:94,1,252,2|2,0:0|0:0,0:0:0:0:
258,92,5166,2,2,L|174:91,1,84
90,90,5499,2,0,L|195:91,1,84,2|0,0:0|0:0,0:0:0:0:
355,88,5832,6,0,P|417:122|345:251,1,252,2|2,0:0|0:0,0:0:0:0:
270,240,6499,1,2,0:0:0:0:
350,251,6666,2,0,L|450:228,2,84,2|2|2,0:0|0:0|0:0,0:0:0:0:
169,296,7166,6,0,L|69:273,2,84,2|2|2,0:0|0:0|0:0,0:0:0:0:
336,216,7832,1,2,0:0:0:0:
253,216,7998,1,0,0:0:0:0:
169,216,8165,1,2,0:0:0:0:
253,216,8332,1,0,0:0:0:0:
433,116,8499,6,0,P|473:220|363:287,1,252,2|2,0:0|0:0,0:0:0:0:
293,254,9166,2,2,L|371:284,1,84
449,254,9499,2,0,L|370:284,1,84,2|2,0:0|0:0,0:0:0:0:
190,72,9832,6,0,P|139:133|207:179,1,168,2|2,0:0|0:0,0:0:0:0:
279,173,10332,1,2,0:0:0:0:
194,180,10499,2,0,L|194:277,1,84,2|0,0:0|0:0,0:0:0:0:
279,173,10832,2,0,L|394:173,1,84,2|0,0:0|0:0,0:0:0:0:
118,58,11166,6,0,P|62:115|147:265,1,252,2|2,0:0|0:0,0:0:0:0:
190,268,11832,1,2,0:0:0:0:
273,273,11999,2,0,L|166:266,2,84,2|2|2,0:0|0:0|0:0,0:0:0:0:
89,108,12499,6,0,L|86:228,1,84,2|2,0:0|0:0,0:0:0:0:
264,254,12999,1,2,0:0:0:0:
179,112,13166,2,0,L|179:220,1,84,2|0,0:0|0:0,0:0:0:0:
264,254,13499,2,2,L|329:279,2,42
32,90,13832,6,2,L|31:198,1,84
113,175,14166,1,2,0:0:0:0:
281,262,14499,2,0,L|113:215,1,168,2|2,0:0|0:0,0:0:0:0:
204,170,14999,1,2,0:0:0:0:
385,104,15166,6,2,L|470:144,2,84
217,235,15832,2,2,L|311:222,1,84
383,222,16166,2,2,L|450:221,2,42
151,111,16499,6,2,L|63:160,2,84
316,88,17166,2,0,L|121:128,1,168,2|2,0:0|0:0,0:0:0:0:
234,170,17666,1,2,0:0:0:0:
414,203,17832,6,2,L|414:308,1,84
330,300,18166,1,2,0:0:0:0:
162,189,18499,2,0,L|256:171,1,84,2|2,0:0|0:0,0:0:0:0:
162,189,18832,2,2,L|94:195,2,42
397,198,19166,6,0,L|480:259,2,84,2|0|2,0:0|0:0|0:0,0:0:0:0:
241,115,19832,2,0,L|240:225,1,84,2|0,0:0|0:0,0:0:0:0:
326,251,20166,2,2,L|222:282,1,84
64,126,20499,6,0,L|63:237,1,84,2|2,0:0|0:0,0:0:0:0:
149,215,20832,1,2,0:0:0:0:
319,189,21166,2,0,L|211:148,1,84,2|0,0:0|0:0,0:0:0:0:
152,128,21499,2,0,L|260:87,1,84,2|0,0:0|0:0,0:0:0:0:
465,58,21832,6,0,L|467:141,1,84,2|0,0:0|0:0,0:0:0:0:
383,176,22166,2,0,L|277:226,1,84,2|0,0:0|0:0,0:0:0:0:
392,55,22499,2,0,L|394:138,1,84,2|0,0:0|0:0,0:0:0:0:
310,173,22833,2,0,L|204:223,1,84,2|2,0:0|0:0,0:0:0:0:
472,83,23166,6,0,P|468:207|337:236,1,252,2|0,0:0|0:0,0:0:0:0:
184,326,23832,2,0,L|183:226,1,84,2|2,0:0|0:0,0:0:0:0:
361,244,24166,2,0,L|362:144,1,84,2|2,0:0|0:0,0:0:0:0:
126,64,24499,6,0,P|75:131|140:172,1,168,10|0,0:0|0:0,0:0:0:0:
368,225,25666,6,0,L|129:115,1,252,10|0,0:0|0:0,0:0:0:0:
321,38,26332,2,0,P|426:124|302:248,1,336,10|0,0:0|0:0,0:0:0:0:
87,129,27166,6,10,P|36:192|116:241,1,168
173,237,27666,2,10,P|295:164|260:68,1,252
91,44,28332,6,0,P|31:106|115:244,1,252,10|0,0:0|0:0,0:0:0:0:
179,210,28999,2,0,P|224:294|155:323,1,168,10|0,0:0|0:0,0:0:0:0:
96,271,29499,1,10,0:0:0:0:
365,110,29832,6,0,P|209:283|240:315,1,336,6|0,0:0|0:0,0:0:0:0:
449,304,30999,6,0,P|476:253|339:145,1,252,10|0,0:0|0:0,0:0:0:0:
274,136,31666,2,0,P|220:180|286:233,1,168,10|0,0:0|0:0,0:0:0:0:
361,251,32166,1,10,0:0:0:0:
92,86,32499,5,10,0:0:0:0:
259,140,32832,2,0,L|258:246,1,84,8|8,0:0|0:0,0:0:0:0:
76,250,33166,2,0,L|33:242,2,42,8|8|8,0:0|0:0|0:0,0:0:0:0:
158,266,33499,2,0,L|70:248,1,84,8|10,0:0|0:0,0:0:0:0:
257,88,33832,6,0,L|257:200,1,84
101,195,34332,2,0,L|194:177,1,84,10|10,0:0|0:0,0:0:0:0:
343,157,34832,2,0,L|344:264,1,84,10|0,0:0|0:0,0:0:0:0:
109,69,35166,5,8,0:0:0:0:
72,158,35416,1,8,0:0:0:0:
88,249,35666,1,8,0:0:0:0:
189,276,35916,1,8,0:0:0:0:
88,249,36166,1,8,0:0:0:0:
357,60,36499,5,8,0:0:0:0:
394,149,36749,1,8,0:0:0:0:
378,240,36999,1,8,0:0:0:0:
277,268,37249,1,8,0:0:0:0:
378,240,37499,1,8,0:0:0:0:
109,37,37832,5,8,0:0:0:0:
84,146,38082,1,8,0:0:0:0:
123,260,38332,1,8,0:0:0:0:
222,332,38583,1,8,0:0:0:0:
344,342,38832,1,8,0:0:0:0:
73,64,39166,5,8,0:0:0:0:
184,75,39416,1,8,0:0:0:0:
272,81,39666,1,8,0:0:0:0:
184,75,39916,1,8,0:0:0:0:
73,86,40166,1,8,0:0:0:0:
479,81,40499,5,8,0:0:0:0:
489,162,40665,1,8,0:0:0:0:
447,233,40832,1,8,0:0:0:0:
371,264,40998,1,8,0:0:0:0:
287,253,41166,2,0,L|473:219,1,168,8|8,0:0|0:0,0:0:0:0:
368,177,41666,1,8,0:0:0:0:
188,74,41832,6,0,L|187:177,1,84,8|8,0:0|0:0,0:0:0:0:
272,174,42166,2,0,L|271:277,1,84,8|8,0:0|0:0,0:0:0:0:
185,162,42499,2,0,L|19:195,1,168,8|8,0:0|0:0,0:0:0:0:
104,237,42999,1,8,0:0:0:0:
338,121,43166,5,8,0:0:0:0:
380,118,43249,1,8,0:0:0:0:
422,116,43332,1,8,0:0:0:0:
338,121,43499,1,8,0:0:0:0:
296,118,43582,1,8,0:0:0:0:
254,116,43665,1,8,0:0:0:0:
73,152,43832,2,8,L|14:199,2,42
157,168,44165,1,8,0:0:0:0:
199,165,44248,1,8,0:0:0:0:
241,163,44331,1,8,0:0:0:0:
476,110,44499,6,2,P|476:225|432:259,1,168,10|10,0:3|0:3,0:0:0:0:
357,266,44999,1,2,0:3:0:0:
176,153,45166,2,0,L|176:244,1,84,10|2,0:3|0:3,0:0:0:0:
264,240,45499,2,8,L|322:267,2,42,10|8|8,0:3|0:0|0:0,0:0:0:0:
31,169,45832,5,2,0:0:0:0:
185,237,46166,2,0,L|23:165,1,168,10|10,0:0|0:0,0:0:0:0:
200,123,46832,2,0,L|253:149,2,42,8|8|8,0:0|0:0|0:0,0:0:0:0:
114,198,47166,6,0,L|61:224,2,42,8|8|8,0:0|0:0|0:0,0:0:0:0:
295,187,47499,2,0,P|299:259|292:279,1,84,10|0,0:0|0:0,0:0:0:0:
115,130,47832,1,10,0:0:0:0:
99,235,48082,1,10,0:0:0:0:
182,298,48332,1,10,0:0:0:0:
414,166,48499,6,0,P|460:219|391:294,1,168,10|0,0:0|0:0,0:0:0:0:
187,243,49332,2,0,L|281:253,1,84,10|10,0:0|0:0,0:0:0:0:
452,86,49666,6,0,P|463:139|320:256,1,252,2|0,0:0|0:0,0:0:0:0:
242,204,50332,2,0,L|478:116,1,252,2|2,0:0|0:0,0:0:0:0:
393,72,50999,1,10,0:0:0:0:
159,71,51166,6,0,L|143:185,1,84,2|8,0:0|0:0,0:0:0:0:
328,260,51499,2,0,P|355:253|318:158,1,168,10|10,0:0|0:0,0:0:0:0:
155,204,52166,1,8,0:0:0:0:
197,203,52249,1,8,0:0:0:0:
239,203,52332,1,8,0:0:0:0:
421,232,52499,6,0,L|421:349,1,84,8|0,0:0|0:0,0:0:0:0:
337,320,52832,1,8,0:0:0:0:
421,232,52999,1,8,0:0:0:0:
240,194,53166,2,0,L|78:168,2,126,10|10|0,0:0|0:0|0:0,0:0:0:0:
471,50,53832,6,0,L|468:241,1,168,10|10,0:0|0:0,0:0:0:0:
381,288,54332,2,0,L|204:242,1,168,10|10,0:0|0:0,0:0:0:0:
303,117,54832,2,0,L|394:92,1,84,8|8,0:0|0:0,0:0:0:0:
201,75,55166,5,8,0:0:0:0:
128,106,55332,1,8,0:0:0:0:
132,185,55499,1,8,0:0:0:0:
207,210,55665,1,0,0:0:0:0:
391,201,55832,1,2,0:3:0:0:
256,66,56166,2,2,L|190:86,2,42
489,171,56499,5,2,0:0:0:0:
335,239,56833,2,0,L|497:167,1,168,10|10,0:0|0:0,0:0:0:0:
321,120,57499,2,0,L|268:146,2,42,8|8|8,0:0|0:0|0:0,0:0:0:0:
407,195,57832,6,0,L|460:221,2,42,8|8|8,0:0|0:0|0:0,0:0:0:0:
226,184,58166,2,0,P|222:256|229:276,1,84,10|0,0:0|0:0,0:0:0:0:
406,127,58499,1,10,0:0:0:0:
422,232,58749,1,10,0:0:0:0:
339,295,58999,1,10,0:0:0:0:
107,163,59166,6,0,P|61:216|130:291,1,168,10|0,0:0|0:0,0:0:0:0:
334,240,59999,2,0,L|240:250,1,84,10|10,0:0|0:0,0:0:0:0:
69,83,60333,6,0,P|58:136|201:253,1,252,2|0,0:0|0:0,0:0:0:0:
279,201,60999,2,0,L|43:113,1,252,2|2,0:0|0:0,0:0:0:0:
128,69,61666,1,10,0:0:0:0:
360,53,61832,5,8,0:0:0:0:
419,153,62082,1,8,0:0:0:0:
390,264,62332,1,8,0:0:0:0:
289,312,62582,1,8,0:0:0:0:
172,306,62832,1,8,0:0:0:0:
441,77,63166,5,8,0:0:0:0:
495,172,63416,1,8,0:0:0:0:
441,77,63666,1,8,0:0:0:0:
326,124,63916,1,8,0:0:0:0:
441,77,64166,1,8,0:0:0:0:
37,93,64499,6,8,L|38:167,1,42
98,136,64666,1,8,0:0:0:0:
178,211,64832,1,8,0:0:0:0:
214,193,64915,1,8,0:0:0:0:
250,173,64998,1,8,0:0:0:0:
424,48,65166,2,8,L|423:122,1,42
363,91,65333,1,8,0:0:0:0:
283,166,65499,1,8,0:0:0:0:
247,148,65582,1,8,0:0:0:0:
211,128,65665,1,8,0:0:0:0:
444,130,65832,6,0,P|463:221|316:297,1,252,2|0,0:0|0:0,0:0:0:0:
163,136,66499,2,0,L|162:259,1,84,2|2,0:0|0:0,0:0:0:0:
243,110,66832,2,0,L|147:140,1,84,2|2,0:0|0:0,0:0:0:0:
397,158,67166,6,0,L|399:277,1,84,10|0,0:0|0:0,0:0:0:0:
315,257,67499,2,0,L|211:271,1,84,2|8,0:0|0:0,0:0:0:0:
412,210,67832,2,0,L|490:257,2,84,10|2|2,0:3|0:0|0:0,0:0:0:0:
180,119,68332,6,10,P|137:149|203:235,1,168,10|2,0:0|0:0,0:0:0:0:
264,235,68832,1,10,0:0:0:0:
348,232,68999,1,10,0:0:0:0:
167,159,69166,2,2,L|61:165,1,84,10|2,0:3|0:0,0:0:0:0:
166,158,69499,2,0,L|249:153,1,84,2|0,0:0|0:0,0:0:0:0:
482,58,69832,6,0,L|482:170,1,84,2|0,0:0|0:0,0:0:0:0:
406,178,70166,2,0,L|507:129,1,84,10|8,0:0|0:0,0:0:0:0:
301,237,70499,2,0,L|233:270,2,42,8|8|8,0:0|0:0|0:0,0:0:0:0:
385,179,70832,2,0,L|453:212,2,42,8|8|8,0:0|0:0|0:0,0:0:0:0:
150,139,71166,6,0,P|117:240|166:261,1,168,8|8,0:0|0:0,0:0:0:0:
233,268,71666,1,8,0:0:0:0:
414,74,71832,2,0,L|413:188,1,84,10|10,0:3|0:3,0:0:0:0:
335,190,72166,2,0,L|428:151,1,84,10|10,0:3|0:3,0:0:0:0:
176,67,72499,6,0,L|161:182,1,84,2|0,0:0|0:0,0:0:0:0:
243,204,72832,2,0,L|346:177,1,84,2|0,0:0|0:0,0:0:0:0:
142,207,73166,2,0,L|51:260,2,84,2|2|2,0:0|0:0|0:0,0:0:0:0:
376,67,73666,6,2,P|386:139|305:196,1,168
234,194,74166,2,0,L|181:177,2,42,2|2|2,0:0|0:0|0:0,0:0:0:0:
414,224,74499,2,0,L|496:201,3,84,2|2|2|2,0:0|0:0|0:0|0:0,0:0:0:0:
260,70,75166,6,0,L|159:121,1,84,10|0,0:0|0:0,0:0:0:0:
260,70,75499,2,0,L|361:121,1,84,10|8,0:0|0:0,0:0:0:0:
154,195,75832,2,0,L|89:229,2,42,8|8|8,0:0|0:0|0:0,0:0:0:0:
234,220,76166,2,0,L|133:188,1,84,8|8,0:0|0:0,0:0:0:0:
386,65,76499,6,0,L|385:182,1,84,2|0,0:0|0:0,0:0:0:0:
306,180,76832,1,10,0:3:0:0:
264,186,76915,1,8,0:3:0:0:
223,193,76998,1,8,0:3:0:0:
405,231,77166,2,0,L|439:256,2,42,10|8|10,0:3|0:3|0:3,0:0:0:0:
321,241,77499,2,2,L|424:228,1,84,10|2,0:3|0:0,0:0:0:0:
170,81,77832,6,0,L|171:202,1,84,2|0,0:0|0:0,0:0:0:0:
247,186,78166,2,0,L|357:208,1,84,2|0,0:0|0:0,0:0:0:0:
149,234,78499,2,0,L|50:275,2,84,2|2|2,0:0|0:0|0:0,0:0:0:0:
383,87,78999,6,2,P|428:115|370:199,1,168
300,200,79499,1,2,0:0:0:0:
215,189,79666,1,2,0:0:0:0:
394,264,79832,2,0,L|515:244,1,84,2|2,0:0|0:0,0:0:0:0:
394,264,80166,2,0,L|273:244,1,84,2|0,0:0|0:0,0:0:0:0:
66,136,80499,6,0,P|20:202|85:263,1,168,2|0,0:0|0:0,0:0:0:0:
153,260,80999,2,2,L|320:212,1,168
134,46,81499,6,0,P|101:96|249:274,1,336,2|0,0:0|0:0,0:0:0:0:
419,79,82499,2,0,P|457:128|386:191,1,168,2|2,0:0|0:0,0:0:0:0:
297,187,82999,1,2,0:0:0:0:
116,85,83166,6,0,L|116:206,1,84,2|2,0:0|0:0,0:0:0:0:
200,183,83499,2,0,L|230:221,2,42,2|2|2,0:0|0:0|0:0,0:0:0:0:
116,169,83832,2,0,L|46:160,2,42,2|0|2,0:0|0:0|0:0,0:0:0:0:
203,114,84166,1,2,0:0:0:0:
435,90,84332,6,0,P|481:182|367:268,1,252,2|0,0:0|0:0,0:0:0:0:
218,290,85166,2,0,P|109:180|150:125,1,252,2|0,0:0|0:0,0:0:0:0:
379,104,85832,5,2,0:0:0:0:
403,69,96499,5,8,0:0:0:0:
440,158,96749,1,8,0:0:0:0:
424,249,96999,1,8,0:0:0:0:
323,276,97249,1,8,0:0:0:0:
424,249,97499,1,8,0:0:0:0:
155,60,97832,5,8,0:0:0:0:
118,149,98082,1,8,0:0:0:0:
134,240,98332,1,8,0:0:0:0:
235,268,98582,1,8,0:0:0:0:
134,240,98832,1,8,0:0:0:0:
403,37,99165,5,8,0:0:0:0:
428,146,99415,1,8,0:0:0:0:
389,260,99665,1,8,0:0:0:0:
290,332,99916,1,8,0:0:0:0:
168,342,100165,1,8,0:0:0:0:
439,64,100499,5,8,0:0:0:0:
328,75,100749,1,8,0:0:0:0:
240,81,100999,1,8,0:0:0:0:
328,75,101249,1,8,0:0:0:0:
439,86,101499,1,8,0:0:0:0:
33,81,101832,5,8,0:0:0:0:
23,162,101998,1,8,0:0:0:0:
65,233,102165,1,8,0:0:0:0:
141,264,102331,1,8,0:0:0:0:
225,253,102499,2,0,L|39:219,1,168,8|8,0:0|0:0,0:0:0:0:
144,177,102999,1,8,0:0:0:0:
324,74,103165,6,0,L|325:177,1,84,8|8,0:0|0:0,0:0:0:0:
240,174,103499,2,0,L|241:277,1,84,8|8,0:0|0:0,0:0:0:0:
327,162,103832,2,0,L|493:195,1,168,8|8,0:0|0:0,0:0:0:0:
408,237,104332,1,8,0:0:0:0:
171,206,104499,6,8,L|100:230,2,42
258,201,104832,1,8,0:0:0:0:
296,217,104915,1,8,0:0:0:0:
334,234,104998,1,8,0:0:0:0:
152,132,105166,2,8,L|81:156,2,42
239,127,105499,1,8,0:0:0:0:
277,143,105582,1,8,0:0:0:0:
315,160,105665,1,8,0:0:0:0:
79,69,105832,6,2,L|79:186,1,84
154,182,106166,2,2,L|243:208,1,84
416,287,106499,2,0,L|331:259,1,84,2|2,0:0|0:0,0:0:0:0:
415,288,106832,2,0,L|464:275,2,42,2|2|2,0:0|0:0|0:0,0:0:0:0:
160,67,107166,6,0,L|153:172,1,84,10|0,0:0|0:0,0:0:0:0:
239,183,107499,2,0,L|342:155,1,84,10|0,0:0|0:0,0:0:0:0:
139,226,107832,2,2,L|83:263,2,42,10|2|2,0:0|0:0|0:0,0:0:0:0:
223,204,108166,1,10,0:0:0:0:
475,100,108332,6,0,L|480:199,1,84,2|8,0:0|0:0,0:0:0:0:
396,198,108666,2,0,L|491:201,2,84,2|10|2,0:0|0:0|0:0,0:0:0:0:
212,164,109166,2,0,L|210:283,1,84,10|2,0:0|0:0,0:0:0:0:
299,265,109499,2,0,L|210:257,1,84,10|0,0:0|0:0,0:0:0:0:
468,53,109832,6,0,L|468:167,1,84,10|0,0:0|0:0,0:0:0:0:
382,167,110166,2,0,L|280:211,1,84,10|0,0:0|0:0,0:0:0:0:
486,204,110499,2,2,L|484:265,1,42,10|2,0:0|0:0,0:0:0:0:
445,259,110666,1,2,0:0:0:0:
359,257,110832,1,10,0:0:0:0:
110,150,110999,6,2,L|213:141,1,84,2|8,0:0|0:0,0:0:0:0:
277,137,111332,2,0,L|173:143,2,84,2|10|2,0:0|0:0|0:0,0:0:0:0:
459,73,111832,2,0,L|459:172,1,84,10|2,0:0|0:0,0:0:0:0:
378,96,112166,2,0,L|470:69,1,84,10|2,0:0|0:0,0:0:0:0:
204,93,112499,6,8,L|161:122,2,42
288,61,112832,1,8,0:0:0:0:
107,61,112999,2,0,L|62:80,2,42,2|2|10,0:0|0:0|0:0,0:0:0:0:
191,54,113332,1,0,0:0:0:0:
106,61,113499,1,10,0:0:0:0:
359,107,113666,6,8,L|446:147,2,84,10|8|0,0:0|0:0|0:0,0:0:0:0:
179,115,114166,2,2,L|116:134,2,42,10|2|2,0:0|0:0|0:0,0:0:0:0:
264,167,114499,2,0,L|327:186,2,42,10|2|2,0:0|0:0|0:0,0:0:0:0:
83,211,114832,1,10,0:0:0:0:
123,200,114915,1,2,0:0:0:0:
164,190,114998,1,10,0:0:0:0:
419,108,115166,6,0,L|417:221,1,84,10|0,0:0|0:0,0:0:0:0:
339,212,115499,2,0,L|249:243,1,84,10|8,0:0|0:0,0:0:0:0:
441,141,115832,2,8,L|498:161,2,42
358,131,116166,1,8,0:0:0:0:
441,141,116332,1,8,0:0:0:0:
187,73,116499,6,0,L|144:92,2,42,10|8|8,0:0|0:0|0:0,0:0:0:0:
355,77,116832,1,8,0:0:0:0:
355,77,116999,1,8,0:0:0:0:
174,192,117166,2,0,L|166:305,1,84,8|8,0:0|0:0,0:0:0:0:
250,293,117499,1,10,0:0:0:0:
208,284,117582,1,2,0:0:0:0:
167,275,117665,1,10,0:0:0:0:
423,106,117832,6,0,L|430:211,1,84,10|0,0:0|0:0,0:0:0:0:
344,222,118165,2,0,L|241:194,1,84,10|0,0:0|0:0,0:0:0:0:
444,265,118498,2,2,L|500:302,2,42,10|2|2,0:0|0:0|0:0,0:0:0:0:
360,243,118832,1,10,0:0:0:0:
108,139,118998,6,0,L|103:238,1,84,2|8,0:0|0:0,0:0:0:0:
187,237,119332,2,0,L|92:240,2,84,2|10|2,0:0|0:0|0:0,0:0:0:0:
371,203,119832,2,0,L|373:322,1,84,10|0,0:0|0:0,0:0:0:0:
284,304,120165,2,0,L|373:296,1,84,10|0,0:0|0:0,0:0:0:0:
115,92,120498,6,0,L|115:206,1,84,10|0,0:0|0:0,0:0:0:0:
201,206,120832,2,0,L|303:250,1,84,10|0,0:0|0:0,0:0:0:0:
97,243,121165,2,2,L|54:273,2,42,10|2|2,0:0|0:0|0:0,0:0:0:0:
182,292,121498,1,10,0:0:0:0:
431,185,121666,6,0,L|328:176,1,84,2|8,0:0|0:0,0:0:0:0:
264,172,121998,2,0,L|368:178,2,84,2|10|2,0:0|0:0|0:0,0:0:0:0:
82,108,122498,2,2,L|82:207,1,84,10|2,0:0|0:0,0:0:0:0:
163,131,122832,2,0,L|71:104,1,84,10|8,0:0|0:0,0:0:0:0:
341,203,123166,5,10,0:0:0:0:
230,214,123416,1,8,0:0:0:0:
142,220,123666,1,8,0:0:0:0:
230,214,123916,1,8,0:0:0:0:
341,225,124166,2,0,L|341:127,1,84,8|8,0:0|0:0,0:0:0:0:
107,114,124500,5,8,0:0:0:0:
53,209,124750,1,8,0:0:0:0:
107,114,125000,1,8,0:0:0:0:
222,161,125250,1,8,0:0:0:0:
107,114,125499,2,0,L|218:111,1,84,8|8,0:0|0:0,0:0:0:0:
450,166,125833,5,8,0:0:0:0:
408,162,125916,1,8,0:0:0:0:
366,159,125999,1,8,0:0:0:0:
274,129,126166,1,8,0:0:0:0:
232,125,126249,1,8,0:0:0:0:
190,122,126332,1,8,0:0:0:0:
371,246,126499,1,8,0:0:0:0:
329,242,126582,1,8,0:0:0:0:
287,239,126665,1,8,0:0:0:0:
196,241,126832,2,0,L|137:286,2,42,8|8|8,0:0|0:0|0:0,0:0:0:0:
446,76,127166,6,0,L|494:109,2,42,2|2|2,0:0|0:0|0:0,0:0:0:0:
364,96,127499,1,2,0:0:0:0:
404,85,127582,1,2,0:0:0:0:
445,75,127665,1,2,0:0:0:0:
209,136,127832,2,0,L|116:167,1,84,2|0,0:0|0:0,0:0:0:0:
209,136,128166,2,0,L|302:167,1,84,2|0,0:0|0:0,0:0:0:0:
36,266,128499,5,14,0:0:0:0:
256,192,128666,12,0,131166,0:0:0:0:
