osu file format v14

[General]
AudioFilename: audio.mp3
AudioLeadIn: 0
PreviewTime: 102925
Countdown: 0
SampleSet: Soft
StackLeniency: 0.7
Mode: 2
LetterboxInBreaks: 0
WidescreenStoryboard: 1

[Editor]
Bookmarks: 21047,30413,60852,70218,79584,91291,102998,114705,131096
DistanceSpacing: 1.7
BeatDivisor: 8
GridSize: 32
TimelineZoom: 2.999999

[Metadata]
Title:Dreamin' attraction!!
TitleUnicode:Dreamin' attraction!!
Artist:Hino Isuka
ArtistUnicode:翡乃イスカ
Creator:Jemzuu
Version:Platter
Source:Arcaea
Tags:ajamez I love JrSzZ idu5t idust dust du5t instrumental electronic video game happy hardcore bms bofu 2015 大血戦 -the bms of fighters ultimate- buckfro groundbreaking Pokerizu - Pocket Rhythm
BeatmapID:2913077
BeatmapSetID:1404850

[Difficulty]
HPDrainRate:4
CircleSize:3.4
OverallDifficulty:8.2
ApproachRate:8.2
SliderMultiplier:1.58
SliderTickRate:1

[Events]
//Background and Video events
0,0,"75861310_p0.jpg",0,0
//Break Periods
//Storyboard Layer 0 (Background)
//Storyboard Layer 1 (Fail)
//Storyboard Layer 2 (Pass)
//Storyboard Layer 3 (Foreground)
//Storyboard Layer 4 (Overlay)
//Storyboard Sound Samples

[TimingPoints]
1152,292.682926829268,4,2,2,70,1,0
1152,-100,4,2,2,70,0,0
1444,-100,4,2,1,70,0,0
2030,-100,4,2,3,70,0,0
2249,-100,4,2,99,5,0,0
2322,-100,4,2,1,65,0,0
3054,-100,4,2,1,65,0,0
3493,-100,4,2,1,65,0,0
4371,-100,4,2,1,65,0,0
4591,-100,4,2,99,5,0,0
4664,-100,4,2,1,65,0,0
5395,-100,4,2,1,65,0,0
5834,-100,4,2,1,65,0,0
7005,-100,4,2,1,65,0,0
7737,-100,4,2,1,65,0,0
8176,-100,4,2,1,65,0,0
9054,-100,4,2,1,65,0,0
9273,-100,4,2,99,5,0,0
9347,-100,4,2,1,65,0,0
11103,-100,4,2,1,65,0,0
11322,-100,4,2,99,5,0,0
11395,-100,4,2,1,65,0,0
11688,-100,4,2,1,80,0,0
12127,-100,4,2,1,80,0,0
12273,-100,4,2,1,80,0,0
14322,-100,4,2,1,80,0,0
14908,-100,4,2,1,80,0,0
15493,-100,4,2,1,80,0,0
15786,-100,4,2,1,80,0,0
16078,-100,4,2,1,80,0,0
16371,-100,4,2,1,80,0,0
18712,-100,4,2,1,85,0,0
19298,-100,4,2,1,90,0,0
19591,-100,4,2,1,95,0,0
19883,-100,4,2,1,75,0,0
21054,-100,4,2,20,80,0,0
21273,-100,4,2,99,5,0,0
21347,-100,4,2,1,80,0,0
21932,-100,4,2,1,80,0,0
22225,-100,4,2,1,80,0,0
22517,-100,4,2,1,80,0,0
22664,-100,4,2,1,80,0,0
24273,-100,4,2,1,60,0,0
24566,-100,4,2,1,65,0,0
24859,-100,4,2,1,70,0,0
25151,-100,4,2,1,75,0,0
25444,-100,4,2,1,80,0,0
26615,-100,4,2,1,80,0,0
26908,-100,4,2,1,65,0,0
27200,-100,4,2,1,70,0,0
27493,-100,4,2,1,75,0,0
27786,-100,4,2,1,80,0,0
28078,-100,4,2,1,85,0,0
28371,-100,4,2,1,80,0,0
28664,-100,4,2,1,85,0,0
28956,-100,4,2,1,90,0,0
29834,-100,4,2,1,75,0,0
30127,-100,4,2,1,75,0,0
30420,-100,4,2,20,75,0,0
30786,-100,4,2,99,5,0,0
30859,-100,4,2,10,75,0,0
33347,-100,4,2,10,85,0,0
33639,-100,4,2,10,90,0,0
33932,-100,4,2,10,70,0,0
35103,-100,4,2,1,75,0,0
37444,-100,4,2,1,80,0,0
38030,-100,4,2,1,85,0,0
38615,-100,4,2,20,100,0,0
38834,-100,4,2,99,5,0,0
38908,-100,4,2,1,60,0,0
39200,-100,4,2,1,80,0,0
39493,-100,4,2,1,75,0,0
39786,-100,4,2,2,100,0,1
39932,-100,4,2,1,90,0,1
40956,-100,4,2,1,90,0,1
41249,-100,4,2,1,90,0,1
41834,-100,4,2,1,90,0,1
42054,-100,4,2,99,5,0,1
42127,-100,4,2,1,90,0,1
42420,-100,4,2,1,90,0,1
42712,-100,4,2,1,90,0,1
43005,-100,4,2,1,90,0,1
43298,-100,4,2,10,90,0,1
43737,-100,4,2,1,90,0,1
44469,-100,4,2,3,75,0,1
45639,-100,4,2,1,90,0,1
46225,-100,4,2,10,90,0,1
46810,-100,4,2,1,90,0,1
47395,-100,4,2,1,90,0,1
47688,-100,4,2,1,90,0,1
47981,-100,4,2,10,100,0,0
48420,-100,4,2,1,85,0,0
48566,-100,4,2,1,60,0,0
48639,-100,4,2,1,65,0,0
48712,-100,4,2,1,70,0,0
48786,-100,4,2,1,75,0,0
48859,-100,4,2,1,80,0,0
48932,-100,4,2,1,85,0,0
49005,-100,4,2,1,90,0,0
49078,-100,4,2,1,95,0,0
49151,-100,4,2,2,100,0,1
49298,-100,4,2,1,90,0,1
50322,-100,4,2,1,90,0,1
50615,-100,4,2,1,90,0,1
50908,-100,4,2,1,90,0,1
51127,-100,4,2,99,5,0,1
51200,-100,4,2,10,90,0,1
51786,-100,4,2,1,90,0,1
52664,-100,4,2,1,90,0,1
52956,-100,4,2,1,90,0,1
53249,-100,4,2,3,75,0,1
53688,-100,4,2,1,90,0,1
54127,-100,4,2,10,75,0,1
54566,-100,4,2,1,90,0,1
55298,-100,4,2,10,90,0,1
55883,-100,4,2,10,90,0,1
55956,-100,4,2,10,85,0,1
56030,-100,4,2,10,80,0,1
56103,-100,4,2,10,75,0,1
56176,-100,4,2,10,70,0,1
56249,-100,4,2,1,80,0,1
57932,-100,4,2,10,80,0,1
58225,-100,4,2,10,90,0,1
58517,-100,4,2,10,95,0,0
58591,-100,4,2,10,60,0,0
59981,-100,4,2,10,60,0,0
60054,-100,4,2,10,62,0,0
60127,-100,4,2,10,64,0,0
60200,-100,4,2,10,66,0,0
60273,-100,4,2,10,68,0,0
60347,-100,4,2,10,70,0,0
60420,-100,4,2,10,72,0,0
60493,-100,4,2,10,74,0,0
60566,-100,4,2,10,76,0,0
60639,-100,4,2,10,78,0,0
60712,-100,4,2,10,80,0,0
60786,-100,4,2,10,82,0,0
60859,-100,4,2,1,84,0,0
61078,-100,4,2,1,80,0,0
61737,-100,4,2,1,80,0,0
62030,-100,4,2,1,80,0,0
62322,-100,4,2,1,80,0,0
62469,-100,4,2,1,80,0,0
64078,-100,4,2,1,60,0,0
64371,-100,4,2,1,65,0,0
64664,-100,4,2,1,70,0,0
64956,-100,4,2,1,75,0,0
65249,-100,4,2,1,80,0,0
66420,-100,4,2,1,80,0,0
66712,-100,4,2,1,65,0,0
67005,-100,4,2,1,70,0,0
67298,-100,4,2,1,75,0,0
67591,-100,4,2,1,80,0,0
67883,-100,4,2,1,85,0,0
68176,-100,4,2,1,75,0,0
68469,-100,4,2,1,90,0,0
69273,-100,4,2,99,5,0,0
69347,-100,4,2,1,80,0,0
69566,-100,4,2,99,5,0,0
69639,-100,4,2,1,80,0,0
70225,-100,4,2,20,75,0,0
70444,-100,4,2,99,5,0,0
70517,-100,4,2,10,75,0,0
71030,-100,4,2,10,75,0,0
71249,-100,4,2,10,75,0,0
71615,-100,4,2,10,75,0,0
71981,-100,4,2,1,75,0,0
72273,-100,4,2,10,75,0,0
72566,-100,4,2,20,90,0,0
72859,-100,4,2,10,75,0,0
73737,-100,4,2,10,90,0,0
74030,-100,4,2,10,90,0,0
74322,-100,4,2,10,75,0,0
74688,-100,4,2,20,75,0,0
74761,-100,4,2,10,75,0,0
74908,-100,4,2,1,75,0,0
75786,-100,4,2,1,80,0,0
76078,-100,4,2,1,85,0,0
76664,-100,4,2,1,90,0,0
76956,-100,4,2,1,95,0,0
77249,-100,4,2,1,100,0,0
77542,-100,4,2,1,95,0,0
77834,-100,4,2,1,90,0,0
78127,-100,4,2,1,85,0,0
78420,-100,4,2,10,50,0,0
79298,-100,4,2,10,75,0,0
79591,-100,4,2,20,65,0,0
80395,-100,4,2,99,5,0,0
80469,-100,4,2,1,55,0,0
80688,-100,4,2,99,5,0,0
80761,-100,4,2,1,55,0,0
80981,-100,4,2,99,5,0,0
81054,-100,4,2,1,55,0,0
81712,-100,4,2,99,5,0,0
81786,-100,4,2,1,55,0,0
85078,-100,4,2,99,5,0,0
85151,-100,4,2,1,55,0,0
87493,-100,4,2,1,55,0,0
87786,-100,4,2,1,55,0,0
88444,-100,4,2,99,5,0,0
88517,-100,4,2,1,55,0,0
91298,-100,4,2,1,75,0,0
95688,-100,4,2,1,75,0,0
95981,-100,4,2,1,90,0,1
96566,-100,4,2,1,90,0,1
97151,-100,4,2,1,75,0,1
97444,-100,4,2,1,85,0,1
97737,-100,4,2,10,90,0,1
97883,-100,4,2,1,90,0,1
98030,-100,4,2,10,90,0,1
98322,-100,4,2,1,90,0,1
99493,-100,4,2,1,90,0,1
100664,-100,4,2,1,70,0,1
100956,-100,4,2,1,75,0,1
101249,-100,4,2,1,80,0,1
101542,-100,4,2,1,85,0,1
101761,-100,4,2,1,75,0,0
102420,-100,4,2,1,75,0,0
102566,-100,4,2,1,75,0,0
102712,-100,4,2,20,75,0,0
102786,-100,4,2,1,75,0,0
103005,-100,4,2,10,90,0,1
103444,-100,4,2,1,90,0,1
103591,-100,4,2,10,90,0,1
104030,-100,4,2,10,90,0,1
104176,-100,4,2,10,90,0,1
104469,-100,4,2,1,90,0,1
104615,-100,4,2,10,90,0,1
104761,-100,4,2,10,90,0,1
104908,-100,4,2,1,90,0,1
104981,-100,4,2,10,90,0,1
105054,-100,4,2,1,90,0,1
105200,-100,4,2,10,90,0,1
105347,-100,4,2,10,90,0,1
105493,-100,4,2,1,90,0,1
105566,-100,4,2,10,90,0,1
105639,-100,4,2,10,90,0,1
106225,-100,4,2,10,90,0,1
106956,-100,4,2,1,90,0,1
107103,-100,4,2,10,80,0,1
107395,-100,4,2,1,65,0,1
107688,-100,4,2,1,80,0,1
107981,-100,4,2,1,85,0,1
108273,-100,4,2,1,90,0,1
108566,-100,4,2,1,75,0,1
108859,-100,4,2,1,90,0,1
109005,-100,4,2,1,90,0,1
109444,-100,4,2,1,75,0,1
109737,-100,4,2,1,90,0,1
110030,-100,4,2,1,95,0,1
110322,-100,4,2,1,80,0,1
110908,-100,4,2,1,90,0,1
111639,-100,4,2,10,90,0,1
111932,-100,4,2,10,95,0,1
112371,-100,4,2,20,100,0,0
112517,-100,4,2,1,75,0,0
114420,-100,4,2,1,75,0,0
114493,-100,4,2,1,50,0,0
114712,-100,4,2,1,90,0,1
115298,-100,4,2,1,70,0,1
115591,-100,4,2,1,80,0,1
115883,-100,4,2,1,90,0,1
116469,-100,4,2,1,70,0,1
116761,-100,4,2,1,90,0,1
117054,-100,4,2,1,80,0,1
118225,-100,4,2,1,80,0,1
118517,-100,4,2,1,85,0,1
118810,-100,4,2,1,90,0,1
119103,-100,4,2,1,95,0,1
119395,-100,4,2,1,100,0,0
119688,-100,4,2,1,60,0,0
121956,-100,4,2,99,5,0,0
122030,-100,4,2,1,60,0,0
123200,-100,4,2,1,50,0,0
123493,-100,4,2,1,55,0,0
124078,-100,4,2,1,60,0,0
124298,-100,4,2,99,5,0,0
124371,-100,4,2,1,60,0,0
125469,-100,4,2,99,5,0,0
125542,-100,4,2,1,60,0,0
128469,-100,4,2,1,55,0,0
128761,-100,4,2,20,85,0,0
128908,-100,4,2,1,60,0,0
130225,-100,4,2,1,60,0,0
130371,-100,4,2,1,56,0,0
130517,-100,4,2,1,52,0,0
130664,-100,4,2,1,48,0,0
130810,-100,4,2,1,44,0,0
130956,-100,4,2,1,40,0,0
131103,-100,4,2,20,65,0,0
131395,-100,4,2,20,55,0,0
131834,-100,4,2,20,50,0,0
132273,-100,4,2,20,45,0,0
132712,-100,4,2,20,40,0,0
133151,-100,4,2,20,35,0,0
133591,-100,4,2,20,30,0,0
134030,-100,4,2,20,25,0,0
134469,-100,4,2,20,20,0,0
134908,-100,4,2,20,15,0,0
135347,-100,4,2,20,10,0,0
135786,-100,4,2,99,5,0,0

[Colours]
Combo1 : 166,166,255
Combo2 : 125,190,255
Combo3 : 255,128,128
Combo4 : 255,255,128

[HitObjects]
254,202,1152,5,2,0:2:0:0:
407,201,1444,1,2,0:2:0:0:
254,202,1737,1,2,0:2:0:0:
407,201,2030,1,2,0:2:0:0:
140,45,2322,5,2,0:2:0:0:
102,46,2395,1,0,0:0:0:0:
84,79,2468,1,2,0:2:0:0:
104,111,2541,1,0,0:0:0:0:
142,110,2614,1,0,0:0:0:0:
229,115,2761,5,2,0:2:0:0:
267,116,2834,1,0,0:0:0:0:
285,149,2907,1,0,0:0:0:0:
265,181,2980,1,0,0:0:0:0:
227,180,3053,1,10,0:2:0:0:
78,237,3347,2,0,L|132:238,1,39.5,2|0,0:2|0:0,0:0:0:0:
158,242,3493,5,10,0:2:0:0:
231,222,3639,1,10,0:2:0:0:
262,152,3785,1,0,0:0:0:0:
225,85,3932,1,2,0:2:0:0:
149,73,4078,2,0,L|68:77,2,79,0|2|10,0:0|0:2|0:2,0:0:0:0:
419,151,4664,5,2,0:2:0:0:
457,152,4737,1,0,0:0:0:0:
475,185,4810,1,2,0:2:0:0:
455,217,4883,1,0,0:0:0:0:
417,216,4956,1,0,0:0:0:0:
330,221,5103,5,2,0:2:0:0:
292,222,5176,1,0,0:0:0:0:
274,255,5249,1,0,0:0:0:0:
294,287,5322,1,0,0:0:0:0:
332,286,5395,1,10,0:2:0:0:
479,339,5688,2,0,L|425:340,1,39.5,0|0,0:0|0:0,0:0:0:0:
399,344,5834,5,2,0:2:0:0:
325,324,5980,1,2,0:2:0:0:
294,254,6126,1,0,0:0:0:0:
331,187,6273,1,2,0:2:0:0:
407,175,6419,5,0,0:0:0:0:
446,176,6492,1,0,0:0:0:0:
485,178,6565,1,2,0:2:0:0:
407,175,6712,1,2,0:2:0:0:
367,178,6785,1,0,0:0:0:0:
328,181,6858,1,0,0:0:0:0:
185,182,7005,6,0,L|164:144,2,39.5,0|0|8,0:0|0:0|0:3,0:0:0:0:
219,195,7225,1,0,0:0:0:0:
259,195,7298,1,8,0:2:0:0:
345,281,7444,6,0,L|366:243,2,39.5,2|0|0,0:2|0:0|0:0,0:0:0:0:
311,294,7664,1,0,0:0:0:0:
271,294,7737,1,10,0:2:0:0:
123,236,8030,2,0,L|102:181,1,39.5
123,236,8176,6,0,L|238:225,1,79,10|10,0:2|0:2,0:0:0:0:
292,101,8469,2,0,L|308:47,2,39.5,2|0|2,0:2|0:0|0:2,0:0:0:0:
147,90,8761,2,0,L|122:43,2,39.5,0|0|2,0:0|0:0|0:2,0:0:0:0:
230,111,9054,1,10,0:2:0:0:
475,212,9347,6,0,L|486:169,2,39.5,10|0|2,0:2|0:0|0:2,0:0:0:0:
336,255,9639,1,10,0:2:0:0:
296,254,9712,1,0,0:0:0:0:
257,254,9785,1,2,0:2:0:0:
392,189,9932,5,10,0:2:0:0:
429,198,10005,1,0,0:0:0:0:
445,233,10078,1,2,0:2:0:0:
429,268,10151,1,0,0:0:0:0:
392,278,10225,2,0,L|314:283,1,79,10|2,0:2|0:2,0:0:0:0:
146,174,10664,6,0,L|302:159,1,118.5,8|8,3:3|3:3,0:0:0:0:
60,259,11103,2,0,P|40:183|114:137,1,158,8|2,3:3|0:1,0:0:0:0:
134,135,11468,1,2,0:1:0:0:
173,132,11541,1,2,0:1:0:0:
385,230,11688,6,0,L|504:338,2,158,4|10|8,3:3|3:1|3:1,0:0:0:0:
228,217,12566,1,8,3:1:0:0:
188,217,12639,1,0,0:0:0:0:
149,217,12712,1,2,0:2:0:0:
363,95,12859,6,0,P|442:127|447:192,1,158,8|8,3:3|3:1,0:0:0:0:
365,225,13298,1,2,0:2:0:0:
221,235,13444,1,8,3:1:0:0:
183,239,13517,1,0,0:0:0:0:
166,273,13590,1,2,0:2:0:0:
184,306,13663,1,0,0:0:0:0:
222,309,13737,2,0,L|311:302,1,79,8|2,3:1|0:2,0:0:0:0:
149,151,14030,6,0,L|57:151,1,79,0|10,3:1|0:2,0:0:0:0:
295,84,14322,2,0,L|398:77,1,79,8|10,3:1|0:2,0:0:0:0:
394,100,14542,1,0,0:0:0:0:
373,78,14615,6,0,L|286:86,1,79,8|10,3:1|0:2,0:0:0:0:
156,87,14908,2,0,L|137:53,2,39.5,8|0|10,3:1|0:0|0:2,0:0:0:0:
377,211,15200,6,0,L|486:218,1,79,8|10,3:3|0:2,0:0:0:0:
319,309,15493,2,0,L|230:318,1,79,8|10,3:1|0:2,0:0:0:0:
281,294,15712,1,0,3:0:0:0:
325,284,15786,2,0,L|412:278,1,79,4|8,3:3|0:2,0:0:0:0:
254,225,16078,2,0,L|164:226,1,79,8|8,3:1|3:3,0:0:0:0:
402,193,16371,6,0,L|407:98,1,79,8|2,3:3|3:2,0:0:0:0:
320,82,16664,1,8,3:1:0:0:
280,80,16737,1,0,0:0:0:0:
241,79,16810,1,2,3:2:0:0:
102,187,16956,6,0,L|97:282,1,79,8|2,3:1|3:2,0:0:0:0:
184,298,17249,1,8,3:1:0:0:
223,299,17322,1,0,3:0:0:0:
262,300,17395,1,2,3:2:0:0:
52,365,17542,6,0,L|40:273,1,79,0|2,3:0|0:2,0:0:0:0:
139,276,17834,2,0,L|143:191,1,79,8|10,3:1|3:2,0:0:0:0:
291,177,18127,6,0,L|309:129,2,39.5,8|0|2,3:1|3:0|3:2,0:0:0:0:
147,96,18420,2,0,L|133:132,2,39.5,8|0|10,3:1|3:0|3:2,0:0:0:0:
369,57,18712,6,0,L|415:61,2,39.5,8|0|2,3:1|3:0|3:2,0:0:0:0:
223,43,19005,2,0,L|177:47,2,39.5,0|0|2,3:0|3:0|3:2,0:0:0:0:
374,80,19298,5,8,3:1:0:0:
410,92,19371,1,0,3:0:0:0:
425,127,19444,1,2,3:2:0:0:
409,162,19517,1,0,3:0:0:0:
373,173,19591,2,0,L|276:184,1,79,0|2,3:1|3:2,0:0:0:0:
73,343,19883,6,0,L|211:255,2,158,12|8|8,3:3|3:1|3:1,0:0:0:0:
345,349,20761,1,8,3:3:0:0:
68,246,21054,6,0,P|48:184|139:144,1,158,2|2,3:3|3:1,0:0:0:0:
194,131,21493,1,2,0:1:0:0:
334,120,21639,2,0,L|352:75,2,39.5,2|0|2,0:2|0:0|0:2,0:0:0:0:
196,220,21932,2,0,L|109:226,1,79,8|8,3:2|0:2,0:0:0:0:
254,294,22225,2,0,L|338:292,1,79,8|8,3:2|0:2,0:0:0:0:
118,355,22517,6,0,L|110:260,1,79,4|2,3:3|0:2,0:0:0:0:
152,254,22737,1,0,0:0:0:0:
194,244,22810,2,0,L|280:240,1,79,10|2,3:2|0:2,0:0:0:0:
419,218,23103,2,0,L|425:119,1,79,10|2,3:2|0:2,0:0:0:0:
382,128,23322,1,2,0:2:0:0:
337,122,23395,6,0,L|243:120,1,79,10|2,3:2|0:2,0:0:0:0:
404,52,23688,2,0,L|412:149,1,79,10|2,3:2|0:2,0:0:0:0:
281,152,23981,2,0,L|279:243,1,79,10|2,3:2|0:2,0:0:0:0:
146,268,24273,2,0,L|125:312,2,39.5,10|2|2,3:2|0:2|0:2,0:0:0:0:
370,87,24566,5,10,3:2:0:0:
407,95,24639,1,2,0:2:0:0:
424,129,24712,1,2,0:2:0:0:
408,164,24785,1,2,0:2:0:0:
371,174,24859,2,0,L|279:173,1,79,10|2,3:2|3:2,0:0:0:0:
150,155,25151,6,0,L|128:104,2,39.5,10|0|2,3:2|3:0|3:2,0:0:0:0:
298,83,25444,2,0,L|313:119,2,39.5,10|0|2,3:2|3:0|3:2,0:0:0:0:
77,50,25737,6,0,L|67:143,1,79,12|2,3:2|0:2,0:0:0:0:
210,187,26030,1,10,3:2:0:0:
249,188,26103,1,2,0:2:0:0:
288,189,26176,1,2,0:2:0:0:
163,332,26322,5,8,3:2:0:0:
123,267,26468,1,2,0:2:0:0:
156,199,26614,1,8,3:2:0:0:
232,190,26761,1,8,3:2:0:0:
377,248,26908,5,8,3:2:0:0:
416,183,27054,1,2,0:2:0:0:
383,115,27200,1,8,3:2:0:0:
307,106,27347,1,2,0:2:0:0:
443,42,27493,5,8,3:2:0:0:
477,58,27566,1,0,0:0:0:0:
491,94,27639,1,2,0:2:0:0:
477,130,27712,1,0,0:0:0:0:
442,146,27786,2,0,L|350:158,1,79,8|2,3:2|0:2,0:0:0:0:
221,102,28078,5,8,3:2:0:0:
183,106,28151,1,0,0:0:0:0:
165,139,28224,1,8,3:2:0:0:
183,173,28297,1,0,0:0:0:0:
221,177,28371,2,0,L|266:173,2,39.5,8|0|2,3:2|3:0|3:2,0:0:0:0:
78,191,28664,6,0,L|25:195,2,39.5,8|0|2,3:2|3:0|3:2,0:0:0:0:
224,269,28956,1,8,3:2:0:0:
263,270,29029,1,8,3:2:0:0:
302,272,29102,1,10,3:2:0:0:
77,358,29249,6,0,P|56:302|136:255,1,158,12|2,3:2|3:1,0:0:0:0:
207,245,29688,1,2,0:1:0:0:
351,215,29834,2,0,L|351:117,1,79,8|8,3:2|3:2,0:0:0:0:
203,100,30127,2,0,L|115:94,1,79,2|2,3:1|0:1,0:0:0:0:
353,33,30420,6,0,P|408:45|346:159,1,237,2|8,3:1|0:1,0:0:0:0:
211,170,31005,1,2,3:1:0:0:
173,176,31078,1,2,0:1:0:0:
156,210,31151,1,2,0:1:0:0:
172,244,31224,1,2,0:1:0:0:
209,252,31298,2,0,L|295:254,1,79,8|10,3:1|3:1,0:0:0:0:
434,254,31591,6,0,L|434:155,1,79,8|10,3:1|3:1,0:0:0:0:
394,160,31810,1,8,3:1:0:0:
309,98,31956,2,0,L|368:93,1,39.5,8|10,3:1|3:1,0:0:0:0:
475,102,32176,6,0,L|497:162,2,39.5,10|2|10,3:1|0:1|0:1,0:0:0:0:
372,69,32469,2,0,L|466:57,1,79,8|10,3:1|3:1,0:0:0:0:
242,176,32761,5,0,3:0:0:0:
203,178,32834,1,0,3:0:0:0:
172,202,32907,1,2,3:1:0:0:
161,239,32980,1,0,0:0:0:0:
172,276,33053,1,8,3:1:0:0:
256,299,33200,1,2,0:1:0:0:
116,352,33347,6,0,L|19:355,1,79,2|2,3:2|0:2,0:0:0:0:
177,283,33639,2,0,L|273:276,1,79,2|2,3:3|0:3,0:0:0:0:
40,246,33932,6,0,L|35:157,1,79,0|8,3:0|3:1,0:0:0:0:
75,153,34151,1,10,3:1:0:0:
161,119,34298,2,0,L|220:115,1,39.5,8|10,3:1|0:1,0:0:0:0:
339,39,34517,6,0,L|226:40,1,79,8|10,3:1|3:1,0:0:0:0:
123,84,34810,2,0,L|105:49,2,39.5,2|2|2,3:1|3:1|3:1,0:0:0:0:
340,88,35103,5,4,3:2:0:0:
414,105,35249,1,2,0:2:0:0:
446,174,35395,1,8,3:2:0:0:
413,243,35542,1,2,0:2:0:0:
339,260,35688,2,0,L|234:262,1,79,8|2,3:2|0:2,0:0:0:0:
301,295,35908,1,0,0:0:0:0:
343,306,35981,2,0,L|434:308,1,79,8|2,3:2|0:2,0:0:0:0:
209,366,36273,6,0,L|198:273,1,79,8|2,3:2|0:2,0:0:0:0:
295,279,36566,2,0,L|302:184,1,79,8|2,3:2|0:2,0:0:0:0:
157,165,36859,6,0,L|131:119,2,39.5,8|0|2,3:2|0:0|0:2,0:0:0:0:
302,87,37151,2,0,L|357:83,2,39.5,8|0|0,3:2|0:0|0:0,0:0:0:0:
87,36,37444,5,8,3:2:0:0:
49,41,37517,1,0,3:0:0:0:
32,75,37590,1,2,3:2:0:0:
49,108,37663,1,0,0:0:0:0:
87,114,37737,2,0,L|202:106,1,79,8|2,3:2|3:2,0:0:0:0:
309,132,38030,5,8,3:2:0:0:
345,142,38103,1,0,3:0:0:0:
360,177,38176,1,2,3:2:0:0:
343,211,38249,1,0,3:0:0:0:
305,220,38322,2,0,L|206:220,1,79,8|2,3:2|3:2,0:0:0:0:
450,335,38615,6,0,P|477:275|332:95,1,316,14|2,3:2|0:1,0:0:0:0:
261,100,39347,1,2,0:1:0:0:
406,22,39493,2,0,L|408:139,1,79,8|0,3:1|3:0,0:0:0:0:
178,188,39786,6,0,L|51:144,2,118.5,4|2|2,3:3|0:2|0:1,0:0:0:0:
267,232,40371,2,0,L|92:278,1,158,10|10,3:2|3:2,0:0:0:0:
30,274,40810,1,2,0:1:0:0:
174,348,40956,6,0,L|181:250,1,79,10|2,3:2|3:2,0:0:0:0:
312,253,41249,2,0,L|320:155,1,79,10|2,3:2|3:2,0:0:0:0:
177,168,41542,2,0,L|167:73,1,79,10|2,3:2|0:2,0:0:0:0:
389,32,41834,6,0,P|451:48|447:142,1,158,10|10,3:2|3:2,0:0:0:0:
186,284,42420,2,0,P|216:237|330:211,1,158,14|10,3:2|3:2,0:0:0:0:
383,189,42858,1,2,0:2:0:0:
410,118,43004,1,10,3:2:0:0:
365,57,43151,1,2,0:2:0:0:
153,38,43298,6,0,L|145:86,3,39.5,2|2|2|2,3:3|0:3|0:3|0:3,0:0:0:0:
175,78,43591,2,0,L|268:86,1,79,2|2,3:3|0:2,0:0:0:0:
111,195,43883,6,0,L|0:286,2,118.5,10|0|0,3:2|0:0|3:0,0:0:0:0:
329,153,44469,5,10,3:2:0:0:
365,165,44542,1,2,0:2:0:0:
381,199,44615,1,2,0:2:0:0:
366,235,44688,1,2,0:2:0:0:
329,247,44761,2,0,L|214:248,1,79,10|2,3:2|0:2,0:0:0:0:
398,305,45054,6,0,L|406:353,3,39.5,10|2|2|2,3:2|0:2|0:2|0:2,0:0:0:0:
376,345,45347,2,0,L|283:353,1,79,10|2,3:2|0:2,0:0:0:0:
154,279,45639,6,0,L|294:233,2,118.5,8|2|2,3:2|0:2|0:2,0:0:0:0:
370,95,46225,5,2,3:3:0:0:
408,95,46298,1,2,0:3:0:0:
439,119,46371,1,2,0:3:0:0:
449,156,46444,1,2,0:3:0:0:
435,192,46517,2,0,L|351:191,1,79,2|2,3:3|0:3,0:0:0:0:
137,88,46810,6,0,L|22:137,2,118.5,4|2|2,3:3|0:2|0:1,0:0:0:0:
281,101,47395,2,0,L|288:208,1,79,10|2,3:2|3:1,0:0:0:0:
140,222,47688,2,0,L|134:311,1,79,10|2,3:2|3:1,0:0:0:0:
353,328,47981,6,0,L|370:284,2,39.5,2|2|2,3:3|0:3|0:3,0:0:0:0:
274,348,48273,2,0,L|184:344,1,79,2|0,3:3|3:0,0:0:0:0:
406,196,48566,6,0,L|506:187,1,79,8|0,3:2|3:0,0:0:0:0:
400,113,48859,1,0,3:0:0:0:
439,111,48932,1,0,3:0:0:0:
478,109,49005,1,0,3:0:0:0:
267,239,49151,6,0,L|137:200,2,118.5,4|2|2,3:3|0:2|0:1,0:0:0:0:
354,266,49737,2,0,P|377:202|302:148,1,158,10|10,3:2|3:2,0:0:0:0:
232,146,50176,1,2,3:1:0:0:
90,204,50322,6,0,L|78:109,1,79,10|2,3:2|3:1,0:0:0:0:
208,123,50615,2,0,L|214:22,1,79,10|2,3:2|3:1,0:0:0:0:
350,52,50908,2,0,L|441:52,1,79,10|0,3:2|0:0,0:0:0:0:
286,172,51200,5,2,0:3:0:0:
246,172,51273,1,2,0:3:0:0:
207,173,51346,1,2,0:3:0:0:
426,138,51493,5,2,0:3:0:0:
463,144,51566,1,2,0:3:0:0:
481,178,51639,1,2,0:3:0:0:
465,213,51712,1,2,0:3:0:0:
428,221,51786,2,0,L|327:222,1,79,10|2,3:2|0:2,0:0:0:0:
209,348,52078,6,0,L|329:309,2,118.5,10|0|0,3:2|0:0|0:0,0:0:0:0:
430,353,52664,5,10,3:2:0:0:
466,286,52810,1,2,3:1:0:0:
426,222,52956,1,10,3:2:0:0:
351,225,53103,1,2,3:1:0:0:
206,242,53249,5,10,3:2:0:0:
168,234,53322,1,2,0:2:0:0:
151,199,53395,1,2,0:2:0:0:
168,165,53468,1,2,0:2:0:0:
205,157,53542,2,0,L|299:152,1,79,10|2,3:2|3:1,0:0:0:0:
74,123,53834,6,0,L|68:26,1,79,8|2,3:2|3:1,0:0:0:0:
203,26,54127,5,2,0:3:0:0:
240,34,54200,1,2,0:3:0:0:
256,69,54273,1,2,0:3:0:0:
240,103,54346,1,2,0:3:0:0:
203,112,54420,2,0,L|111:115,1,79,2|0,0:3|0:0,0:0:0:0:
256,196,54712,2,0,L|346:192,1,79,10|2,3:2|0:1,0:0:0:0:
192,282,55005,6,0,L|183:200,1,79,10|2,3:2|3:1,0:0:0:0:
396,121,55298,5,2,0:3:0:0:
434,116,55371,1,2,0:3:0:0:
467,136,55444,1,2,0:3:0:0:
479,173,55517,1,2,0:3:0:0:
466,209,55591,2,0,L|367:222,1,79,2|2,3:3|3:3,0:0:0:0:
304,299,55883,5,2,0:3:0:0:
343,303,55956,1,2,0:3:0:0:
382,308,56029,1,2,0:3:0:0:
173,363,56176,6,0,L|81:352,1,79,6|2,3:3|3:2,0:0:0:0:
74,336,56395,1,0,3:0:0:0:
94,353,56469,1,10,3:2:0:0:
237,230,56615,6,0,L|329:219,1,79,2|10,3:2|3:2,0:0:0:0:
336,203,56834,1,0,3:0:0:0:
315,220,56908,1,2,3:2:0:0:
184,142,57054,2,0,L|86:138,1,79,10|2,3:2|3:2,0:0:0:0:
248,166,57347,6,0,L|259:79,1,79,10|2,3:2|3:2,0:0:0:0:
116,60,57639,2,0,L|102:154,1,79,10|2,3:2|3:2,0:0:0:0:
244,202,57932,5,2,3:3:0:0:
283,204,58005,1,2,3:3:0:0:
322,207,58078,1,2,3:3:0:0:
182,304,58225,1,2,3:3:0:0:
142,306,58298,1,2,3:3:0:0:
103,309,58371,1,2,3:3:0:0:
330,17,58517,6,0,P|402:55|89:256,1,790,2|2,3:3|0:3,0:0:0:0:
128,245,60054,1,2,0:3:0:0:
170,236,60127,1,2,0:3:0:0:
312,218,60273,6,0,L|332:169,2,39.5,10|2|2,3:3|0:3|0:3,0:0:0:0:
166,148,60566,2,0,L|137:85,2,39.5,10|2|2,3:3|3:3|3:3,0:0:0:0:
388,55,60859,6,0,P|445:66|433:164,1,158,12|2,3:2|3:1,0:0:0:0:
366,184,61298,1,2,0:1:0:0:
230,194,61444,2,0,L|206:151,2,39.5,2|0|2,3:2|0:0|0:2,0:0:0:0:
366,184,61737,2,0,L|461:192,1,79,10|8,3:2|0:2,0:0:0:0:
358,261,62030,2,0,L|464:270,1,79,8|8,3:2|0:2,0:0:0:0:
228,356,62322,6,0,L|135:360,1,79,4|2,3:3|0:2,0:0:0:0:
188,337,62542,1,0,0:0:0:0:
229,322,62615,2,0,L|318:321,1,79,10|2,3:2|0:2,0:0:0:0:
165,259,62908,2,0,L|159:160,1,79,10|2,3:2|0:2,0:0:0:0:
202,169,63127,1,2,0:2:0:0:
247,163,63200,6,0,L|341:161,1,79,10|2,3:2|0:2,0:0:0:0:
242,78,63493,2,0,L|134:66,1,79,10|2,3:2|0:2,0:0:0:0:
26,101,63786,2,0,L|24:192,1,79,10|2,3:2|0:2,0:0:0:0:
159,218,64078,2,0,L|161:265,2,39.5,10|2|2,3:2|0:2|0:2,0:0:0:0:
298,156,64371,5,10,3:2:0:0:
335,164,64444,1,2,0:2:0:0:
352,198,64517,1,2,0:2:0:0:
336,233,64590,1,2,0:2:0:0:
299,243,64664,2,0,L|207:242,1,79,10|2,3:2|3:2,0:0:0:0:
344,322,64956,6,0,L|366:271,2,39.5,10|0|2,3:2|3:0|3:2,0:0:0:0:
205,251,65249,2,0,L|190:287,2,39.5,10|0|2,3:2|3:0|3:2,0:0:0:0:
416,77,65542,6,0,L|518:81,1,79,14|2,3:2|0:2,0:0:0:0:
407,153,65835,1,10,3:2:0:0:
368,154,65908,1,2,0:2:0:0:
329,155,65981,1,2,0:2:0:0:
445,179,66127,5,10,3:2:0:0:
485,244,66273,1,2,0:2:0:0:
452,312,66419,1,8,3:2:0:0:
376,321,66566,1,8,3:2:0:0:
234,350,66712,6,0,L|225:249,1,79,10|2,3:2|0:2,0:0:0:0:
366,292,67005,2,0,L|373:210,1,79,10|2,3:2|0:2,0:0:0:0:
228,64,67298,5,10,3:2:0:0:
194,80,67371,1,0,3:0:0:0:
180,116,67444,1,2,3:2:0:0:
194,152,67517,1,0,3:0:0:0:
229,168,67591,2,0,L|321:180,1,79,2|2,3:2|0:2,0:0:0:0:
446,145,67883,6,0,L|460:99,2,39.5,8|0|8,3:2|0:0|3:2,0:0:0:0:
309,101,68176,2,0,L|309:50,2,39.5,2|2|2,3:1|0:1|0:1,0:0:0:0:
167,89,68469,5,10,3:2:0:0:
129,96,68542,1,2,0:2:0:0:
112,130,68615,1,2,0:2:0:0:
129,165,68688,1,2,0:2:0:0:
167,172,68761,2,0,L|262:171,1,79,8|0,3:0|3:0,0:0:0:0:
34,335,69054,6,0,L|32:168,1,158,4|4,3:3|3:3,0:0:0:0:
288,81,69639,2,0,L|233:80,1,39.5,8|8,3:2|3:2,0:0:0:0:
117,31,69859,2,0,L|116:136,1,79,8|8,3:2|3:2,0:0:0:0:
157,115,70078,1,8,3:2:0:0:
375,170,70225,6,0,L|501:274,1,158,2|2,3:3|3:1,0:0:0:0:
467,293,70591,1,2,3:1:0:0:
428,300,70664,1,2,3:1:0:0:
281,322,70810,6,0,L|171:266,2,118.5,10|10|2,3:1|3:1|3:1,0:0:0:0:
139,327,71395,2,0,L|19:281,2,118.5,8|10|2,3:1|3:1|3:1,0:0:0:0:
219,275,71981,5,2,3:2:0:0:
300,255,72127,1,0,3:0:0:0:
160,208,72273,2,0,L|138:162,2,39.5,2|2|2,3:1|3:1|3:1,0:0:0:0:
372,58,72566,6,0,L|485:119,1,118.5,2|0,3:3|3:0,0:0:0:0:
439,139,72859,1,0,3:2:0:0:
361,160,73005,1,0,3:0:0:0:
225,181,73151,5,2,3:1:0:0:
187,185,73224,1,2,3:1:0:0:
170,219,73297,1,2,3:1:0:0:
188,252,73370,1,0,0:0:0:0:
226,255,73444,2,0,L|314:264,1,79,2|2,3:1|3:1,0:0:0:0:
160,351,73737,5,2,3:3:0:0:
131,301,73846,1,2,3:0:0:0:
157,250,73956,1,2,3:0:0:0:
214,240,74066,2,0,L|306:235,1,79,2|2,3:0|3:0,0:0:0:0:
406,213,74322,6,0,L|423:171,2,39.5,0|0|0,3:0|3:0|3:0,0:0:0:0:
269,140,74615,1,0,3:0:0:0:
229,139,74688,1,2,3:1:0:0:
190,139,74761,1,0,3:0:0:0:
400,39,74908,5,12,3:3:0:0:
474,58,75054,1,2,0:2:0:0:
506,127,75200,1,10,3:2:0:0:
473,196,75347,1,2,0:2:0:0:
399,215,75493,2,0,L|298:205,1,79,10|2,3:2|0:2,0:0:0:0:
457,275,75786,2,0,L|466:378,1,79,10|2,3:2|0:2,0:0:0:0:
254,343,76078,6,0,L|149:335,1,79,10|2,3:2|0:2,0:0:0:0:
270,269,76371,2,0,L|356:261,1,79,10|2,3:2|0:2,0:0:0:0:
210,206,76664,6,0,L|190:161,2,39.5,10|0|2,3:2|0:0|0:2,0:0:0:0:
350,168,76956,2,0,L|370:123,2,39.5,10|0|2,3:2|0:0|0:2,0:0:0:0:
140,64,77249,5,2,3:2:0:0:
102,72,77322,1,0,3:0:0:0:
86,106,77395,1,2,3:2:0:0:
105,140,77468,1,0,3:0:0:0:
142,145,77542,2,0,L|236:153,1,79,2|2,3:2|3:2,0:0:0:0:
81,217,77834,5,2,3:2:0:0:
43,225,77907,1,0,3:0:0:0:
27,259,77980,1,2,3:2:0:0:
46,293,78053,1,0,0:0:0:0:
83,298,78127,2,0,L|176:305,1,79,2|2,3:2|3:2,0:0:0:0:
380,304,78420,6,0,L|432:297,2,39.5,2|2|2,3:3|3:3|3:3,0:0:0:0:
294,266,78712,2,0,L|291:210,2,39.5,2|2|2,3:3|3:3|3:3,0:0:0:0:
210,203,79005,2,0,L|203:143,2,39.5,2|2|2,3:3|3:3|3:3,0:0:0:0:
361,110,79298,6,0,L|457:103,1,79,10|2,0:3|0:1,0:0:0:0:
212,38,79591,6,0,P|131:73|234:355,1,474,4|2,3:3|0:2,0:0:0:0:
395,353,80761,6,0,L|403:185,1,158,2|2,0:2|0:2,0:0:0:0:
245,137,81347,2,0,L|76:137,1,158,0|0,0:0|0:0,0:0:0:0:
352,27,81932,6,0,P|404:76|224:344,1,474,2|2,0:2|0:2,0:0:0:0:
319,311,82956,1,2,0:2:0:0:
454,328,83103,6,0,P|483:278|354:86,1,316,2|2,0:2|0:2,0:0:0:0:
313,93,83785,1,2,0:2:0:0:
289,138,83883,1,2,0:2:0:0:
312,183,83980,1,2,0:2:0:0:
362,189,84078,1,2,0:2:0:0:
159,302,84273,6,0,P|117:213|195:86,1,237,2|2,3:2|0:2,0:0:0:0:
211,82,84786,1,2,0:2:0:0:
255,74,84859,2,0,L|419:143,1,158,2|0,3:2|3:0,0:0:0:0:
143,262,85444,6,0,L|46:251,2,79,2|2|2,0:2|0:2|3:2,0:0:0:0:
229,277,85883,2,0,P|248:219|166:149,1,158,2|2,0:2|0:2,0:0:0:0:
104,157,86322,2,0,L|91:57,1,79,2|2,0:2|3:2,0:0:0:0:
237,41,86615,6,0,P|297:45|279:197,1,237,10|2,3:2|0:2,0:0:0:0:
220,212,87200,2,0,L|217:305,1,79,2|2,3:2|0:2,0:0:0:0:
303,295,87493,2,0,L|305:388,1,79,2|2,3:2|0:2,0:0:0:0:
161,374,87786,6,0,L|21:291,1,158,2|0,0:2|3:0,0:0:0:0:
110,247,88225,2,0,L|295:193,1,158,2|2,0:2|0:2,0:0:0:0:
179,191,88664,2,0,L|174:100,1,79,2|2,0:2|3:2,0:0:0:0:
319,49,88956,6,0,P|376:62|301:167,1,237,10|2,3:2|0:2,0:0:0:0:
179,191,89542,1,2,0:2:0:0:
141,199,89615,1,2,0:2:0:0:
126,234,89688,1,2,0:2:0:0:
144,268,89761,1,2,0:2:0:0:
182,274,89834,2,0,L|278:281,1,79,2|2,0:2|0:2,0:0:0:0:
419,329,90273,1,2,0:2:0:0:
281,347,90420,6,0,P|217:337|275:218,1,237,2|2,3:2|0:1,0:0:0:0:
295,206,90932,1,2,0:1:0:0:
338,203,91005,2,0,L|437:201,1,79,8|0,0:1|3:0,0:0:0:0:
198,124,91298,6,0,L|55:45,2,158,12|8|8,3:2|3:1|3:1,0:0:0:0:
361,140,92176,2,0,L|370:236,1,79,8|10,3:1|3:2,0:0:0:0:
158,291,92469,6,0,L|14:213,1,158,8|8,3:2|3:1,0:0:0:0:
99,171,92908,1,2,0:2:0:0:
241,136,93054,2,0,L|370:106,2,118.5,8|8|2,3:1|3:2|0:2,0:0:0:0:
387,208,93639,6,0,P|445:221|451:318,1,158,8|8,3:2|3:1,0:0:0:0:
374,336,94078,1,2,0:2:0:0:
228,340,94225,2,0,L|86:309,2,118.5,8|0|2,3:1|0:0|3:2,0:0:0:0:
374,336,94810,6,0,P|393:281|319:229,1,158,10|8,3:2|3:1,0:0:0:0:
243,223,95249,1,2,3:2:0:0:
97,226,95395,5,8,3:1:0:0:
59,218,95468,1,0,3:0:0:0:
42,184,95541,1,2,3:2:0:0:
58,150,95614,1,0,3:0:0:0:
95,141,95688,2,0,L|185:133,1,79,12|0,3:1|0:0,0:0:0:0:
385,56,95981,6,0,P|435:65|439:168,1,158,10|8,3:2|3:2,0:0:0:0:
313,195,96420,2,0,L|260:196,1,39.5,2|0,0:2|0:0,0:0:0:0:
228,197,96566,2,0,P|210:143|305:93,1,158,10|8,3:2|3:2,0:0:0:0:
360,80,97005,1,2,0:2:0:0:
152,293,97151,6,0,L|65:285,2,79,10|2|10,3:2|3:1|3:2,0:0:0:0:
239,289,97591,2,0,P|257:242|174:190,1,158,2|2,3:1|0:2,0:0:0:0:
97,197,98030,2,0,L|88:102,1,79,2|2,3:3|3:0,0:0:0:0:
300,44,98322,6,0,P|364:52|370:138,1,158,10|8,3:2|3:2,0:0:0:0:
292,166,98761,1,2,0:2:0:0:
148,182,98908,2,0,L|147:276,1,79,8|2,3:2|0:2,0:0:0:0:
289,262,99200,2,0,L|295:366,1,79,10|2,3:2|3:1,0:0:0:0:
85,365,99493,6,0,P|41:349|93:276,1,158,10|10,3:2|3:2,0:0:0:0:
223,221,99932,2,0,L|398:157,1,158,2|2,3:1|3:1,0:0:0:0:
293,111,100371,1,10,3:2:0:0:
212,103,100517,1,2,3:1:0:0:
356,35,100664,5,10,3:2:0:0:
393,100,100810,1,8,0:2:0:0:
359,168,100956,1,10,3:2:0:0:
284,177,101103,1,10,0:2:0:0:
142,209,101249,5,10,3:2:0:0:
105,219,101322,1,10,3:2:0:0:
90,254,101395,1,10,3:2:0:0:
108,288,101468,1,10,3:2:0:0:
145,296,101542,2,0,L|238:298,1,79,10|10,3:2|3:2,0:0:0:0:
368,336,101981,1,10,3:2:0:0:
225,365,102127,6,0,L|55:320,1,158,10|10,3:2|0:2,0:0:0:0:
330,253,102712,2,0,L|347:204,2,39.5,2|2|2,3:1|0:2|0:2,0:0:0:0:
118,66,103005,5,6,3:2:0:0:
80,75,103078,1,2,3:2:0:0:
65,110,103151,1,2,3:2:0:0:
83,143,103224,1,2,3:2:0:0:
120,150,103298,2,0,L|206:156,1,79,2|2,3:2|3:1,0:0:0:0:
343,171,103591,5,2,3:3:0:0:
380,180,103664,1,2,0:3:0:0:
395,215,103737,1,2,0:3:0:0:
377,248,103810,1,2,0:3:0:0:
340,255,103884,2,0,L|254:260,1,79,2|2,3:3|0:2,0:0:0:0:
117,329,104176,6,0,L|240:294,2,118.5,2|2|2,3:3|0:3|0:3,0:0:0:0:
255,187,104761,2,0,L|378:222,2,118.5,2|2|2,0:3|0:3|0:3,0:0:0:0:
107,185,105347,5,2,3:3:0:0:
227,97,105566,2,0,L|357:82,1,118.5,2|2,0:3|0:3,0:0:0:0:
269,92,105932,1,2,3:3:0:0:
234,160,106078,1,2,0:3:0:0:
271,226,106225,1,2,3:3:0:0:
346,233,106371,1,2,0:3:0:0:
137,334,106517,5,2,0:3:0:0:
98,337,106590,1,2,0:3:0:0:
66,315,106663,1,2,0:3:0:0:
55,278,106736,1,2,0:3:0:0:
70,242,106810,2,0,L|166:237,1,79,2|2,3:3|3:2,0:0:0:0:
289,213,107103,5,2,3:2:0:0:
267,179,107176,1,2,0:2:0:0:
236,155,107249,1,2,0:2:0:0:
199,142,107322,1,2,0:2:0:0:
160,142,107395,2,0,L|66:137,1,79,8|0,3:2|3:0,0:0:0:0:
295,45,107688,6,0,L|396:51,1,79,14|2,3:2|0:2,0:0:0:0:
289,85,107981,2,0,L|201:92,1,79,10|2,3:2|0:2,0:0:0:0:
356,155,108273,2,0,L|381:204,2,39.5,10|0|2,3:2|0:0|0:2,0:0:0:0:
270,164,108566,2,0,L|168:177,1,79,10|2,3:2|0:2,0:0:0:0:
404,279,108859,6,0,L|486:281,1,79,10|2,3:2|0:2,0:0:0:0:
345,357,109151,2,0,L|240:363,2,79,10|2|10,3:2|0:2|3:2,0:0:0:0:
482,282,109591,2,0,P|454:235|345:211,1,158,2|10,0:2|3:2,0:0:0:0:
151,225,110030,5,10,3:2:0:0:
113,219,110103,1,0,0:0:0:0:
95,185,110176,1,2,0:2:0:0:
110,151,110249,1,0,0:0:0:0:
147,142,110322,2,0,L|238:143,1,79,10|2,3:2|0:2,0:0:0:0:
371,181,110615,5,10,3:2:0:0:
404,113,110761,1,2,3:2:0:0:
366,47,110907,1,10,3:2:0:0:
291,43,111054,1,2,3:2:0:0:
147,246,111200,6,0,L|26:208,2,118.5,10|2|2,3:2|0:2|0:3,0:0:0:0:
366,320,111786,2,0,L|366:235,1,79,2|2,0:3|3:3,0:0:0:0:
234,155,112078,1,2,3:3:0:0:
194,155,112151,1,2,3:3:0:0:
155,155,112224,1,2,3:3:0:0:
370,74,112371,6,0,L|496:127,2,118.5,4|2|2,0:2|0:2|0:2,0:0:0:0:
295,88,112956,1,2,0:2:0:0:
263,157,113102,1,2,0:2:0:0:
299,224,113249,1,2,0:2:0:0:
375,234,113395,1,2,0:2:0:0:
236,315,113542,6,0,L|152:307,1,79,2|2,0:2|0:2,0:0:0:0:
240,280,113834,2,0,L|350:273,1,79,2|2,0:2|0:2,0:0:0:0:
236,238,114127,2,0,L|143:224,1,79,2|2,0:2|0:2,0:0:0:0:
303,185,114420,2,0,L|310:85,1,79,10|0,3:2|0:0,0:0:0:0:
89,38,114712,5,12,3:2:0:0:
52,104,114858,1,2,0:2:0:0:
88,170,115004,1,10,3:2:0:0:
164,176,115151,1,2,0:2:0:0:
309,167,115298,5,10,3:2:0:0:
345,233,115444,1,2,0:2:0:0:
309,299,115590,1,10,3:2:0:0:
233,305,115737,1,2,0:2:0:0:
90,125,115883,5,10,3:2:0:0:
53,191,116029,1,2,0:2:0:0:
89,257,116175,1,10,3:2:0:0:
165,263,116322,1,2,0:2:0:0:
306,230,116469,2,0,L|311:143,1,79,10|2,3:2|0:2,0:0:0:0:
167,149,116761,2,0,L|157:69,1,79,10|10,3:2|3:2,0:0:0:0:
377,29,117054,6,0,L|387:128,1,79,10|2,3:2|0:2,0:0:0:0:
247,167,117347,2,0,L|165:177,1,79,10|2,3:2|0:2,0:0:0:0:
247,167,117639,2,0,L|345:180,1,79,10|2,3:2|0:2,0:0:0:0:
180,262,117932,2,0,L|174:358,1,79,10|2,3:2|0:2,0:0:0:0:
400,328,118225,6,0,L|454:326,2,39.5,10|8|10,3:2|3:2|3:2,0:0:0:0:
266,297,118517,2,0,L|263:236,2,39.5,10|8|10,3:2|3:2|3:2,0:0:0:0:
126,247,118810,6,0,L|119:188,2,39.5,10|8|10,3:2|3:2|3:2,0:0:0:0:
335,113,119103,1,10,3:2:0:0:
374,111,119176,1,8,3:2:0:0:
413,109,119249,1,10,3:2:0:0:
201,75,119395,6,0,L|49:140,2,158,14|2|2,3:3|0:2|0:2,0:0:0:0:
420,73,120420,2,0,L|441:115,1,39.5,2|2,0:2|0:2,0:0:0:0:
420,73,120566,6,0,L|243:110,1,158,2|2,0:2|0:2,0:0:0:0:
446,198,121151,2,0,L|460:361,1,158,2|2,0:2|0:2,0:0:0:0:
202,347,121737,6,0,L|192:178,1,158,2|2,0:2|0:2,0:0:0:0:
213,155,122103,1,2,0:2:0:0:
243,130,122176,1,2,0:2:0:0:
280,117,122249,1,2,0:2:0:0:
319,115,122322,1,2,0:2:0:0:
474,290,122615,2,0,L|365:309,1,79,2|2,0:2|0:2,0:0:0:0:
254,253,122908,6,0,L|143:210,2,118.5,2|0|2,0:2|0:0|0:2,0:0:0:0:
339,231,123493,2,0,L|417:125,2,118.5,2|2|2,0:2|0:2|0:2,0:0:0:0:
197,184,124078,6,0,L|35:168,1,158,2|2,0:0|0:2,0:0:0:0:
118,118,124517,1,2,0:2:0:0:
261,99,124664,2,0,L|270:272,1,158,2|2,0:2|0:2,0:0:0:0:
30,144,125249,6,0,P|55:191|162:210,1,158,2|2,0:2|0:2,0:0:0:0:
230,187,125688,1,2,0:2:0:0:
310,161,125834,2,0,L|312:82,1,79,2|2,0:2|0:2,0:0:0:0:
227,70,126127,2,0,L|219:158,1,79,2|2,0:2|0:2,0:0:0:0:
363,222,126420,6,0,L|504:304,1,158,2|2,0:2|0:2,0:0:0:0:
414,343,126859,2,0,P|351:329|421:222,1,237,2|2,0:2|0:2,0:0:0:0:
492,211,127444,1,2,0:2:0:0:
348,131,127591,6,0,P|221:125|128:206,1,237,2|2,0:2|0:2,0:0:0:0:
225,184,128176,5,2,0:2:0:0:
261,195,128249,1,2,0:2:0:0:
276,230,128322,1,2,0:2:0:0:
260,265,128395,1,2,0:2:0:0:
224,276,128468,1,2,0:2:0:0:
138,189,128615,1,2,0:2:0:0:
364,50,128761,5,4,0:2:0:0:
438,68,128907,1,2,0:2:0:0:
471,137,129053,1,2,0:2:0:0:
440,207,129200,1,2,0:2:0:0:
367,228,129347,2,0,L|274:230,1,79,2|2,0:2|0:2,0:0:0:0:
367,228,129639,2,0,L|457:228,1,79,2|2,0:2|0:2,0:0:0:0:
299,336,129932,6,0,L|194:338,1,79,2|2,0:2|0:2,0:0:0:0:
199,313,130151,1,0,0:0:0:0:
220,337,130225,2,0,L|311:333,1,79,2|2,0:2|0:2,0:0:0:0:
441,340,130517,5,2,0:2:0:0:
476,273,130663,1,2,0:2:0:0:
439,207,130809,1,2,0:2:0:0:
363,204,130956,1,2,0:2:0:0:
121,191,131103,5,4,0:3:0:0:
256,192,131249,12,0,135786,0:2:0:0:
