osu file format v14

[General]
AudioFilename: audio.mp3
AudioLeadIn: 0
PreviewTime: 103005
Countdown: 0
SampleSet: Soft
StackLeniency: 0.7
Mode: 3
LetterboxInBreaks: 0
SpecialStyle: 0
WidescreenStoryboard: 1

[Editor]
DistanceSpacing: 1.7
BeatDivisor: 4
GridSize: 32
TimelineZoom: 2

[Metadata]
Title:Dreamin' attraction!!
TitleUnicode:Dreamin' attraction!!
Artist:Hino Isuka
ArtistUnicode:翡乃イスカ
Creator:DenYi
Version:Present!!
Source:Arcaea
Tags:4kmt Murumoo Niks AAAAFanboy rhythm video game instrumental electronic hardcore bofu 2015 大血戦 -the bms of fighters ultimate- GROOVE COASTER 4MAX DIAMOND GALAXY Groundbreaking 2015 Dancing Drive fa featured artist mappers' guild mpg bitpop happy
BeatmapID:4359140
BeatmapSetID:2081438

[Difficulty]
HPDrainRate:7.5
CircleSize:4
OverallDifficulty:7.5
ApproachRate:5
SliderMultiplier:1.4
SliderTickRate:1

[Events]
//Background and Video events
0,0,"bg.jpg",0,0
//Break Periods
//Storyboard Layer 0 (Background)
//Storyboard Layer 1 (Fail)
//Storyboard Layer 2 (Pass)
//Storyboard Layer 3 (Foreground)
//Storyboard Layer 4 (Overlay)
//Storyboard Sound Samples

[TimingPoints]
1152,292.682926829268,4,2,1,50,1,0
39786,-100,4,2,1,50,0,1
48566,-100,4,2,1,50,0,0
49151,-100,4,2,1,50,0,1
58517,-100,4,2,1,50,0,0
103005,-100,4,2,1,50,0,1
112371,-100,4,2,1,50,0,0
114712,-100,4,2,1,50,0,1
119395,-100,4,2,1,50,0,0

[HitObjects]
64,192,1152,5,0,0:0:0:0:
448,192,1444,1,0,0:0:0:0:
448,192,1737,1,0,0:0:0:0:
192,192,2030,128,0,2322:0:0:0:0:
448,192,2322,1,0,0:0:0:0:
320,192,2395,1,0,0:0:0:0:
64,192,2469,1,0,0:0:0:0:
192,192,2542,1,0,0:0:0:0:
320,192,2615,1,0,0:0:0:0:
64,192,2761,1,0,0:0:0:0:
448,192,2834,1,0,0:0:0:0:
320,192,2908,1,0,0:0:0:0:
192,192,2981,1,0,0:0:0:0:
64,192,3054,1,0,0:0:0:0:
192,192,3347,1,0,0:0:0:0:
320,192,3420,1,0,0:0:0:0:
64,192,3493,1,0,0:0:0:0:
192,192,3566,1,0,0:0:0:0:
448,192,3639,1,0,0:0:0:0:
320,192,3712,1,0,0:0:0:0:
192,192,3786,1,0,0:0:0:0:
64,192,3859,1,0,0:0:0:0:
320,192,3932,1,0,0:0:0:0:
448,192,4005,1,0,0:0:0:0:
192,192,4078,1,0,0:0:0:0:
320,192,4151,1,0,0:0:0:0:
64,192,4225,1,0,0:0:0:0:
192,192,4298,1,0,0:0:0:0:
448,192,4371,128,0,4664:0:0:0:0:
64,192,4664,1,0,0:0:0:0:
192,192,4737,1,0,0:0:0:0:
448,192,4810,1,0,0:0:0:0:
320,192,4883,1,0,0:0:0:0:
192,192,4956,1,0,0:0:0:0:
448,192,5103,1,0,0:0:0:0:
64,192,5176,1,0,0:0:0:0:
192,192,5249,1,0,0:0:0:0:
320,192,5322,1,0,0:0:0:0:
448,192,5395,1,0,0:0:0:0:
192,192,5688,1,0,0:0:0:0:
320,192,5761,1,0,0:0:0:0:
64,192,5834,1,0,0:0:0:0:
448,192,5908,1,0,0:0:0:0:
192,192,5981,1,0,0:0:0:0:
64,192,6054,1,0,0:0:0:0:
320,192,6127,1,0,0:0:0:0:
448,192,6200,1,0,0:0:0:0:
64,192,6273,1,0,0:0:0:0:
192,192,6347,1,0,0:0:0:0:
448,192,6420,1,0,0:0:0:0:
320,192,6493,1,0,0:0:0:0:
192,192,6566,1,0,0:0:0:0:
64,192,6639,1,0,0:0:0:0:
320,192,6712,1,0,0:0:0:0:
448,192,6786,1,0,0:0:0:0:
192,192,6859,1,0,0:0:0:0:
64,192,6932,1,0,0:0:0:0:
448,192,7005,1,0,0:0:0:0:
320,192,7078,1,0,0:0:0:0:
192,192,7151,1,0,0:0:0:0:
448,192,7225,1,0,0:0:0:0:
320,192,7298,1,0,0:0:0:0:
64,192,7444,1,0,0:0:0:0:
192,192,7517,1,0,0:0:0:0:
448,192,7591,1,0,0:0:0:0:
320,192,7664,1,0,0:0:0:0:
192,192,7737,1,0,0:0:0:0:
448,192,8030,1,0,0:0:0:0:
320,192,8103,1,0,0:0:0:0:
64,192,8176,1,0,0:0:0:0:
192,192,8249,1,0,0:0:0:0:
320,192,8322,1,0,0:0:0:0:
64,192,8395,1,0,0:0:0:0:
448,192,8469,1,0,0:0:0:0:
320,192,8542,1,0,0:0:0:0:
192,192,8615,1,0,0:0:0:0:
64,192,8688,1,0,0:0:0:0:
448,192,8761,1,0,0:0:0:0:
192,192,8834,1,0,0:0:0:0:
320,192,8908,1,0,0:0:0:0:
448,192,8981,1,0,0:0:0:0:
64,192,9054,128,0,9347:0:0:0:0:
192,192,9347,1,0,0:0:0:0:
320,192,9420,1,0,0:0:0:0:
448,192,9493,1,0,0:0:0:0:
64,192,9566,1,0,0:0:0:0:
320,192,9639,1,0,0:0:0:0:
192,192,9712,1,0,0:0:0:0:
448,192,9786,1,0,0:0:0:0:
320,192,9859,1,0,0:0:0:0:
64,192,9932,1,0,0:0:0:0:
192,192,10005,1,0,0:0:0:0:
320,192,10078,1,0,0:0:0:0:
448,192,10151,1,0,0:0:0:0:
64,192,10225,1,0,0:0:0:0:
320,192,10298,1,0,0:0:0:0:
192,192,10371,1,0,0:0:0:0:
64,192,10444,1,0,0:0:0:0:
320,192,10664,1,0,0:0:0:0:
448,192,10664,1,0,0:0:0:0:
64,192,10883,1,0,0:0:0:0:
192,192,10883,1,0,0:0:0:0:
64,192,11103,1,0,0:0:0:0:
448,192,11103,128,0,11395:0:0:0:0:
64,192,11395,1,0,0:0:0:0:
192,192,11469,1,0,0:0:0:0:
320,192,11542,1,0,0:0:0:0:
448,192,11615,1,0,0:0:0:0:
64,192,11688,1,0,0:0:0:0:
192,192,11688,1,0,0:0:0:0:
64,192,11834,128,0,11981:0:0:0:0:
448,192,11981,1,0,0:0:0:0:
320,192,11981,1,0,0:0:0:0:
320,192,12127,128,0,12273:0:0:0:0:
448,192,12273,1,0,0:0:0:0:
192,192,12273,1,0,0:0:0:0:
192,192,12420,128,0,12566:0:0:0:0:
64,192,12566,1,0,0:0:0:0:
320,192,12566,1,0,0:0:0:0:
320,192,12712,128,0,12859:0:0:0:0:
448,192,12859,1,0,0:0:0:0:
64,192,12859,1,0,0:0:0:0:
448,192,13005,128,0,13151:0:0:0:0:
64,192,13151,1,0,0:0:0:0:
192,192,13151,1,0,0:0:0:0:
64,192,13298,128,0,13444:0:0:0:0:
192,192,13444,1,0,0:0:0:0:
320,192,13444,1,0,0:0:0:0:
320,192,13591,1,0,0:0:0:0:
192,192,13664,1,0,0:0:0:0:
448,192,13737,1,0,0:0:0:0:
64,192,13737,1,0,0:0:0:0:
320,192,13883,1,0,0:0:0:0:
448,192,13883,1,0,0:0:0:0:
64,192,14030,1,0,0:0:0:0:
192,192,14030,1,0,0:0:0:0:
192,192,14176,128,0,14322:0:0:0:0:
64,192,14322,1,0,0:0:0:0:
320,192,14322,1,0,0:0:0:0:
320,192,14469,128,0,14615:0:0:0:0:
192,192,14615,1,0,0:0:0:0:
448,192,14615,1,0,0:0:0:0:
448,192,14761,128,0,14908:0:0:0:0:
320,192,14908,1,0,0:0:0:0:
64,192,14908,1,0,0:0:0:0:
64,192,15054,128,0,15200:0:0:0:0:
448,192,15200,1,0,0:0:0:0:
320,192,15200,1,0,0:0:0:0:
320,192,15347,128,0,15493:0:0:0:0:
64,192,15493,1,0,0:0:0:0:
192,192,15493,1,0,0:0:0:0:
192,192,15639,1,0,0:0:0:0:
320,192,15712,1,0,0:0:0:0:
64,192,15786,1,0,0:0:0:0:
448,192,15786,1,0,0:0:0:0:
320,192,15932,1,0,0:0:0:0:
192,192,16005,1,0,0:0:0:0:
64,192,16078,1,0,0:0:0:0:
448,192,16078,1,0,0:0:0:0:
64,192,16225,1,0,0:0:0:0:
192,192,16225,1,0,0:0:0:0:
320,192,16371,1,0,0:0:0:0:
448,192,16371,1,0,0:0:0:0:
64,192,16517,1,0,0:0:0:0:
192,192,16591,1,0,0:0:0:0:
320,192,16664,1,0,0:0:0:0:
448,192,16664,1,0,0:0:0:0:
64,192,16737,1,0,0:0:0:0:
320,192,16810,1,0,0:0:0:0:
192,192,16883,1,0,0:0:0:0:
448,192,16956,1,0,0:0:0:0:
320,192,17030,1,0,0:0:0:0:
64,192,17103,1,0,0:0:0:0:
192,192,17176,1,0,0:0:0:0:
448,192,17249,1,0,0:0:0:0:
320,192,17249,1,0,0:0:0:0:
64,192,17322,1,0,0:0:0:0:
448,192,17395,1,0,0:0:0:0:
64,192,17469,1,0,0:0:0:0:
320,192,17542,1,0,0:0:0:0:
448,192,17542,1,0,0:0:0:0:
320,192,17688,1,0,0:0:0:0:
192,192,17761,1,0,0:0:0:0:
64,192,17834,1,0,0:0:0:0:
448,192,17908,1,0,0:0:0:0:
192,192,17981,1,0,0:0:0:0:
320,192,18054,1,0,0:0:0:0:
64,192,18127,1,0,0:0:0:0:
448,192,18127,1,0,0:0:0:0:
192,192,18200,1,0,0:0:0:0:
448,192,18273,1,0,0:0:0:0:
320,192,18347,1,0,0:0:0:0:
64,192,18420,1,0,0:0:0:0:
192,192,18420,1,0,0:0:0:0:
448,192,18493,1,0,0:0:0:0:
192,192,18566,1,0,0:0:0:0:
320,192,18639,1,0,0:0:0:0:
64,192,18712,5,0,0:0:0:0:
448,192,18712,1,0,0:0:0:0:
192,192,18786,1,0,0:0:0:0:
320,192,18859,1,0,0:0:0:0:
64,192,18932,1,0,0:0:0:0:
192,192,19005,1,0,0:0:0:0:
448,192,19005,1,0,0:0:0:0:
320,192,19078,1,0,0:0:0:0:
192,192,19151,1,0,0:0:0:0:
64,192,19225,1,0,0:0:0:0:
320,192,19298,1,0,0:0:0:0:
448,192,19298,1,0,0:0:0:0:
192,192,19371,1,0,0:0:0:0:
64,192,19444,1,0,0:0:0:0:
320,192,19517,1,0,0:0:0:0:
64,192,19591,1,0,0:0:0:0:
448,192,19591,1,0,0:0:0:0:
192,192,19664,1,0,0:0:0:0:
320,192,19737,1,0,0:0:0:0:
64,192,19810,1,0,0:0:0:0:
320,192,19883,128,0,20103:0:0:0:0:
448,192,19883,128,0,20103:0:0:0:0:
64,192,20030,1,0,0:0:0:0:
192,192,20176,128,0,20395:0:0:0:0:
320,192,20176,128,0,20395:0:0:0:0:
448,192,20322,1,0,0:0:0:0:
64,192,20469,128,0,20688:0:0:0:0:
192,192,20469,128,0,20688:0:0:0:0:
320,192,20615,1,0,0:0:0:0:
64,192,20761,1,0,0:0:0:0:
448,192,20761,1,0,0:0:0:0:
448,192,21054,128,0,21347:0:0:0:0:
320,192,21054,1,0,0:0:0:0:
64,192,21347,1,0,0:0:0:0:
192,192,21420,1,0,0:0:0:0:
320,192,21493,1,0,0:0:0:0:
448,192,21566,1,0,0:0:0:0:
192,192,21639,1,0,0:0:0:0:
64,192,21712,1,0,0:0:0:0:
320,192,21786,1,0,0:0:0:0:
192,192,21859,1,0,0:0:0:0:
448,192,21932,1,0,0:0:0:0:
64,192,21932,1,0,0:0:0:0:
448,192,22078,1,0,0:0:0:0:
448,192,22225,1,0,0:0:0:0:
64,192,22225,128,0,22517:0:0:0:0:
192,192,22371,128,0,22517:0:0:0:0:
320,192,22517,1,0,0:0:0:0:
448,192,22517,1,0,0:0:0:0:
192,192,22664,1,0,0:0:0:0:
320,192,22737,1,0,0:0:0:0:
192,192,22810,1,0,0:0:0:0:
64,192,22810,128,0,22956:0:0:0:0:
448,192,22956,128,0,23103:0:0:0:0:
320,192,23103,1,0,0:0:0:0:
192,192,23103,128,0,23249:0:0:0:0:
448,192,23249,1,0,0:0:0:0:
64,192,23322,1,0,0:0:0:0:
320,192,23395,128,0,23542:0:0:0:0:
448,192,23395,128,0,23542:0:0:0:0:
192,192,23542,1,0,0:0:0:0:
192,192,23688,128,0,23834:0:0:0:0:
320,192,23688,128,0,23834:0:0:0:0:
64,192,23834,1,0,0:0:0:0:
192,192,23981,128,0,24127:0:0:0:0:
64,192,23981,128,0,24127:0:0:0:0:
448,192,24127,1,0,0:0:0:0:
448,192,24273,1,0,0:0:0:0:
320,192,24273,1,0,0:0:0:0:
64,192,24347,1,0,0:0:0:0:
192,192,24420,1,0,0:0:0:0:
320,192,24493,1,0,0:0:0:0:
448,192,24566,1,0,0:0:0:0:
192,192,24639,1,0,0:0:0:0:
448,192,24712,1,0,0:0:0:0:
192,192,24786,1,0,0:0:0:0:
320,192,24859,1,0,0:0:0:0:
64,192,24932,1,0,0:0:0:0:
320,192,25005,1,0,0:0:0:0:
64,192,25078,1,0,0:0:0:0:
192,192,25151,1,0,0:0:0:0:
320,192,25225,1,0,0:0:0:0:
448,192,25298,1,0,0:0:0:0:
192,192,25371,1,0,0:0:0:0:
64,192,25444,1,0,0:0:0:0:
320,192,25517,1,0,0:0:0:0:
192,192,25591,1,0,0:0:0:0:
320,192,25664,1,0,0:0:0:0:
64,192,25737,1,0,0:0:0:0:
448,192,25737,1,0,0:0:0:0:
64,192,25883,128,0,26030:0:0:0:0:
320,192,26030,1,0,0:0:0:0:
448,192,26103,1,0,0:0:0:0:
192,192,26176,1,0,0:0:0:0:
320,192,26249,1,0,0:0:0:0:
64,192,26322,1,0,0:0:0:0:
448,192,26395,1,0,0:0:0:0:
192,192,26469,1,0,0:0:0:0:
64,192,26542,1,0,0:0:0:0:
320,192,26615,1,0,0:0:0:0:
448,192,26615,1,0,0:0:0:0:
320,192,26761,128,0,26908:0:0:0:0:
192,192,26908,1,0,0:0:0:0:
448,192,26981,1,0,0:0:0:0:
64,192,27054,1,0,0:0:0:0:
320,192,27127,1,0,0:0:0:0:
192,192,27200,1,0,0:0:0:0:
448,192,27273,1,0,0:0:0:0:
64,192,27347,1,0,0:0:0:0:
192,192,27420,1,0,0:0:0:0:
448,192,27493,1,0,0:0:0:0:
320,192,27566,1,0,0:0:0:0:
192,192,27639,1,0,0:0:0:0:
64,192,27712,1,0,0:0:0:0:
320,192,27786,128,0,27932:0:0:0:0:
448,192,27786,1,0,0:0:0:0:
192,192,27932,128,0,28078:0:0:0:0:
64,192,28078,5,0,0:0:0:0:
448,192,28078,1,0,0:0:0:0:
320,192,28151,1,0,0:0:0:0:
192,192,28225,1,0,0:0:0:0:
448,192,28298,1,0,0:0:0:0:
64,192,28371,1,0,0:0:0:0:
192,192,28444,1,0,0:0:0:0:
320,192,28517,1,0,0:0:0:0:
448,192,28591,1,0,0:0:0:0:
192,192,28664,1,0,0:0:0:0:
64,192,28737,1,0,0:0:0:0:
320,192,28810,1,0,0:0:0:0:
448,192,28883,1,0,0:0:0:0:
64,192,28956,1,0,0:0:0:0:
192,192,28956,1,0,0:0:0:0:
320,192,29030,1,0,0:0:0:0:
64,192,29103,1,0,0:0:0:0:
448,192,29103,1,0,0:0:0:0:
192,192,29176,1,0,0:0:0:0:
320,192,29249,128,0,29395:0:0:0:0:
448,192,29249,128,0,29395:0:0:0:0:
192,192,29542,128,0,29688:0:0:0:0:
320,192,29542,128,0,29688:0:0:0:0:
64,192,29834,128,0,29981:0:0:0:0:
192,192,29834,128,0,29981:0:0:0:0:
64,192,30127,1,0,0:0:0:0:
448,192,30127,1,0,0:0:0:0:
448,192,30273,1,0,0:0:0:0:
192,192,30420,128,0,30859:0:0:0:0:
320,192,30420,128,0,30859:0:0:0:0:
448,192,30859,1,0,0:0:0:0:
64,192,31005,1,0,0:0:0:0:
192,192,31005,1,0,0:0:0:0:
448,192,31078,1,0,0:0:0:0:
320,192,31151,1,0,0:0:0:0:
192,192,31225,1,0,0:0:0:0:
64,192,31298,1,0,0:0:0:0:
448,192,31444,1,0,0:0:0:0:
64,192,31444,1,0,0:0:0:0:
192,192,31591,1,0,0:0:0:0:
320,192,31591,1,0,0:0:0:0:
64,192,31737,1,0,0:0:0:0:
448,192,31737,1,0,0:0:0:0:
192,192,31810,1,0,0:0:0:0:
448,192,31956,1,0,0:0:0:0:
64,192,31956,1,0,0:0:0:0:
320,192,32030,1,0,0:0:0:0:
64,192,32176,1,0,0:0:0:0:
192,192,32176,1,0,0:0:0:0:
192,192,32322,1,0,0:0:0:0:
320,192,32322,1,0,0:0:0:0:
320,192,32469,1,0,0:0:0:0:
448,192,32469,1,0,0:0:0:0:
64,192,32615,1,0,0:0:0:0:
192,192,32615,1,0,0:0:0:0:
64,192,32761,1,0,0:0:0:0:
448,192,32761,1,0,0:0:0:0:
320,192,32834,1,0,0:0:0:0:
192,192,32908,1,0,0:0:0:0:
320,192,32981,1,0,0:0:0:0:
448,192,33054,1,0,0:0:0:0:
64,192,33200,1,0,0:0:0:0:
192,192,33273,1,0,0:0:0:0:
320,192,33347,1,0,0:0:0:0:
448,192,33347,1,0,0:0:0:0:
64,192,33420,1,0,0:0:0:0:
448,192,33493,1,0,0:0:0:0:
192,192,33639,1,0,0:0:0:0:
64,192,33639,1,0,0:0:0:0:
320,192,33786,1,0,0:0:0:0:
192,192,33786,1,0,0:0:0:0:
448,192,33932,1,0,0:0:0:0:
320,192,33932,128,0,34078:0:0:0:0:
64,192,34078,1,0,0:0:0:0:
448,192,34078,1,0,0:0:0:0:
192,192,34151,1,0,0:0:0:0:
320,192,34298,1,0,0:0:0:0:
64,192,34371,1,0,0:0:0:0:
448,192,34371,1,0,0:0:0:0:
192,192,34517,128,0,34664:0:0:0:0:
320,192,34664,1,0,0:0:0:0:
448,192,34664,1,0,0:0:0:0:
64,192,34810,1,0,0:0:0:0:
448,192,34810,1,0,0:0:0:0:
192,192,34883,1,0,0:0:0:0:
320,192,34956,1,0,0:0:0:0:
448,192,35030,1,0,0:0:0:0:
64,192,35103,1,0,0:0:0:0:
192,192,35103,128,0,35249:0:0:0:0:
320,192,35249,128,0,35395:0:0:0:0:
448,192,35395,1,0,0:0:0:0:
64,192,35395,128,0,35542:0:0:0:0:
192,192,35542,128,0,35688:0:0:0:0:
320,192,35688,1,0,0:0:0:0:
448,192,35688,128,0,35834:0:0:0:0:
64,192,35834,128,0,35981:0:0:0:0:
192,192,35981,1,0,0:0:0:0:
320,192,35981,128,0,36127:0:0:0:0:
448,192,36127,128,0,36273:0:0:0:0:
64,192,36273,1,0,0:0:0:0:
192,192,36273,128,0,36420:0:0:0:0:
448,192,36420,128,0,36566:0:0:0:0:
320,192,36566,1,0,0:0:0:0:
64,192,36566,128,0,36712:0:0:0:0:
192,192,36712,128,0,36859:0:0:0:0:
448,192,36859,1,0,0:0:0:0:
320,192,36859,128,0,37005:0:0:0:0:
64,192,37005,128,0,37151:0:0:0:0:
192,192,37151,1,0,0:0:0:0:
448,192,37151,128,0,37298:0:0:0:0:
320,192,37298,128,0,37444:0:0:0:0:
64,192,37444,1,0,0:0:0:0:
192,192,37444,1,0,0:0:0:0:
448,192,37517,1,0,0:0:0:0:
320,192,37591,1,0,0:0:0:0:
192,192,37664,1,0,0:0:0:0:
64,192,37737,1,0,0:0:0:0:
448,192,37737,1,0,0:0:0:0:
320,192,37810,1,0,0:0:0:0:
64,192,37883,1,0,0:0:0:0:
192,192,37956,1,0,0:0:0:0:
320,192,38030,1,0,0:0:0:0:
448,192,38030,1,0,0:0:0:0:
64,192,38103,1,0,0:0:0:0:
320,192,38176,1,0,0:0:0:0:
192,192,38249,1,0,0:0:0:0:
64,192,38322,1,0,0:0:0:0:
448,192,38322,1,0,0:0:0:0:
320,192,38395,1,0,0:0:0:0:
192,192,38469,1,0,0:0:0:0:
448,192,38542,1,0,0:0:0:0:
64,192,38615,128,0,39200:0:0:0:0:
448,192,39200,128,0,39493:0:0:0:0:
320,192,39493,1,0,0:0:0:0:
192,192,39493,1,0,0:0:0:0:
192,192,39639,1,0,0:0:0:0:
64,192,39639,1,0,0:0:0:0:
448,192,39786,1,0,0:0:0:0:
320,192,39786,1,0,0:0:0:0:
64,192,39786,128,0,39932:0:0:0:0:
320,192,39932,1,0,0:0:0:0:
192,192,40005,128,0,40151:0:0:0:0:
448,192,40078,1,0,0:0:0:0:
320,192,40225,128,0,40371:0:0:0:0:
64,192,40371,1,0,0:0:0:0:
448,192,40371,1,0,0:0:0:0:
192,192,40444,1,0,0:0:0:0:
320,192,40517,1,0,0:0:0:0:
448,192,40591,1,0,0:0:0:0:
64,192,40664,1,0,0:0:0:0:
192,192,40664,1,0,0:0:0:0:
320,192,40810,1,0,0:0:0:0:
448,192,40956,1,0,0:0:0:0:
64,192,40956,128,0,41103:0:0:0:0:
192,192,41103,1,0,0:0:0:0:
320,192,41249,128,0,41395:0:0:0:0:
448,192,41249,1,0,0:0:0:0:
192,192,41395,128,0,41542:0:0:0:0:
64,192,41542,1,0,0:0:0:0:
448,192,41542,128,0,41688:0:0:0:0:
192,192,41688,1,0,0:0:0:0:
320,192,41761,1,0,0:0:0:0:
448,192,41834,1,0,0:0:0:0:
64,192,41834,128,0,42127:0:0:0:0:
192,192,41981,1,0,0:0:0:0:
448,192,42127,1,0,0:0:0:0:
320,192,42127,128,0,42420:0:0:0:0:
192,192,42273,1,0,0:0:0:0:
64,192,42420,1,0,0:0:0:0:
448,192,42420,128,0,42712:0:0:0:0:
320,192,42566,1,0,0:0:0:0:
64,192,42712,1,0,0:0:0:0:
192,192,42712,128,0,42859:0:0:0:0:
320,192,42859,128,0,43005:0:0:0:0:
448,192,43005,1,0,0:0:0:0:
64,192,43005,128,0,43151:0:0:0:0:
192,192,43151,128,0,43298:0:0:0:0:
448,192,43298,1,0,0:0:0:0:
320,192,43371,1,0,0:0:0:0:
192,192,43444,1,0,0:0:0:0:
64,192,43517,1,0,0:0:0:0:
320,192,43591,1,0,0:0:0:0:
448,192,43591,1,0,0:0:0:0:
192,192,43737,128,0,44030:0:0:0:0:
320,192,43883,1,0,0:0:0:0:
64,192,44030,1,0,0:0:0:0:
448,192,44030,1,0,0:0:0:0:
192,192,44176,1,0,0:0:0:0:
64,192,44176,1,0,0:0:0:0:
320,192,44322,1,0,0:0:0:0:
192,192,44395,1,0,0:0:0:0:
448,192,44469,1,0,0:0:0:0:
320,192,44542,1,0,0:0:0:0:
192,192,44615,1,0,0:0:0:0:
64,192,44688,1,0,0:0:0:0:
448,192,44761,1,0,0:0:0:0:
320,192,44761,1,0,0:0:0:0:
448,192,44908,128,0,45054:0:0:0:0:
64,192,45054,1,0,0:0:0:0:
192,192,45127,1,0,0:0:0:0:
320,192,45200,1,0,0:0:0:0:
448,192,45273,1,0,0:0:0:0:
192,192,45347,1,0,0:0:0:0:
64,192,45347,1,0,0:0:0:0:
192,192,45493,1,0,0:0:0:0:
320,192,45566,1,0,0:0:0:0:
448,192,45639,1,0,0:0:0:0:
64,192,45639,128,0,45786:0:0:0:0:
192,192,45786,1,0,0:0:0:0:
320,192,45859,128,0,46005:0:0:0:0:
64,192,45932,1,0,0:0:0:0:
192,192,46078,128,0,46225:0:0:0:0:
448,192,46225,1,0,0:0:0:0:
320,192,46298,1,0,0:0:0:0:
192,192,46371,1,0,0:0:0:0:
64,192,46444,1,0,0:0:0:0:
448,192,46517,1,0,0:0:0:0:
320,192,46517,1,0,0:0:0:0:
448,192,46664,128,0,46810:0:0:0:0:
192,192,46810,1,0,0:0:0:0:
64,192,46810,128,0,46956:0:0:0:0:
320,192,46956,1,0,0:0:0:0:
192,192,47030,128,0,47176:0:0:0:0:
448,192,47103,1,0,0:0:0:0:
320,192,47249,128,0,47395:0:0:0:0:
64,192,47249,1,0,0:0:0:0:
192,192,47395,1,0,0:0:0:0:
448,192,47395,1,0,0:0:0:0:
448,192,47542,1,0,0:0:0:0:
320,192,47542,1,0,0:0:0:0:
192,192,47688,1,0,0:0:0:0:
64,192,47688,1,0,0:0:0:0:
64,192,47834,1,0,0:0:0:0:
448,192,47834,1,0,0:0:0:0:
192,192,47981,1,0,0:0:0:0:
320,192,48054,1,0,0:0:0:0:
64,192,48127,1,0,0:0:0:0:
192,192,48200,1,0,0:0:0:0:
320,192,48273,1,0,0:0:0:0:
448,192,48273,1,0,0:0:0:0:
192,192,48420,1,0,0:0:0:0:
320,192,48493,1,0,0:0:0:0:
64,192,48566,1,0,0:0:0:0:
448,192,48566,1,0,0:0:0:0:
192,192,48639,1,0,0:0:0:0:
448,192,48712,1,0,0:0:0:0:
320,192,48786,1,0,0:0:0:0:
64,192,48859,1,0,0:0:0:0:
192,192,48859,1,0,0:0:0:0:
448,192,48932,1,0,0:0:0:0:
64,192,49005,1,0,0:0:0:0:
192,192,49078,1,0,0:0:0:0:
448,192,49151,1,0,0:0:0:0:
320,192,49151,128,0,49298:0:0:0:0:
64,192,49298,1,0,0:0:0:0:
192,192,49371,128,0,49517:0:0:0:0:
448,192,49444,1,0,0:0:0:0:
64,192,49591,128,0,49737:0:0:0:0:
448,192,49737,1,0,0:0:0:0:
320,192,49810,1,0,0:0:0:0:
192,192,49883,1,0,0:0:0:0:
64,192,49956,1,0,0:0:0:0:
320,192,50030,1,0,0:0:0:0:
448,192,50030,1,0,0:0:0:0:
192,192,50176,1,0,0:0:0:0:
64,192,50322,1,0,0:0:0:0:
448,192,50322,128,0,50469:0:0:0:0:
320,192,50469,1,0,0:0:0:0:
192,192,50615,128,0,50761:0:0:0:0:
64,192,50615,1,0,0:0:0:0:
320,192,50761,128,0,50908:0:0:0:0:
64,192,50908,128,0,51054:0:0:0:0:
448,192,50908,1,0,0:0:0:0:
320,192,51054,1,0,0:0:0:0:
192,192,51127,1,0,0:0:0:0:
64,192,51200,1,0,0:0:0:0:
448,192,51200,128,0,51493:0:0:0:0:
320,192,51347,1,0,0:0:0:0:
64,192,51493,1,0,0:0:0:0:
192,192,51493,128,0,51786:0:0:0:0:
320,192,51639,1,0,0:0:0:0:
64,192,51786,1,0,0:0:0:0:
448,192,51786,1,0,0:0:0:0:
448,192,51932,128,0,52078:0:0:0:0:
192,192,52078,1,0,0:0:0:0:
64,192,52078,128,0,52225:0:0:0:0:
448,192,52225,1,0,0:0:0:0:
320,192,52298,128,0,52444:0:0:0:0:
64,192,52371,1,0,0:0:0:0:
192,192,52517,128,0,52664:0:0:0:0:
320,192,52664,1,0,0:0:0:0:
448,192,52664,1,0,0:0:0:0:
192,192,52810,1,0,0:0:0:0:
448,192,52810,1,0,0:0:0:0:
64,192,52956,1,0,0:0:0:0:
320,192,52956,1,0,0:0:0:0:
64,192,53103,1,0,0:0:0:0:
192,192,53103,1,0,0:0:0:0:
448,192,53249,1,0,0:0:0:0:
320,192,53322,1,0,0:0:0:0:
192,192,53395,1,0,0:0:0:0:
64,192,53469,1,0,0:0:0:0:
320,192,53542,1,0,0:0:0:0:
448,192,53542,1,0,0:0:0:0:
192,192,53688,1,0,0:0:0:0:
320,192,53761,1,0,0:0:0:0:
64,192,53834,1,0,0:0:0:0:
448,192,53834,1,0,0:0:0:0:
64,192,53981,128,0,54127:0:0:0:0:
448,192,54127,1,0,0:0:0:0:
320,192,54200,1,0,0:0:0:0:
192,192,54273,1,0,0:0:0:0:
64,192,54347,1,0,0:0:0:0:
320,192,54420,1,0,0:0:0:0:
448,192,54420,1,0,0:0:0:0:
448,192,54566,1,0,0:0:0:0:
192,192,54712,1,0,0:0:0:0:
320,192,54712,1,0,0:0:0:0:
192,192,54859,1,0,0:0:0:0:
64,192,55005,1,0,0:0:0:0:
448,192,55005,1,0,0:0:0:0:
448,192,55151,128,0,55298:0:0:0:0:
64,192,55298,1,0,0:0:0:0:
192,192,55371,1,0,0:0:0:0:
320,192,55444,1,0,0:0:0:0:
448,192,55517,1,0,0:0:0:0:
64,192,55591,1,0,0:0:0:0:
192,192,55591,1,0,0:0:0:0:
320,192,55737,1,0,0:0:0:0:
448,192,55810,1,0,0:0:0:0:
192,192,55883,1,0,0:0:0:0:
320,192,55956,1,0,0:0:0:0:
64,192,56030,1,0,0:0:0:0:
192,192,56103,1,0,0:0:0:0:
320,192,56176,1,0,0:0:0:0:
448,192,56176,128,0,56322:0:0:0:0:
64,192,56322,1,0,0:0:0:0:
192,192,56395,1,0,0:0:0:0:
320,192,56469,1,0,0:0:0:0:
448,192,56469,1,0,0:0:0:0:
64,192,56615,128,0,56761:0:0:0:0:
192,192,56615,1,0,0:0:0:0:
448,192,56761,1,0,0:0:0:0:
320,192,56834,1,0,0:0:0:0:
192,192,56908,1,0,0:0:0:0:
64,192,56908,1,0,0:0:0:0:
320,192,57054,1,0,0:0:0:0:
448,192,57054,1,0,0:0:0:0:
192,192,57200,1,0,0:0:0:0:
320,192,57200,1,0,0:0:0:0:
64,192,57347,1,0,0:0:0:0:
192,192,57347,1,0,0:0:0:0:
448,192,57493,1,0,0:0:0:0:
320,192,57542,1,0,0:0:0:0:
192,192,57591,1,0,0:0:0:0:
64,192,57639,1,0,0:0:0:0:
64,192,57786,1,0,0:0:0:0:
192,192,57834,1,0,0:0:0:0:
320,192,57883,1,0,0:0:0:0:
448,192,57932,1,0,0:0:0:0:
64,192,58005,1,0,0:0:0:0:
320,192,58078,1,0,0:0:0:0:
192,192,58151,1,0,0:0:0:0:
448,192,58225,1,0,0:0:0:0:
320,192,58298,1,0,0:0:0:0:
64,192,58371,1,0,0:0:0:0:
192,192,58444,1,0,0:0:0:0:
320,192,58517,1,0,0:0:0:0:
448,192,58591,1,0,0:0:0:0:
64,192,58664,1,0,0:0:0:0:
448,192,58737,1,0,0:0:0:0:
192,192,58810,1,0,0:0:0:0:
320,192,58883,1,0,0:0:0:0:
64,192,58956,1,0,0:0:0:0:
448,192,59030,1,0,0:0:0:0:
320,192,59103,1,0,0:0:0:0:
192,192,59176,1,0,0:0:0:0:
448,192,59249,1,0,0:0:0:0:
64,192,59322,1,0,0:0:0:0:
192,192,59395,1,0,0:0:0:0:
320,192,59469,1,0,0:0:0:0:
448,192,59542,1,0,0:0:0:0:
192,192,59615,1,0,0:0:0:0:
320,192,59688,1,0,0:0:0:0:
64,192,59761,1,0,0:0:0:0:
448,192,59834,1,0,0:0:0:0:
320,192,59908,1,0,0:0:0:0:
192,192,59981,1,0,0:0:0:0:
448,192,60054,1,0,0:0:0:0:
64,192,60127,1,0,0:0:0:0:
320,192,60200,1,0,0:0:0:0:
192,192,60273,1,0,0:0:0:0:
64,192,60273,1,0,0:0:0:0:
320,192,60347,1,0,0:0:0:0:
448,192,60420,1,0,0:0:0:0:
64,192,60493,1,0,0:0:0:0:
192,192,60566,1,0,0:0:0:0:
320,192,60566,1,0,0:0:0:0:
448,192,60639,1,0,0:0:0:0:
64,192,60712,1,0,0:0:0:0:
192,192,60786,1,0,0:0:0:0:
320,192,60859,1,0,0:0:0:0:
448,192,60859,1,0,0:0:0:0:
448,192,61005,1,0,0:0:0:0:
192,192,61151,1,0,0:0:0:0:
320,192,61151,1,0,0:0:0:0:
192,192,61298,1,0,0:0:0:0:
64,192,61444,1,0,0:0:0:0:
448,192,61444,1,0,0:0:0:0:
448,192,61591,1,0,0:0:0:0:
192,192,61737,1,0,0:0:0:0:
320,192,61737,1,0,0:0:0:0:
192,192,61883,1,0,0:0:0:0:
192,192,62030,1,0,0:0:0:0:
320,192,62030,1,0,0:0:0:0:
320,192,62176,1,0,0:0:0:0:
64,192,62322,1,0,0:0:0:0:
448,192,62322,1,0,0:0:0:0:
64,192,62469,1,0,0:0:0:0:
192,192,62615,1,0,0:0:0:0:
320,192,62615,1,0,0:0:0:0:
320,192,62761,1,0,0:0:0:0:
64,192,62908,1,0,0:0:0:0:
448,192,62908,1,0,0:0:0:0:
448,192,63054,1,0,0:0:0:0:
64,192,63200,1,0,0:0:0:0:
192,192,63200,1,0,0:0:0:0:
192,192,63347,1,0,0:0:0:0:
448,192,63493,1,0,0:0:0:0:
320,192,63493,1,0,0:0:0:0:
320,192,63639,1,0,0:0:0:0:
64,192,63786,1,0,0:0:0:0:
448,192,63786,1,0,0:0:0:0:
64,192,63932,1,0,0:0:0:0:
192,192,64078,1,0,0:0:0:0:
320,192,64078,1,0,0:0:0:0:
192,192,64225,1,0,0:0:0:0:
320,192,64371,1,0,0:0:0:0:
448,192,64371,1,0,0:0:0:0:
320,192,64517,1,0,0:0:0:0:
64,192,64664,1,0,0:0:0:0:
448,192,64664,1,0,0:0:0:0:
448,192,64810,1,0,0:0:0:0:
192,192,64956,1,0,0:0:0:0:
64,192,64956,1,0,0:0:0:0:
192,192,65103,1,0,0:0:0:0:
320,192,65249,1,0,0:0:0:0:
448,192,65249,1,0,0:0:0:0:
64,192,65322,1,0,0:0:0:0:
192,192,65395,1,0,0:0:0:0:
320,192,65469,1,0,0:0:0:0:
448,192,65542,1,0,0:0:0:0:
64,192,65542,1,0,0:0:0:0:
64,192,65688,1,0,0:0:0:0:
192,192,65834,1,0,0:0:0:0:
448,192,65834,1,0,0:0:0:0:
192,192,65981,1,0,0:0:0:0:
64,192,66127,1,0,0:0:0:0:
320,192,66127,1,0,0:0:0:0:
320,192,66273,1,0,0:0:0:0:
64,192,66420,1,0,0:0:0:0:
448,192,66420,1,0,0:0:0:0:
448,192,66566,1,0,0:0:0:0:
192,192,66712,1,0,0:0:0:0:
320,192,66712,1,0,0:0:0:0:
192,192,66859,1,0,0:0:0:0:
320,192,67005,1,0,0:0:0:0:
448,192,67005,1,0,0:0:0:0:
320,192,67151,1,0,0:0:0:0:
64,192,67298,1,0,0:0:0:0:
448,192,67298,1,0,0:0:0:0:
64,192,67444,1,0,0:0:0:0:
192,192,67591,1,0,0:0:0:0:
320,192,67591,1,0,0:0:0:0:
192,192,67737,1,0,0:0:0:0:
64,192,67883,1,0,0:0:0:0:
448,192,67883,1,0,0:0:0:0:
448,192,68030,1,0,0:0:0:0:
320,192,68176,1,0,0:0:0:0:
64,192,68176,1,0,0:0:0:0:
320,192,68322,1,0,0:0:0:0:
192,192,68469,1,0,0:0:0:0:
448,192,68469,1,0,0:0:0:0:
192,192,68615,1,0,0:0:0:0:
64,192,68761,1,0,0:0:0:0:
448,192,68761,1,0,0:0:0:0:
320,192,68834,1,0,0:0:0:0:
192,192,68908,1,0,0:0:0:0:
64,192,68981,1,0,0:0:0:0:
320,192,69054,128,0,69200:0:0:0:0:
448,192,69054,128,0,69200:0:0:0:0:
192,192,69200,1,0,0:0:0:0:
64,192,69347,128,0,69493:0:0:0:0:
448,192,69347,128,0,69493:0:0:0:0:
320,192,69493,1,0,0:0:0:0:
64,192,69639,1,0,0:0:0:0:
192,192,69639,1,0,0:0:0:0:
448,192,69712,1,0,0:0:0:0:
320,192,69712,1,0,0:0:0:0:
192,192,69859,1,0,0:0:0:0:
320,192,69859,1,0,0:0:0:0:
64,192,70005,1,0,0:0:0:0:
192,192,70005,1,0,0:0:0:0:
448,192,70078,1,0,0:0:0:0:
320,192,70225,1,0,0:0:0:0:
64,192,70225,128,0,70517:0:0:0:0:
448,192,70517,1,0,0:0:0:0:
192,192,70517,1,0,0:0:0:0:
320,192,70591,1,0,0:0:0:0:
64,192,70664,1,0,0:0:0:0:
192,192,70737,1,0,0:0:0:0:
320,192,70810,1,0,0:0:0:0:
448,192,70810,1,0,0:0:0:0:
64,192,70956,1,0,0:0:0:0:
192,192,71030,1,0,0:0:0:0:
448,192,71030,1,0,0:0:0:0:
192,192,71249,1,0,0:0:0:0:
320,192,71249,1,0,0:0:0:0:
64,192,71395,1,0,0:0:0:0:
192,192,71395,1,0,0:0:0:0:
448,192,71542,1,0,0:0:0:0:
64,192,71615,1,0,0:0:0:0:
320,192,71615,1,0,0:0:0:0:
192,192,71834,1,0,0:0:0:0:
320,192,71834,1,0,0:0:0:0:
448,192,71908,1,0,0:0:0:0:
64,192,71981,1,0,0:0:0:0:
192,192,72054,1,0,0:0:0:0:
448,192,72127,1,0,0:0:0:0:
320,192,72200,1,0,0:0:0:0:
192,192,72273,1,0,0:0:0:0:
64,192,72273,1,0,0:0:0:0:
448,192,72347,1,0,0:0:0:0:
64,192,72420,1,0,0:0:0:0:
192,192,72493,1,0,0:0:0:0:
448,192,72566,1,0,0:0:0:0:
320,192,72566,128,0,72786:0:0:0:0:
64,192,72786,1,0,0:0:0:0:
192,192,72786,1,0,0:0:0:0:
448,192,72859,1,0,0:0:0:0:
192,192,73005,1,0,0:0:0:0:
320,192,73005,1,0,0:0:0:0:
64,192,73078,1,0,0:0:0:0:
448,192,73151,1,0,0:0:0:0:
192,192,73225,1,0,0:0:0:0:
320,192,73298,1,0,0:0:0:0:
448,192,73371,1,0,0:0:0:0:
64,192,73444,1,0,0:0:0:0:
320,192,73517,1,0,0:0:0:0:
192,192,73591,1,0,0:0:0:0:
64,192,73664,1,0,0:0:0:0:
448,192,73737,1,0,0:0:0:0:
192,192,73834,1,0,0:0:0:0:
448,192,73932,1,0,0:0:0:0:
64,192,74030,1,0,0:0:0:0:
320,192,74030,1,0,0:0:0:0:
192,192,74176,1,0,0:0:0:0:
320,192,74176,1,0,0:0:0:0:
448,192,74322,1,0,0:0:0:0:
64,192,74322,1,0,0:0:0:0:
192,192,74395,1,0,0:0:0:0:
448,192,74469,1,0,0:0:0:0:
320,192,74542,1,0,0:0:0:0:
64,192,74615,1,0,0:0:0:0:
192,192,74615,1,0,0:0:0:0:
448,192,74688,1,0,0:0:0:0:
64,192,74761,1,0,0:0:0:0:
192,192,74834,1,0,0:0:0:0:
320,192,74908,1,0,0:0:0:0:
448,192,74908,128,0,75054:0:0:0:0:
64,192,75054,128,0,75200:0:0:0:0:
192,192,75200,1,0,0:0:0:0:
320,192,75200,128,0,75347:0:0:0:0:
448,192,75347,128,0,75493:0:0:0:0:
64,192,75493,1,0,0:0:0:0:
192,192,75493,128,0,75639:0:0:0:0:
320,192,75639,128,0,75786:0:0:0:0:
448,192,75786,1,0,0:0:0:0:
64,192,75786,128,0,75932:0:0:0:0:
192,192,75932,128,0,76078:0:0:0:0:
320,192,76078,1,0,0:0:0:0:
448,192,76078,128,0,76225:0:0:0:0:
64,192,76225,128,0,76371:0:0:0:0:
448,192,76371,1,0,0:0:0:0:
192,192,76371,128,0,76517:0:0:0:0:
320,192,76517,128,0,76664:0:0:0:0:
192,192,76664,1,0,0:0:0:0:
64,192,76664,128,0,76810:0:0:0:0:
448,192,76810,128,0,76956:0:0:0:0:
64,192,76956,1,0,0:0:0:0:
320,192,76956,128,0,77103:0:0:0:0:
192,192,77103,128,0,77249:0:0:0:0:
320,192,77249,1,0,0:0:0:0:
448,192,77249,1,0,0:0:0:0:
64,192,77322,1,0,0:0:0:0:
192,192,77395,1,0,0:0:0:0:
448,192,77469,1,0,0:0:0:0:
320,192,77542,1,0,0:0:0:0:
192,192,77615,1,0,0:0:0:0:
64,192,77688,1,0,0:0:0:0:
320,192,77761,1,0,0:0:0:0:
192,192,77834,1,0,0:0:0:0:
448,192,77834,1,0,0:0:0:0:
64,192,77908,1,0,0:0:0:0:
320,192,77981,1,0,0:0:0:0:
448,192,78054,1,0,0:0:0:0:
192,192,78127,1,0,0:0:0:0:
320,192,78200,1,0,0:0:0:0:
64,192,78273,1,0,0:0:0:0:
192,192,78347,1,0,0:0:0:0:
320,192,78420,1,0,0:0:0:0:
448,192,78420,1,0,0:0:0:0:
64,192,78493,1,0,0:0:0:0:
448,192,78566,1,0,0:0:0:0:
64,192,78639,1,0,0:0:0:0:
320,192,78712,1,0,0:0:0:0:
192,192,78786,1,0,0:0:0:0:
320,192,78859,1,0,0:0:0:0:
192,192,78932,1,0,0:0:0:0:
448,192,79005,1,0,0:0:0:0:
320,192,79078,1,0,0:0:0:0:
192,192,79151,1,0,0:0:0:0:
64,192,79225,1,0,0:0:0:0:
448,192,79298,128,0,79591:0:0:0:0:
320,192,79298,1,0,0:0:0:0:
320,192,79444,128,0,79591:0:0:0:0:
192,192,79591,1,0,0:0:0:0:
64,192,79591,128,0,80469:0:0:0:0:
320,192,80469,128,0,80761:0:0:0:0:
192,192,80761,128,0,81054:0:0:0:0:
448,192,80761,1,0,0:0:0:0:
64,192,81054,128,0,81200:0:0:0:0:
448,192,81200,128,0,81347:0:0:0:0:
64,192,81347,1,0,0:0:0:0:
192,192,81347,1,0,0:0:0:0:
320,192,81493,128,0,81786:0:0:0:0:
64,192,81786,128,0,81932:0:0:0:0:
192,192,81932,1,0,0:0:0:0:
448,192,81932,128,0,82371:0:0:0:0:
192,192,82371,1,0,0:0:0:0:
320,192,82444,1,0,0:0:0:0:
64,192,82517,128,0,82664:0:0:0:0:
192,192,82737,128,0,82883:0:0:0:0:
448,192,82810,1,0,0:0:0:0:
320,192,82956,128,0,83103:0:0:0:0:
64,192,82956,1,0,0:0:0:0:
192,192,83103,1,0,0:0:0:0:
448,192,83103,128,0,83591:0:0:0:0:
64,192,83591,1,0,0:0:0:0:
192,192,83688,1,0,0:0:0:0:
320,192,83786,1,0,0:0:0:0:
448,192,83883,1,0,0:0:0:0:
192,192,83981,1,0,0:0:0:0:
320,192,84078,1,0,0:0:0:0:
64,192,84176,1,0,0:0:0:0:
192,192,84273,1,0,0:0:0:0:
448,192,84273,128,0,84712:0:0:0:0:
320,192,84712,1,0,0:0:0:0:
192,192,84786,1,0,0:0:0:0:
64,192,84859,128,0,85151:0:0:0:0:
448,192,85151,1,0,0:0:0:0:
192,192,85298,1,0,0:0:0:0:
320,192,85371,1,0,0:0:0:0:
448,192,85444,128,0,85591:0:0:0:0:
64,192,85444,1,0,0:0:0:0:
192,192,85591,128,0,85737:0:0:0:0:
320,192,85737,128,0,85883:0:0:0:0:
64,192,85883,128,0,86176:0:0:0:0:
448,192,86030,1,0,0:0:0:0:
192,192,86176,128,0,86322:0:0:0:0:
320,192,86322,128,0,86469:0:0:0:0:
448,192,86469,128,0,86615:0:0:0:0:
64,192,86615,1,0,0:0:0:0:
192,192,86615,128,0,86908:0:0:0:0:
448,192,86908,1,0,0:0:0:0:
320,192,87054,1,0,0:0:0:0:
192,192,87127,1,0,0:0:0:0:
64,192,87200,128,0,87347:0:0:0:0:
320,192,87347,1,0,0:0:0:0:
192,192,87420,1,0,0:0:0:0:
448,192,87493,1,0,0:0:0:0:
64,192,87566,1,0,0:0:0:0:
192,192,87639,1,0,0:0:0:0:
320,192,87712,1,0,0:0:0:0:
448,192,87786,128,0,88078:0:0:0:0:
64,192,87786,1,0,0:0:0:0:
192,192,88078,1,0,0:0:0:0:
320,192,88225,128,0,88517:0:0:0:0:
64,192,88371,1,0,0:0:0:0:
192,192,88517,128,0,88664:0:0:0:0:
448,192,88664,128,0,88810:0:0:0:0:
320,192,88810,128,0,88956:0:0:0:0:
192,192,88956,1,0,0:0:0:0:
64,192,88956,128,0,89395:0:0:0:0:
448,192,89249,1,0,0:0:0:0:
320,192,89395,128,0,89542:0:0:0:0:
192,192,89542,1,0,0:0:0:0:
64,192,89615,1,0,0:0:0:0:
448,192,89688,1,0,0:0:0:0:
320,192,89761,1,0,0:0:0:0:
64,192,89834,1,0,0:0:0:0:
192,192,89908,1,0,0:0:0:0:
320,192,89981,1,0,0:0:0:0:
448,192,90054,1,0,0:0:0:0:
192,192,90273,1,0,0:0:0:0:
64,192,90273,1,0,0:0:0:0:
448,192,90420,128,0,90712:0:0:0:0:
64,192,90420,1,0,0:0:0:0:
320,192,90712,1,0,0:0:0:0:
64,192,90859,1,0,0:0:0:0:
192,192,90932,1,0,0:0:0:0:
320,192,91005,1,0,0:0:0:0:
448,192,91005,1,0,0:0:0:0:
64,192,91151,1,0,0:0:0:0:
192,192,91151,1,0,0:0:0:0:
64,192,91298,1,0,0:0:0:0:
320,192,91298,1,0,0:0:0:0:
448,192,91298,1,0,0:0:0:0:
320,192,91444,1,0,0:0:0:0:
192,192,91591,1,0,0:0:0:0:
448,192,91591,1,0,0:0:0:0:
192,192,91737,1,0,0:0:0:0:
64,192,91883,1,0,0:0:0:0:
320,192,91883,1,0,0:0:0:0:
320,192,92030,1,0,0:0:0:0:
64,192,92176,1,0,0:0:0:0:
448,192,92176,1,0,0:0:0:0:
192,192,92322,1,0,0:0:0:0:
320,192,92322,1,0,0:0:0:0:
448,192,92469,1,0,0:0:0:0:
64,192,92469,1,0,0:0:0:0:
64,192,92615,1,0,0:0:0:0:
320,192,92761,1,0,0:0:0:0:
192,192,92761,1,0,0:0:0:0:
448,192,92908,1,0,0:0:0:0:
64,192,92981,1,0,0:0:0:0:
448,192,93054,1,0,0:0:0:0:
320,192,93054,1,0,0:0:0:0:
192,192,93200,1,0,0:0:0:0:
320,192,93273,1,0,0:0:0:0:
64,192,93347,1,0,0:0:0:0:
192,192,93347,1,0,0:0:0:0:
64,192,93493,1,0,0:0:0:0:
448,192,93493,1,0,0:0:0:0:
320,192,93639,1,0,0:0:0:0:
192,192,93639,1,0,0:0:0:0:
320,192,93786,1,0,0:0:0:0:
64,192,93932,1,0,0:0:0:0:
448,192,93932,1,0,0:0:0:0:
448,192,94078,1,0,0:0:0:0:
192,192,94225,1,0,0:0:0:0:
320,192,94225,1,0,0:0:0:0:
192,192,94371,1,0,0:0:0:0:
64,192,94517,1,0,0:0:0:0:
448,192,94517,1,0,0:0:0:0:
320,192,94664,1,0,0:0:0:0:
192,192,94737,1,0,0:0:0:0:
64,192,94810,1,0,0:0:0:0:
448,192,94810,1,0,0:0:0:0:
448,192,94956,1,0,0:0:0:0:
64,192,95103,1,0,0:0:0:0:
192,192,95103,1,0,0:0:0:0:
192,192,95249,1,0,0:0:0:0:
448,192,95322,1,0,0:0:0:0:
320,192,95395,1,0,0:0:0:0:
64,192,95469,1,0,0:0:0:0:
192,192,95542,1,0,0:0:0:0:
320,192,95615,1,0,0:0:0:0:
448,192,95688,1,0,0:0:0:0:
64,192,95688,128,0,95981:0:0:0:0:
448,192,95981,128,0,96273:0:0:0:0:
192,192,95981,1,0,0:0:0:0:
320,192,96127,1,0,0:0:0:0:
64,192,96273,1,0,0:0:0:0:
192,192,96273,1,0,0:0:0:0:
320,192,96420,1,0,0:0:0:0:
192,192,96493,1,0,0:0:0:0:
448,192,96566,1,0,0:0:0:0:
64,192,96566,128,0,96859:0:0:0:0:
192,192,96712,1,0,0:0:0:0:
320,192,96859,1,0,0:0:0:0:
448,192,96859,1,0,0:0:0:0:
192,192,97005,128,0,97151:0:0:0:0:
448,192,97151,128,0,97298:0:0:0:0:
64,192,97151,1,0,0:0:0:0:
320,192,97298,128,0,97444:0:0:0:0:
64,192,97444,128,0,97591:0:0:0:0:
192,192,97444,1,0,0:0:0:0:
448,192,97591,128,0,97883:0:0:0:0:
320,192,97737,1,0,0:0:0:0:
64,192,97883,128,0,98030:0:0:0:0:
448,192,98030,1,0,0:0:0:0:
192,192,98030,128,0,98176:0:0:0:0:
320,192,98176,128,0,98322:0:0:0:0:
448,192,98322,1,0,0:0:0:0:
64,192,98322,128,0,98615:0:0:0:0:
192,192,98469,1,0,0:0:0:0:
320,192,98615,1,0,0:0:0:0:
448,192,98615,1,0,0:0:0:0:
192,192,98761,1,0,0:0:0:0:
320,192,98834,1,0,0:0:0:0:
64,192,98908,1,0,0:0:0:0:
448,192,98908,128,0,99054:0:0:0:0:
192,192,99054,128,0,99200:0:0:0:0:
320,192,99200,128,0,99347:0:0:0:0:
64,192,99200,1,0,0:0:0:0:
448,192,99347,128,0,99493:0:0:0:0:
192,192,99493,1,0,0:0:0:0:
64,192,99493,128,0,99786:0:0:0:0:
320,192,99639,1,0,0:0:0:0:
192,192,99786,1,0,0:0:0:0:
448,192,99786,1,0,0:0:0:0:
320,192,99932,128,0,100225:0:0:0:0:
192,192,100078,1,0,0:0:0:0:
64,192,100225,128,0,100371:0:0:0:0:
320,192,100371,1,0,0:0:0:0:
448,192,100371,128,0,100517:0:0:0:0:
192,192,100517,128,0,100664:0:0:0:0:
64,192,100664,1,0,0:0:0:0:
448,192,100664,1,0,0:0:0:0:
192,192,100810,5,0,0:0:0:0:
448,192,100810,1,0,0:0:0:0:
192,192,100956,1,0,0:0:0:0:
320,192,100956,1,0,0:0:0:0:
64,192,101103,1,0,0:0:0:0:
320,192,101103,1,0,0:0:0:0:
64,192,101249,1,0,0:0:0:0:
448,192,101249,1,0,0:0:0:0:
192,192,101322,1,0,0:0:0:0:
320,192,101395,1,0,0:0:0:0:
64,192,101469,1,0,0:0:0:0:
448,192,101542,1,0,0:0:0:0:
192,192,101615,1,0,0:0:0:0:
320,192,101688,1,0,0:0:0:0:
448,192,101761,1,0,0:0:0:0:
192,192,101834,1,0,0:0:0:0:
64,192,101981,5,0,0:0:0:0:
448,192,101981,1,0,0:0:0:0:
64,192,102127,1,0,0:0:0:0:
448,192,102127,128,0,102420:0:0:0:0:
64,192,102420,128,0,102712:0:0:0:0:
320,192,102712,128,0,103005:0:0:0:0:
192,192,102712,1,0,0:0:0:0:
448,192,102859,128,0,103005:0:0:0:0:
64,192,103005,1,0,0:0:0:0:
192,192,103078,1,0,0:0:0:0:
320,192,103151,1,0,0:0:0:0:
448,192,103225,1,0,0:0:0:0:
64,192,103298,1,0,0:0:0:0:
192,192,103298,1,0,0:0:0:0:
64,192,103444,1,0,0:0:0:0:
448,192,103591,1,0,0:0:0:0:
320,192,103664,1,0,0:0:0:0:
192,192,103737,1,0,0:0:0:0:
64,192,103810,1,0,0:0:0:0:
320,192,103883,1,0,0:0:0:0:
448,192,103883,1,0,0:0:0:0:
448,192,104030,1,0,0:0:0:0:
192,192,104176,1,0,0:0:0:0:
64,192,104176,128,0,104322:0:0:0:0:
448,192,104322,1,0,0:0:0:0:
320,192,104395,1,0,0:0:0:0:
192,192,104395,128,0,104542:0:0:0:0:
64,192,104469,1,0,0:0:0:0:
320,192,104615,1,0,0:0:0:0:
448,192,104615,1,0,0:0:0:0:
320,192,104761,1,0,0:0:0:0:
448,192,104761,128,0,104908:0:0:0:0:
64,192,104908,1,0,0:0:0:0:
192,192,104981,1,0,0:0:0:0:
320,192,104981,128,0,105127:0:0:0:0:
448,192,105054,1,0,0:0:0:0:
64,192,105200,1,0,0:0:0:0:
192,192,105200,1,0,0:0:0:0:
64,192,105347,1,0,0:0:0:0:
192,192,105347,128,0,105493:0:0:0:0:
320,192,105493,1,0,0:0:0:0:
448,192,105566,128,0,105712:0:0:0:0:
64,192,105566,1,0,0:0:0:0:
192,192,105639,1,0,0:0:0:0:
448,192,105786,1,0,0:0:0:0:
320,192,105786,128,0,105932:0:0:0:0:
64,192,105932,1,0,0:0:0:0:
192,192,105932,1,0,0:0:0:0:
64,192,106078,1,0,0:0:0:0:
320,192,106078,1,0,0:0:0:0:
448,192,106225,1,0,0:0:0:0:
192,192,106225,1,0,0:0:0:0:
448,192,106371,1,0,0:0:0:0:
320,192,106371,1,0,0:0:0:0:
64,192,106517,1,0,0:0:0:0:
192,192,106591,1,0,0:0:0:0:
320,192,106664,1,0,0:0:0:0:
448,192,106737,1,0,0:0:0:0:
64,192,106810,1,0,0:0:0:0:
192,192,106810,1,0,0:0:0:0:
320,192,106956,1,0,0:0:0:0:
192,192,106956,1,0,0:0:0:0:
448,192,107103,1,0,0:0:0:0:
320,192,107103,1,0,0:0:0:0:
64,192,107176,1,0,0:0:0:0:
192,192,107249,1,0,0:0:0:0:
320,192,107322,1,0,0:0:0:0:
448,192,107395,1,0,0:0:0:0:
64,192,107395,1,0,0:0:0:0:
192,192,107469,1,0,0:0:0:0:
448,192,107542,1,0,0:0:0:0:
320,192,107615,1,0,0:0:0:0:
64,192,107688,1,0,0:0:0:0:
192,192,107688,1,0,0:0:0:0:
448,192,107761,1,0,0:0:0:0:
64,192,107834,1,0,0:0:0:0:
192,192,107908,1,0,0:0:0:0:
320,192,107981,1,0,0:0:0:0:
448,192,107981,1,0,0:0:0:0:
320,192,108127,1,0,0:0:0:0:
192,192,108200,1,0,0:0:0:0:
64,192,108273,1,0,0:0:0:0:
448,192,108347,1,0,0:0:0:0:
192,192,108420,1,0,0:0:0:0:
320,192,108493,1,0,0:0:0:0:
64,192,108566,1,0,0:0:0:0:
448,192,108566,1,0,0:0:0:0:
64,192,108712,1,0,0:0:0:0:
192,192,108786,1,0,0:0:0:0:
320,192,108859,1,0,0:0:0:0:
64,192,108932,1,0,0:0:0:0:
448,192,109005,1,0,0:0:0:0:
192,192,109078,1,0,0:0:0:0:
320,192,109151,1,0,0:0:0:0:
64,192,109151,1,0,0:0:0:0:
320,192,109298,1,0,0:0:0:0:
192,192,109371,1,0,0:0:0:0:
64,192,109444,1,0,0:0:0:0:
320,192,109517,1,0,0:0:0:0:
192,192,109591,1,0,0:0:0:0:
448,192,109664,1,0,0:0:0:0:
64,192,109737,1,0,0:0:0:0:
320,192,109737,1,0,0:0:0:0:
192,192,109883,1,0,0:0:0:0:
320,192,109883,1,0,0:0:0:0:
192,192,110030,1,0,0:0:0:0:
448,192,110030,1,0,0:0:0:0:
64,192,110103,1,0,0:0:0:0:
320,192,110176,1,0,0:0:0:0:
192,192,110249,1,0,0:0:0:0:
448,192,110322,1,0,0:0:0:0:
64,192,110322,1,0,0:0:0:0:
448,192,110469,1,0,0:0:0:0:
320,192,110542,1,0,0:0:0:0:
64,192,110615,1,0,0:0:0:0:
192,192,110688,1,0,0:0:0:0:
320,192,110761,1,0,0:0:0:0:
448,192,110834,1,0,0:0:0:0:
64,192,110908,1,0,0:0:0:0:
192,192,110908,1,0,0:0:0:0:
192,192,111054,1,0,0:0:0:0:
320,192,111127,1,0,0:0:0:0:
448,192,111200,1,0,0:0:0:0:
64,192,111273,1,0,0:0:0:0:
192,192,111347,1,0,0:0:0:0:
448,192,111420,1,0,0:0:0:0:
320,192,111493,1,0,0:0:0:0:
64,192,111493,1,0,0:0:0:0:
64,192,111639,1,0,0:0:0:0:
192,192,111712,1,0,0:0:0:0:
448,192,111786,1,0,0:0:0:0:
320,192,111786,1,0,0:0:0:0:
192,192,111932,1,0,0:0:0:0:
320,192,111932,1,0,0:0:0:0:
64,192,112078,1,0,0:0:0:0:
192,192,112078,1,0,0:0:0:0:
448,192,112151,1,0,0:0:0:0:
64,192,112225,1,0,0:0:0:0:
192,192,112298,1,0,0:0:0:0:
320,192,112371,1,0,0:0:0:0:
448,192,112371,1,0,0:0:0:0:
64,192,112517,1,0,0:0:0:0:
320,192,112591,128,0,112810:0:0:0:0:
192,192,112810,1,0,0:0:0:0:
448,192,112883,1,0,0:0:0:0:
64,192,112956,1,0,0:0:0:0:
320,192,113030,1,0,0:0:0:0:
192,192,113103,1,0,0:0:0:0:
64,192,113176,1,0,0:0:0:0:
320,192,113249,1,0,0:0:0:0:
448,192,113322,1,0,0:0:0:0:
192,192,113395,1,0,0:0:0:0:
320,192,113469,1,0,0:0:0:0:
64,192,113542,1,0,0:0:0:0:
448,192,113615,1,0,0:0:0:0:
320,192,113688,1,0,0:0:0:0:
192,192,113761,1,0,0:0:0:0:
64,192,113834,1,0,0:0:0:0:
320,192,113908,1,0,0:0:0:0:
448,192,113981,1,0,0:0:0:0:
64,192,114054,1,0,0:0:0:0:
192,192,114127,1,0,0:0:0:0:
320,192,114200,1,0,0:0:0:0:
448,192,114273,1,0,0:0:0:0:
64,192,114347,1,0,0:0:0:0:
320,192,114420,1,0,0:0:0:0:
192,192,114420,128,0,114712:0:0:0:0:
320,192,114566,128,0,114712:0:0:0:0:
64,192,114712,1,0,0:0:0:0:
448,192,114712,1,0,0:0:0:0:
320,192,114859,1,0,0:0:0:0:
448,192,114859,1,0,0:0:0:0:
64,192,115005,1,0,0:0:0:0:
192,192,115005,1,0,0:0:0:0:
192,192,115151,1,0,0:0:0:0:
320,192,115151,1,0,0:0:0:0:
64,192,115298,1,0,0:0:0:0:
448,192,115298,1,0,0:0:0:0:
64,192,115444,1,0,0:0:0:0:
192,192,115444,1,0,0:0:0:0:
320,192,115591,1,0,0:0:0:0:
448,192,115591,1,0,0:0:0:0:
192,192,115737,1,0,0:0:0:0:
320,192,115737,1,0,0:0:0:0:
64,192,115883,1,0,0:0:0:0:
448,192,115883,1,0,0:0:0:0:
64,192,116030,1,0,0:0:0:0:
320,192,116030,1,0,0:0:0:0:
192,192,116176,1,0,0:0:0:0:
448,192,116176,1,0,0:0:0:0:
192,192,116322,1,0,0:0:0:0:
320,192,116322,1,0,0:0:0:0:
64,192,116469,1,0,0:0:0:0:
448,192,116469,1,0,0:0:0:0:
192,192,116615,1,0,0:0:0:0:
448,192,116615,1,0,0:0:0:0:
64,192,116761,1,0,0:0:0:0:
320,192,116761,1,0,0:0:0:0:
192,192,116908,1,0,0:0:0:0:
320,192,116908,1,0,0:0:0:0:
64,192,117054,1,0,0:0:0:0:
448,192,117054,1,0,0:0:0:0:
64,192,117200,1,0,0:0:0:0:
192,192,117200,1,0,0:0:0:0:
192,192,117347,1,0,0:0:0:0:
320,192,117347,1,0,0:0:0:0:
320,192,117493,1,0,0:0:0:0:
448,192,117493,1,0,0:0:0:0:
64,192,117639,1,0,0:0:0:0:
192,192,117639,1,0,0:0:0:0:
320,192,117786,1,0,0:0:0:0:
448,192,117786,1,0,0:0:0:0:
192,192,117932,1,0,0:0:0:0:
320,192,117932,1,0,0:0:0:0:
64,192,118078,1,0,0:0:0:0:
192,192,118078,1,0,0:0:0:0:
64,192,118225,1,0,0:0:0:0:
448,192,118225,1,0,0:0:0:0:
320,192,118298,1,0,0:0:0:0:
192,192,118371,1,0,0:0:0:0:
448,192,118444,1,0,0:0:0:0:
320,192,118517,1,0,0:0:0:0:
64,192,118591,1,0,0:0:0:0:
192,192,118664,1,0,0:0:0:0:
320,192,118737,1,0,0:0:0:0:
64,192,118810,1,0,0:0:0:0:
448,192,118810,1,0,0:0:0:0:
192,192,118883,1,0,0:0:0:0:
448,192,118956,1,0,0:0:0:0:
320,192,119030,1,0,0:0:0:0:
64,192,119103,1,0,0:0:0:0:
448,192,119176,1,0,0:0:0:0:
192,192,119249,1,0,0:0:0:0:
320,192,119322,1,0,0:0:0:0:
448,192,119395,1,0,0:0:0:0:
64,192,119395,128,0,119688:0:0:0:0:
320,192,119688,128,0,119981:0:0:0:0:
192,192,119981,128,0,120273:0:0:0:0:
448,192,120273,128,0,120420:0:0:0:0:
64,192,120420,1,0,0:0:0:0:
192,192,120493,1,0,0:0:0:0:
448,192,120566,1,0,0:0:0:0:
320,192,120566,128,0,120859:0:0:0:0:
192,192,120859,128,0,121151:0:0:0:0:
448,192,121151,1,0,0:0:0:0:
64,192,121151,128,0,121444:0:0:0:0:
320,192,121444,1,0,0:0:0:0:
448,192,121444,128,0,121737:0:0:0:0:
64,192,121737,1,0,0:0:0:0:
192,192,121737,128,0,122030:0:0:0:0:
448,192,122030,1,0,0:0:0:0:
320,192,122103,1,0,0:0:0:0:
64,192,122176,1,0,0:0:0:0:
192,192,122249,1,0,0:0:0:0:
320,192,122322,128,0,122615:0:0:0:0:
64,192,122615,1,0,0:0:0:0:
192,192,122615,1,0,0:0:0:0:
192,192,122761,1,0,0:0:0:0:
320,192,122761,1,0,0:0:0:0:
320,192,122908,1,0,0:0:0:0:
448,192,122908,128,0,123054:0:0:0:0:
64,192,123054,1,0,0:0:0:0:
192,192,123127,1,0,0:0:0:0:
320,192,123200,1,0,0:0:0:0:
448,192,123273,1,0,0:0:0:0:
192,192,123347,1,0,0:0:0:0:
64,192,123420,1,0,0:0:0:0:
320,192,123493,1,0,0:0:0:0:
192,192,123566,1,0,0:0:0:0:
448,192,123639,1,0,0:0:0:0:
320,192,123712,1,0,0:0:0:0:
64,192,123786,1,0,0:0:0:0:
448,192,123859,1,0,0:0:0:0:
320,192,123932,1,0,0:0:0:0:
192,192,124005,1,0,0:0:0:0:
64,192,124078,1,0,0:0:0:0:
448,192,124078,128,0,124225:0:0:0:0:
320,192,124225,128,0,124371:0:0:0:0:
192,192,124371,128,0,124517:0:0:0:0:
448,192,124517,128,0,124664:0:0:0:0:
320,192,124664,1,0,0:0:0:0:
64,192,124664,128,0,124956:0:0:0:0:
448,192,124956,128,0,125249:0:0:0:0:
64,192,125249,1,0,0:0:0:0:
192,192,125249,128,0,125542:0:0:0:0:
320,192,125542,128,0,125688:0:0:0:0:
448,192,125688,128,0,125834:0:0:0:0:
192,192,125834,1,0,0:0:0:0:
64,192,125834,128,0,125981:0:0:0:0:
320,192,125981,128,0,126127:0:0:0:0:
192,192,126127,128,0,126273:0:0:0:0:
448,192,126127,1,0,0:0:0:0:
64,192,126273,128,0,126420:0:0:0:0:
448,192,126420,1,0,0:0:0:0:
320,192,126420,128,0,126566:0:0:0:0:
192,192,126566,128,0,126712:0:0:0:0:
448,192,126712,128,0,126859:0:0:0:0:
320,192,126859,128,0,127005:0:0:0:0:
64,192,127005,128,0,127151:0:0:0:0:
192,192,127151,128,0,127298:0:0:0:0:
448,192,127298,128,0,127444:0:0:0:0:
64,192,127444,1,0,0:0:0:0:
320,192,127493,1,0,0:0:0:0:
192,192,127542,1,0,0:0:0:0:
64,192,127591,128,0,127737:0:0:0:0:
448,192,127737,128,0,127883:0:0:0:0:
320,192,127883,128,0,128030:0:0:0:0:
192,192,128030,128,0,128176:0:0:0:0:
64,192,128176,1,0,0:0:0:0:
448,192,128249,1,0,0:0:0:0:
320,192,128322,1,0,0:0:0:0:
192,192,128395,1,0,0:0:0:0:
448,192,128469,1,0,0:0:0:0:
64,192,128542,1,0,0:0:0:0:
192,192,128615,1,0,0:0:0:0:
320,192,128688,1,0,0:0:0:0:
64,192,128761,1,0,0:0:0:0:
448,192,128761,1,0,0:0:0:0:
192,192,128908,1,0,0:0:0:0:
320,192,129054,1,0,0:0:0:0:
448,192,129200,1,0,0:0:0:0:
192,192,129347,1,0,0:0:0:0:
320,192,129493,1,0,0:0:0:0:
64,192,129639,1,0,0:0:0:0:
192,192,129786,1,0,0:0:0:0:
448,192,129932,1,0,0:0:0:0:
64,192,130078,1,0,0:0:0:0:
192,192,130127,1,0,0:0:0:0:
320,192,130176,1,0,0:0:0:0:
448,192,130225,1,0,0:0:0:0:
192,192,130371,1,0,0:0:0:0:
320,192,130517,1,0,0:0:0:0:
448,192,130664,1,0,0:0:0:0:
64,192,130810,1,0,0:0:0:0:
320,192,130956,1,0,0:0:0:0:
64,192,131103,1,0,0:0:0:0:
192,192,131103,128,0,135786:0:0:0:0:
