osu file format v14

[General]
AudioFilename: audio.mp3
AudioLeadIn: 0
PreviewTime: 103005
Countdown: 0
SampleSet: Soft
StackLeniency: 0.7
Mode: 3
LetterboxInBreaks: 0
SpecialStyle: 0
WidescreenStoryboard: 0

[Editor]
DistanceSpacing: 1.7
BeatDivisor: 4
GridSize: 32
TimelineZoom: 3.099999

[Metadata]
Title:Dreamin' attraction!!
TitleUnicode:Dreamin' attraction!!
Artist:Hino Isuka
ArtistUnicode:翡乃イスカ
Creator:DenYi
Version:Dreamer!!
Source:Arcaea
Tags:4kmt Murumoo Niks AAAAFanboy rhythm video game instrumental electronic hardcore bofu 2015 大血戦 -the bms of fighters ultimate- GROOVE COASTER 4MAX DIAMOND GALAXY Groundbreaking 2015 Dancing Drive fa featured artist mappers' guild mpg bitpop happy
BeatmapID:4359137
BeatmapSetID:2081438

[Difficulty]
HPDrainRate:8.5
CircleSize:4
OverallDifficulty:8
ApproachRate:5
SliderMultiplier:1.4
SliderTickRate:1

[Events]
//Background and Video events
0,0,"bg.jpg",0,0
//Break Periods
//Storyboard Layer 0 (Background)
//Storyboard Layer 1 (Fail)
//Storyboard Layer 2 (Pass)
//Storyboard Layer 3 (Foreground)
//Storyboard Layer 4 (Overlay)
//Storyboard Sound Samples

[TimingPoints]
1152,292.682926829268,4,2,1,50,1,0
39786,-100,4,2,1,50,0,1
48566,-100,4,2,1,50,0,0
49151,-100,4,2,1,50,0,1
58517,-100,4,2,1,50,0,0
103005,-100,4,2,1,50,0,1
112371,-100,4,2,1,50,0,0
114712,-100,4,2,1,50,0,1
119395,-100,4,2,1,50,0,0

[HitObjects]
448,192,1152,128,0,1298:0:0:0:0:
320,192,1152,128,0,1225:0:0:0:0:
64,192,1444,128,0,1591:0:0:0:0:
192,192,1444,128,0,1591:0:0:0:0:
192,192,1737,128,0,1883:0:0:0:0:
64,192,1737,128,0,1883:0:0:0:0:
320,192,2030,1,0,0:0:0:0:
448,192,2078,1,0,0:0:0:0:
192,192,2127,1,0,0:0:0:0:
320,192,2176,1,0,0:0:0:0:
64,192,2225,1,0,0:0:0:0:
192,192,2273,1,0,0:0:0:0:
320,192,2322,128,0,2395:0:0:0:0:
448,192,2322,1,0,0:0:0:0:
64,192,2395,128,0,2469:0:0:0:0:
320,192,2469,128,0,2542:0:0:0:0:
64,192,2542,128,0,2688:0:0:0:0:
320,192,2615,128,0,2688:0:0:0:0:
192,192,2761,128,0,2834:0:0:0:0:
64,192,2761,1,0,0:0:0:0:
448,192,2834,128,0,2908:0:0:0:0:
192,192,2908,128,0,2981:0:0:0:0:
448,192,2981,128,0,3127:0:0:0:0:
192,192,3054,128,0,3127:0:0:0:0:
320,192,3200,1,0,0:0:0:0:
320,192,3347,128,0,3493:0:0:0:0:
448,192,3420,128,0,3493:0:0:0:0:
64,192,3493,1,0,0:0:0:0:
192,192,3493,128,0,3639:0:0:0:0:
320,192,3566,128,0,3712:0:0:0:0:
64,192,3639,128,0,3786:0:0:0:0:
192,192,3712,128,0,3786:0:0:0:0:
448,192,3786,1,0,0:0:0:0:
320,192,3786,128,0,3932:0:0:0:0:
192,192,3859,128,0,4005:0:0:0:0:
64,192,3932,128,0,4078:0:0:0:0:
320,192,4005,128,0,4151:0:0:0:0:
448,192,4078,128,0,4225:0:0:0:0:
192,192,4078,1,0,0:0:0:0:
64,192,4151,128,0,4298:0:0:0:0:
192,192,4225,128,0,4591:0:0:0:0:
320,192,4298,128,0,4664:0:0:0:0:
64,192,4371,128,0,4591:0:0:0:0:
448,192,4371,128,0,4664:0:0:0:0:
192,192,4664,1,0,0:0:0:0:
64,192,4664,128,0,4737:0:0:0:0:
320,192,4737,128,0,4810:0:0:0:0:
64,192,4810,128,0,4883:0:0:0:0:
320,192,4883,128,0,5030:0:0:0:0:
64,192,4956,128,0,5030:0:0:0:0:
320,192,5103,1,0,0:0:0:0:
448,192,5103,128,0,5176:0:0:0:0:
192,192,5176,128,0,5249:0:0:0:0:
448,192,5249,128,0,5322:0:0:0:0:
192,192,5322,128,0,5469:0:0:0:0:
448,192,5395,128,0,5469:0:0:0:0:
320,192,5542,1,0,0:0:0:0:
320,192,5688,128,0,5834:0:0:0:0:
192,192,5761,128,0,5834:0:0:0:0:
448,192,5834,128,0,5981:0:0:0:0:
64,192,5834,1,0,0:0:0:0:
320,192,5908,128,0,6054:0:0:0:0:
192,192,5981,128,0,6127:0:0:0:0:
448,192,6054,128,0,6127:0:0:0:0:
64,192,6127,128,0,6273:0:0:0:0:
320,192,6127,1,0,0:0:0:0:
192,192,6200,128,0,6347:0:0:0:0:
320,192,6273,128,0,6420:0:0:0:0:
448,192,6347,128,0,6493:0:0:0:0:
64,192,6420,128,0,6493:0:0:0:0:
192,192,6420,128,0,6566:0:0:0:0:
320,192,6493,128,0,6639:0:0:0:0:
448,192,6566,128,0,6639:0:0:0:0:
64,192,6566,128,0,6712:0:0:0:0:
192,192,6639,128,0,6712:0:0:0:0:
320,192,6712,128,0,6786:0:0:0:0:
448,192,6712,128,0,6859:0:0:0:0:
64,192,6786,128,0,6932:0:0:0:0:
192,192,6859,128,0,6932:0:0:0:0:
320,192,6859,128,0,7005:0:0:0:0:
448,192,6932,128,0,7005:0:0:0:0:
192,192,7005,1,0,0:0:0:0:
64,192,7005,128,0,7078:0:0:0:0:
320,192,7078,128,0,7151:0:0:0:0:
192,192,7151,1,0,0:0:0:0:
64,192,7151,128,0,7225:0:0:0:0:
320,192,7225,128,0,7371:0:0:0:0:
64,192,7298,128,0,7371:0:0:0:0:
192,192,7371,1,0,0:0:0:0:
320,192,7444,1,0,0:0:0:0:
448,192,7444,128,0,7517:0:0:0:0:
192,192,7517,128,0,7591:0:0:0:0:
448,192,7591,128,0,7664:0:0:0:0:
192,192,7664,128,0,7810:0:0:0:0:
448,192,7737,128,0,7810:0:0:0:0:
64,192,7737,1,0,0:0:0:0:
320,192,7810,1,0,0:0:0:0:
64,192,7883,1,0,0:0:0:0:
192,192,7883,1,0,0:0:0:0:
320,192,8030,128,0,8176:0:0:0:0:
192,192,8103,128,0,8176:0:0:0:0:
64,192,8176,128,0,8249:0:0:0:0:
448,192,8176,128,0,8249:0:0:0:0:
320,192,8249,128,0,8395:0:0:0:0:
448,192,8322,128,0,8395:0:0:0:0:
64,192,8322,128,0,8469:0:0:0:0:
192,192,8395,128,0,8469:0:0:0:0:
448,192,8469,128,0,8615:0:0:0:0:
320,192,8469,128,0,8542:0:0:0:0:
64,192,8542,128,0,8688:0:0:0:0:
192,192,8615,128,0,8761:0:0:0:0:
320,192,8688,128,0,8834:0:0:0:0:
64,192,8761,128,0,8908:0:0:0:0:
448,192,8761,128,0,8834:0:0:0:0:
192,192,8834,128,0,8981:0:0:0:0:
448,192,8908,128,0,9127:0:0:0:0:
320,192,8981,128,0,9200:0:0:0:0:
64,192,9054,128,0,9273:0:0:0:0:
192,192,9054,128,0,9273:0:0:0:0:
448,192,9200,1,0,0:0:0:0:
320,192,9273,1,0,0:0:0:0:
64,192,9347,128,0,9493:0:0:0:0:
192,192,9347,128,0,9420:0:0:0:0:
448,192,9420,128,0,9566:0:0:0:0:
320,192,9493,128,0,9639:0:0:0:0:
192,192,9566,128,0,9639:0:0:0:0:
448,192,9639,128,0,9712:0:0:0:0:
64,192,9639,128,0,9859:0:0:0:0:
192,192,9712,128,0,9859:0:0:0:0:
320,192,9786,128,0,9932:0:0:0:0:
448,192,9859,128,0,9932:0:0:0:0:
192,192,9932,128,0,10005:0:0:0:0:
64,192,9932,128,0,10151:0:0:0:0:
448,192,10005,128,0,10151:0:0:0:0:
320,192,10078,128,0,10225:0:0:0:0:
192,192,10151,128,0,10298:0:0:0:0:
64,192,10225,128,0,10298:0:0:0:0:
448,192,10225,128,0,10371:0:0:0:0:
320,192,10298,128,0,10444:0:0:0:0:
64,192,10371,128,0,10591:0:0:0:0:
192,192,10371,128,0,10591:0:0:0:0:
448,192,10444,128,0,10591:0:0:0:0:
320,192,10664,128,0,10810:0:0:0:0:
448,192,10664,128,0,11030:0:0:0:0:
64,192,10664,128,0,10810:0:0:0:0:
192,192,10883,128,0,11030:0:0:0:0:
64,192,10883,128,0,11322:0:0:0:0:
320,192,10883,128,0,11030:0:0:0:0:
192,192,11103,128,0,11322:0:0:0:0:
448,192,11103,128,0,11395:0:0:0:0:
320,192,11103,128,0,11395:0:0:0:0:
64,192,11395,1,0,0:0:0:0:
192,192,11395,1,0,0:0:0:0:
448,192,11469,1,0,0:0:0:0:
320,192,11542,1,0,0:0:0:0:
192,192,11615,1,0,0:0:0:0:
448,192,11688,1,0,0:0:0:0:
64,192,11688,1,0,0:0:0:0:
320,192,11688,128,0,11908:0:0:0:0:
192,192,11761,128,0,11908:0:0:0:0:
64,192,11834,128,0,11908:0:0:0:0:
448,192,11908,128,0,12054:0:0:0:0:
64,192,11981,1,0,0:0:0:0:
320,192,11981,128,0,12127:0:0:0:0:
192,192,12054,128,0,12200:0:0:0:0:
64,192,12127,128,0,12273:0:0:0:0:
448,192,12200,128,0,12273:0:0:0:0:
192,192,12273,1,0,0:0:0:0:
320,192,12273,128,0,12420:0:0:0:0:
448,192,12347,128,0,12493:0:0:0:0:
192,192,12420,128,0,12566:0:0:0:0:
320,192,12493,128,0,12639:0:0:0:0:
448,192,12566,1,0,0:0:0:0:
64,192,12566,128,0,12712:0:0:0:0:
192,192,12639,128,0,12786:0:0:0:0:
320,192,12712,128,0,12859:0:0:0:0:
448,192,12786,128,0,12859:0:0:0:0:
192,192,12859,128,0,13078:0:0:0:0:
64,192,12859,1,0,0:0:0:0:
320,192,12932,128,0,13078:0:0:0:0:
448,192,13005,128,0,13078:0:0:0:0:
64,192,13078,128,0,13225:0:0:0:0:
192,192,13151,128,0,13298:0:0:0:0:
448,192,13151,1,0,0:0:0:0:
320,192,13225,128,0,13371:0:0:0:0:
448,192,13298,128,0,13444:0:0:0:0:
64,192,13371,128,0,13444:0:0:0:0:
320,192,13444,128,0,13517:0:0:0:0:
192,192,13444,128,0,13591:0:0:0:0:
64,192,13517,128,0,13664:0:0:0:0:
448,192,13591,1,0,0:0:0:0:
320,192,13591,128,0,13737:0:0:0:0:
192,192,13664,128,0,13810:0:0:0:0:
64,192,13737,1,0,0:0:0:0:
448,192,13737,128,0,13883:0:0:0:0:
320,192,13810,128,0,13956:0:0:0:0:
192,192,13883,128,0,14030:0:0:0:0:
64,192,13956,128,0,14030:0:0:0:0:
448,192,14030,1,0,0:0:0:0:
320,192,14030,128,0,14176:0:0:0:0:
192,192,14103,128,0,14249:0:0:0:0:
64,192,14176,128,0,14395:0:0:0:0:
320,192,14249,1,0,0:0:0:0:
192,192,14322,128,0,14469:0:0:0:0:
448,192,14322,1,0,0:0:0:0:
320,192,14395,128,0,14542:0:0:0:0:
448,192,14469,128,0,14615:0:0:0:0:
192,192,14542,1,0,0:0:0:0:
320,192,14615,1,0,0:0:0:0:
64,192,14615,128,0,14761:0:0:0:0:
192,192,14688,128,0,14834:0:0:0:0:
320,192,14761,128,0,14908:0:0:0:0:
448,192,14834,128,0,15054:0:0:0:0:
64,192,14908,1,0,0:0:0:0:
192,192,14908,1,0,0:0:0:0:
320,192,14981,128,0,15127:0:0:0:0:
192,192,15054,128,0,15200:0:0:0:0:
64,192,15127,128,0,15200:0:0:0:0:
320,192,15200,128,0,15273:0:0:0:0:
448,192,15200,128,0,15347:0:0:0:0:
64,192,15273,1,0,0:0:0:0:
192,192,15347,128,0,15420:0:0:0:0:
320,192,15347,128,0,15493:0:0:0:0:
448,192,15420,1,0,0:0:0:0:
192,192,15493,128,0,15639:0:0:0:0:
64,192,15493,128,0,15566:0:0:0:0:
320,192,15566,1,0,0:0:0:0:
448,192,15639,1,0,0:0:0:0:
64,192,15639,1,0,0:0:0:0:
192,192,15712,1,0,0:0:0:0:
320,192,15786,128,0,15932:0:0:0:0:
64,192,15786,128,0,15859:0:0:0:0:
448,192,15786,128,0,16005:0:0:0:0:
192,192,15932,1,0,0:0:0:0:
320,192,16005,1,0,0:0:0:0:
64,192,16078,128,0,16298:0:0:0:0:
192,192,16078,128,0,16225:0:0:0:0:
448,192,16078,128,0,16151:0:0:0:0:
320,192,16225,1,0,0:0:0:0:
448,192,16225,1,0,0:0:0:0:
64,192,16371,1,0,0:0:0:0:
192,192,16371,1,0,0:0:0:0:
448,192,16371,128,0,16444:0:0:0:0:
320,192,16444,1,0,0:0:0:0:
64,192,16517,128,0,16591:0:0:0:0:
448,192,16591,1,0,0:0:0:0:
320,192,16591,1,0,0:0:0:0:
64,192,16664,1,0,0:0:0:0:
192,192,16664,128,0,16737:0:0:0:0:
448,192,16737,1,0,0:0:0:0:
192,192,16810,1,0,0:0:0:0:
320,192,16810,128,0,16883:0:0:0:0:
64,192,16883,1,0,0:0:0:0:
320,192,16956,1,0,0:0:0:0:
448,192,16956,128,0,17030:0:0:0:0:
192,192,17030,1,0,0:0:0:0:
448,192,17103,1,0,0:0:0:0:
64,192,17103,128,0,17176:0:0:0:0:
320,192,17176,1,0,0:0:0:0:
64,192,17249,1,0,0:0:0:0:
192,192,17249,128,0,17322:0:0:0:0:
320,192,17322,1,0,0:0:0:0:
448,192,17322,128,0,17395:0:0:0:0:
192,192,17395,1,0,0:0:0:0:
64,192,17395,128,0,17469:0:0:0:0:
448,192,17469,1,0,0:0:0:0:
320,192,17469,128,0,17542:0:0:0:0:
64,192,17542,1,0,0:0:0:0:
192,192,17542,128,0,17615:0:0:0:0:
320,192,17615,1,0,0:0:0:0:
448,192,17688,128,0,17761:0:0:0:0:
64,192,17761,1,0,0:0:0:0:
192,192,17761,1,0,0:0:0:0:
448,192,17834,1,0,0:0:0:0:
320,192,17834,128,0,17908:0:0:0:0:
64,192,17908,1,0,0:0:0:0:
320,192,17981,1,0,0:0:0:0:
192,192,17981,128,0,18054:0:0:0:0:
448,192,18054,1,0,0:0:0:0:
192,192,18127,1,0,0:0:0:0:
64,192,18127,128,0,18200:0:0:0:0:
320,192,18200,1,0,0:0:0:0:
448,192,18200,128,0,18273:0:0:0:0:
64,192,18273,1,0,0:0:0:0:
192,192,18273,128,0,18347:0:0:0:0:
320,192,18347,128,0,18420:0:0:0:0:
448,192,18420,1,0,0:0:0:0:
64,192,18420,128,0,18493:0:0:0:0:
192,192,18493,1,0,0:0:0:0:
320,192,18493,128,0,18566:0:0:0:0:
64,192,18566,1,0,0:0:0:0:
448,192,18566,128,0,18639:0:0:0:0:
192,192,18639,128,0,18712:0:0:0:0:
448,192,18712,1,0,0:0:0:0:
320,192,18712,128,0,18786:0:0:0:0:
192,192,18786,1,0,0:0:0:0:
64,192,18786,128,0,18859:0:0:0:0:
320,192,18859,1,0,0:0:0:0:
448,192,18859,128,0,18932:0:0:0:0:
64,192,18932,1,0,0:0:0:0:
192,192,18932,128,0,19005:0:0:0:0:
448,192,19005,1,0,0:0:0:0:
320,192,19005,128,0,19078:0:0:0:0:
192,192,19078,1,0,0:0:0:0:
64,192,19078,128,0,19151:0:0:0:0:
320,192,19151,1,0,0:0:0:0:
448,192,19151,128,0,19225:0:0:0:0:
64,192,19225,1,0,0:0:0:0:
192,192,19225,128,0,19298:0:0:0:0:
320,192,19298,128,0,19371:0:0:0:0:
448,192,19298,128,0,19371:0:0:0:0:
192,192,19371,128,0,19444:0:0:0:0:
64,192,19371,128,0,19444:0:0:0:0:
320,192,19444,128,0,19517:0:0:0:0:
448,192,19444,128,0,19517:0:0:0:0:
192,192,19517,128,0,19591:0:0:0:0:
64,192,19517,128,0,19591:0:0:0:0:
320,192,19591,128,0,19664:0:0:0:0:
448,192,19591,128,0,19664:0:0:0:0:
64,192,19664,128,0,19737:0:0:0:0:
192,192,19664,128,0,19737:0:0:0:0:
320,192,19737,128,0,19810:0:0:0:0:
448,192,19737,128,0,19810:0:0:0:0:
64,192,19810,128,0,19993:0:0:0:0:
192,192,19883,128,0,20030:0:0:0:0:
320,192,19883,128,0,20066:0:0:0:0:
448,192,19883,128,0,20286:0:0:0:0:
320,192,20176,128,0,20322:0:0:0:0:
192,192,20176,128,0,20359:0:0:0:0:
64,192,20176,128,0,20578:0:0:0:0:
192,192,20469,128,0,20615:0:0:0:0:
320,192,20469,128,0,20651:0:0:0:0:
448,192,20469,128,0,20688:0:0:0:0:
64,192,20761,128,0,20981:0:0:0:0:
192,192,20761,128,0,20981:0:0:0:0:
320,192,20761,128,0,20981:0:0:0:0:
448,192,20761,128,0,20981:0:0:0:0:
64,192,21054,128,0,21200:0:0:0:0:
448,192,21054,128,0,21200:0:0:0:0:
320,192,21127,128,0,21273:0:0:0:0:
192,192,21200,128,0,21347:0:0:0:0:
64,192,21273,128,0,21347:0:0:0:0:
320,192,21347,1,0,0:0:0:0:
448,192,21347,1,0,0:0:0:0:
64,192,21420,1,0,0:0:0:0:
192,192,21420,1,0,0:0:0:0:
320,192,21493,1,0,0:0:0:0:
448,192,21493,1,0,0:0:0:0:
64,192,21566,1,0,0:0:0:0:
192,192,21566,1,0,0:0:0:0:
448,192,21639,128,0,21786:0:0:0:0:
320,192,21639,128,0,21712:0:0:0:0:
64,192,21712,128,0,21859:0:0:0:0:
192,192,21786,128,0,21932:0:0:0:0:
320,192,21859,128,0,22005:0:0:0:0:
64,192,21932,128,0,22151:0:0:0:0:
448,192,21932,128,0,22298:0:0:0:0:
192,192,22078,128,0,22151:0:0:0:0:
320,192,22078,128,0,22444:0:0:0:0:
64,192,22225,128,0,22298:0:0:0:0:
192,192,22225,128,0,22444:0:0:0:0:
448,192,22371,128,0,22591:0:0:0:0:
64,192,22371,128,0,22444:0:0:0:0:
320,192,22517,128,0,22664:0:0:0:0:
192,192,22517,128,0,22737:0:0:0:0:
64,192,22517,128,0,22810:0:0:0:0:
448,192,22664,1,0,0:0:0:0:
448,192,22737,1,0,0:0:0:0:
320,192,22810,128,0,22956:0:0:0:0:
192,192,22810,1,0,0:0:0:0:
448,192,22883,1,0,0:0:0:0:
64,192,22956,128,0,23103:0:0:0:0:
192,192,22956,1,0,0:0:0:0:
320,192,23030,1,0,0:0:0:0:
448,192,23103,128,0,23249:0:0:0:0:
192,192,23103,1,0,0:0:0:0:
64,192,23176,1,0,0:0:0:0:
320,192,23249,1,0,0:0:0:0:
320,192,23322,128,0,23469:0:0:0:0:
192,192,23395,128,0,23469:0:0:0:0:
64,192,23395,128,0,23542:0:0:0:0:
448,192,23542,128,0,23615:0:0:0:0:
192,192,23615,128,0,23688:0:0:0:0:
320,192,23688,128,0,23761:0:0:0:0:
448,192,23688,128,0,23834:0:0:0:0:
64,192,23761,1,0,0:0:0:0:
192,192,23834,128,0,23908:0:0:0:0:
320,192,23834,1,0,0:0:0:0:
448,192,23908,1,0,0:0:0:0:
192,192,23981,128,0,24127:0:0:0:0:
64,192,23981,128,0,24054:0:0:0:0:
320,192,24054,1,0,0:0:0:0:
448,192,24127,128,0,24200:0:0:0:0:
192,192,24200,1,0,0:0:0:0:
448,192,24273,128,0,24420:0:0:0:0:
64,192,24273,128,0,24365:0:0:0:0:
320,192,24347,128,0,24493:0:0:0:0:
192,192,24420,128,0,24566:0:0:0:0:
64,192,24493,128,0,24566:0:0:0:0:
320,192,24566,128,0,24639:0:0:0:0:
448,192,24566,128,0,24639:0:0:0:0:
192,192,24639,128,0,24712:0:0:0:0:
64,192,24639,128,0,24712:0:0:0:0:
448,192,24712,128,0,24786:0:0:0:0:
320,192,24712,128,0,24859:0:0:0:0:
192,192,24786,128,0,24859:0:0:0:0:
64,192,24859,128,0,24932:0:0:0:0:
448,192,24859,128,0,24932:0:0:0:0:
320,192,24932,128,0,25005:0:0:0:0:
192,192,24932,128,0,25078:0:0:0:0:
64,192,25005,128,0,25078:0:0:0:0:
448,192,25005,128,0,25078:0:0:0:0:
320,192,25078,128,0,25151:0:0:0:0:
64,192,25151,128,0,25225:0:0:0:0:
192,192,25151,128,0,25225:0:0:0:0:
320,192,25225,128,0,25298:0:0:0:0:
448,192,25225,128,0,25298:0:0:0:0:
64,192,25298,128,0,25371:0:0:0:0:
192,192,25298,128,0,25444:0:0:0:0:
320,192,25371,128,0,25444:0:0:0:0:
448,192,25444,128,0,25517:0:0:0:0:
64,192,25444,128,0,25517:0:0:0:0:
192,192,25517,128,0,25591:0:0:0:0:
320,192,25517,128,0,25591:0:0:0:0:
448,192,25591,128,0,25664:0:0:0:0:
64,192,25591,128,0,25737:0:0:0:0:
192,192,25664,128,0,25737:0:0:0:0:
320,192,25737,128,0,25956:0:0:0:0:
448,192,25737,128,0,25956:0:0:0:0:
192,192,25883,128,0,25956:0:0:0:0:
64,192,25883,128,0,25956:0:0:0:0:
64,192,26030,1,0,0:0:0:0:
320,192,26030,1,0,0:0:0:0:
448,192,26030,128,0,26103:0:0:0:0:
192,192,26103,128,0,26176:0:0:0:0:
448,192,26176,128,0,26249:0:0:0:0:
192,192,26249,128,0,26322:0:0:0:0:
64,192,26322,1,0,0:0:0:0:
448,192,26322,128,0,26469:0:0:0:0:
320,192,26395,128,0,26542:0:0:0:0:
192,192,26469,128,0,26615:0:0:0:0:
64,192,26542,128,0,26615:0:0:0:0:
320,192,26615,128,0,26761:0:0:0:0:
448,192,26615,1,0,0:0:0:0:
64,192,26688,128,0,26834:0:0:0:0:
448,192,26761,128,0,26908:0:0:0:0:
192,192,26834,128,0,26981:0:0:0:0:
320,192,26908,128,0,27054:0:0:0:0:
64,192,26908,128,0,26981:0:0:0:0:
448,192,26981,128,0,27127:0:0:0:0:
64,192,27054,128,0,27200:0:0:0:0:
192,192,27127,128,0,27200:0:0:0:0:
320,192,27200,128,0,27273:0:0:0:0:
448,192,27200,128,0,27347:0:0:0:0:
64,192,27273,128,0,27420:0:0:0:0:
192,192,27347,128,0,27493:0:0:0:0:
320,192,27420,128,0,27493:0:0:0:0:
64,192,27493,128,0,27639:0:0:0:0:
448,192,27493,128,0,27712:0:0:0:0:
320,192,27566,128,0,27712:0:0:0:0:
192,192,27639,128,0,27786:0:0:0:0:
64,192,27712,128,0,27786:0:0:0:0:
448,192,27786,128,0,28005:0:0:0:0:
320,192,27786,128,0,27932:0:0:0:0:
64,192,27859,128,0,28005:0:0:0:0:
192,192,27932,128,0,28078:0:0:0:0:
320,192,28005,128,0,28078:0:0:0:0:
64,192,28078,1,0,0:0:0:0:
448,192,28078,1,0,0:0:0:0:
192,192,28151,1,0,0:0:0:0:
320,192,28225,1,0,0:0:0:0:
192,192,28298,1,0,0:0:0:0:
448,192,28371,1,0,0:0:0:0:
320,192,28371,1,0,0:0:0:0:
64,192,28444,1,0,0:0:0:0:
448,192,28517,1,0,0:0:0:0:
64,192,28591,1,0,0:0:0:0:
320,192,28664,1,0,0:0:0:0:
448,192,28664,1,0,0:0:0:0:
64,192,28737,1,0,0:0:0:0:
192,192,28810,1,0,0:0:0:0:
320,192,28810,1,0,0:0:0:0:
448,192,28883,1,0,0:0:0:0:
64,192,28956,1,0,0:0:0:0:
192,192,28956,1,0,0:0:0:0:
320,192,29030,1,0,0:0:0:0:
448,192,29030,1,0,0:0:0:0:
64,192,29103,1,0,0:0:0:0:
192,192,29103,1,0,0:0:0:0:
320,192,29176,1,0,0:0:0:0:
192,192,29249,128,0,29469:0:0:0:0:
64,192,29249,128,0,29469:0:0:0:0:
448,192,29249,128,0,29469:0:0:0:0:
64,192,29542,128,0,29761:0:0:0:0:
320,192,29542,1,0,0:0:0:0:
448,192,29542,128,0,29761:0:0:0:0:
192,192,29615,1,0,0:0:0:0:
320,192,29688,1,0,0:0:0:0:
192,192,29761,1,0,0:0:0:0:
448,192,29834,128,0,30054:0:0:0:0:
64,192,29834,128,0,30054:0:0:0:0:
320,192,29834,128,0,29981:0:0:0:0:
192,192,29981,1,0,0:0:0:0:
320,192,30054,1,0,0:0:0:0:
64,192,30127,1,0,0:0:0:0:
448,192,30127,1,0,0:0:0:0:
192,192,30273,1,0,0:0:0:0:
320,192,30273,1,0,0:0:0:0:
64,192,30420,1,0,0:0:0:0:
192,192,30420,1,0,0:0:0:0:
448,192,30420,128,0,30712:0:0:0:0:
320,192,30493,128,0,30639:0:0:0:0:
64,192,30566,128,0,30786:0:0:0:0:
192,192,30639,128,0,30859:0:0:0:0:
320,192,30712,128,0,30932:0:0:0:0:
448,192,30786,128,0,31005:0:0:0:0:
64,192,30859,1,0,0:0:0:0:
64,192,31005,1,0,0:0:0:0:
192,192,31005,1,0,0:0:0:0:
320,192,31078,1,0,0:0:0:0:
448,192,31151,1,0,0:0:0:0:
192,192,31151,1,0,0:0:0:0:
64,192,31225,1,0,0:0:0:0:
448,192,31298,128,0,31481:0:0:0:0:
320,192,31334,128,0,31444:0:0:0:0:
192,192,31371,128,0,31408:0:0:0:0:
64,192,31444,128,0,31517:0:0:0:0:
192,192,31481,128,0,31554:0:0:0:0:
320,192,31517,128,0,31591:0:0:0:0:
64,192,31591,128,0,31737:0:0:0:0:
448,192,31591,128,0,31664:0:0:0:0:
192,192,31664,128,0,31883:0:0:0:0:
320,192,31737,128,0,31847:0:0:0:0:
448,192,31737,128,0,31810:0:0:0:0:
64,192,31810,128,0,31883:0:0:0:0:
448,192,31956,128,0,32103:0:0:0:0:
64,192,31956,128,0,32103:0:0:0:0:
320,192,32030,128,0,32176:0:0:0:0:
192,192,32103,128,0,32176:0:0:0:0:
448,192,32176,1,0,0:0:0:0:
64,192,32176,1,0,0:0:0:0:
320,192,32249,1,0,0:0:0:0:
448,192,32322,1,0,0:0:0:0:
64,192,32322,1,0,0:0:0:0:
192,192,32395,1,0,0:0:0:0:
320,192,32469,1,0,0:0:0:0:
448,192,32469,1,0,0:0:0:0:
64,192,32469,1,0,0:0:0:0:
192,192,32615,1,0,0:0:0:0:
320,192,32615,1,0,0:0:0:0:
64,192,32761,1,0,0:0:0:0:
192,192,32761,1,0,0:0:0:0:
320,192,32834,1,0,0:0:0:0:
448,192,32834,1,0,0:0:0:0:
64,192,32908,1,0,0:0:0:0:
192,192,32908,1,0,0:0:0:0:
320,192,32981,1,0,0:0:0:0:
448,192,32981,1,0,0:0:0:0:
192,192,33054,128,0,33273:0:0:0:0:
64,192,33054,128,0,33273:0:0:0:0:
320,192,33200,128,0,33347:0:0:0:0:
448,192,33273,128,0,33347:0:0:0:0:
64,192,33347,128,0,33438:0:0:0:0:
192,192,33365,128,0,33420:0:0:0:0:
320,192,33456,128,0,33566:0:0:0:0:
448,192,33475,128,0,33530:0:0:0:0:
192,192,33530,128,0,33639:0:0:0:0:
64,192,33548,128,0,33603:0:0:0:0:
448,192,33639,128,0,33786:0:0:0:0:
320,192,33676,128,0,33749:0:0:0:0:
64,192,33712,128,0,33804:0:0:0:0:
192,192,33786,128,0,33841:0:0:0:0:
320,192,33822,128,0,33877:0:0:0:0:
448,192,33859,128,0,33914:0:0:0:0:
64,192,33932,128,0,34078:0:0:0:0:
192,192,33932,128,0,34078:0:0:0:0:
320,192,34005,128,0,34151:0:0:0:0:
448,192,34078,128,0,34151:0:0:0:0:
64,192,34151,1,0,0:0:0:0:
192,192,34151,1,0,0:0:0:0:
320,192,34225,128,0,34371:0:0:0:0:
448,192,34225,128,0,34371:0:0:0:0:
192,192,34298,128,0,34444:0:0:0:0:
64,192,34371,128,0,34444:0:0:0:0:
320,192,34444,1,0,0:0:0:0:
448,192,34517,128,0,34810:0:0:0:0:
64,192,34517,128,0,34664:0:0:0:0:
192,192,34591,128,0,34737:0:0:0:0:
320,192,34664,128,0,34810:0:0:0:0:
64,192,34810,128,0,34883:0:0:0:0:
192,192,34810,128,0,34883:0:0:0:0:
320,192,34883,128,0,34956:0:0:0:0:
448,192,34883,128,0,34956:0:0:0:0:
192,192,34956,128,0,35030:0:0:0:0:
64,192,34956,128,0,35030:0:0:0:0:
320,192,35030,1,0,0:0:0:0:
448,192,35103,128,0,35322:0:0:0:0:
64,192,35103,128,0,35176:0:0:0:0:
192,192,35176,128,0,35249:0:0:0:0:
320,192,35249,128,0,35322:0:0:0:0:
64,192,35322,128,0,35395:0:0:0:0:
320,192,35395,128,0,35615:0:0:0:0:
448,192,35395,128,0,35469:0:0:0:0:
192,192,35469,128,0,35542:0:0:0:0:
64,192,35542,128,0,35615:0:0:0:0:
448,192,35615,128,0,35688:0:0:0:0:
192,192,35688,128,0,35908:0:0:0:0:
320,192,35688,128,0,35761:0:0:0:0:
64,192,35761,128,0,35834:0:0:0:0:
320,192,35834,128,0,35908:0:0:0:0:
448,192,35908,128,0,35981:0:0:0:0:
64,192,35981,128,0,36200:0:0:0:0:
192,192,35981,128,0,36054:0:0:0:0:
320,192,36054,128,0,36127:0:0:0:0:
448,192,36127,128,0,36200:0:0:0:0:
192,192,36200,128,0,36273:0:0:0:0:
320,192,36273,128,0,36347:0:0:0:0:
448,192,36273,128,0,36420:0:0:0:0:
64,192,36347,128,0,36493:0:0:0:0:
192,192,36420,128,0,36566:0:0:0:0:
320,192,36493,128,0,36566:0:0:0:0:
448,192,36566,128,0,36712:0:0:0:0:
64,192,36566,128,0,36639:0:0:0:0:
192,192,36639,128,0,36786:0:0:0:0:
320,192,36712,128,0,36859:0:0:0:0:
448,192,36786,128,0,36859:0:0:0:0:
64,192,36859,128,0,36932:0:0:0:0:
192,192,36859,128,0,37005:0:0:0:0:
320,192,36932,128,0,37078:0:0:0:0:
448,192,37005,128,0,37078:0:0:0:0:
64,192,37005,128,0,37151:0:0:0:0:
192,192,37078,128,0,37151:0:0:0:0:
320,192,37151,128,0,37298:0:0:0:0:
448,192,37151,128,0,37225:0:0:0:0:
192,192,37225,128,0,37371:0:0:0:0:
64,192,37298,128,0,37371:0:0:0:0:
448,192,37298,128,0,37444:0:0:0:0:
320,192,37371,128,0,37444:0:0:0:0:
64,192,37444,128,0,37517:0:0:0:0:
192,192,37444,128,0,37517:0:0:0:0:
320,192,37517,128,0,37591:0:0:0:0:
448,192,37517,128,0,37664:0:0:0:0:
64,192,37591,128,0,37664:0:0:0:0:
192,192,37591,128,0,37737:0:0:0:0:
320,192,37664,128,0,37737:0:0:0:0:
64,192,37737,128,0,37810:0:0:0:0:
448,192,37737,128,0,37810:0:0:0:0:
192,192,37810,128,0,37883:0:0:0:0:
320,192,37810,128,0,37956:0:0:0:0:
448,192,37883,128,0,37956:0:0:0:0:
64,192,37883,128,0,38030:0:0:0:0:
192,192,37956,128,0,38030:0:0:0:0:
320,192,38030,128,0,38103:0:0:0:0:
448,192,38030,128,0,38103:0:0:0:0:
192,192,38103,128,0,38176:0:0:0:0:
64,192,38103,128,0,38176:0:0:0:0:
320,192,38176,128,0,38249:0:0:0:0:
448,192,38176,128,0,38249:0:0:0:0:
64,192,38249,128,0,38322:0:0:0:0:
192,192,38249,128,0,38322:0:0:0:0:
320,192,38322,128,0,38395:0:0:0:0:
448,192,38322,128,0,38395:0:0:0:0:
192,192,38395,128,0,38469:0:0:0:0:
64,192,38395,128,0,38469:0:0:0:0:
320,192,38469,128,0,38542:0:0:0:0:
448,192,38469,128,0,38542:0:0:0:0:
192,192,38542,128,0,38615:0:0:0:0:
448,192,38615,128,0,38761:0:0:0:0:
64,192,38615,1,0,0:0:0:0:
320,192,38688,128,0,38834:0:0:0:0:
192,192,38761,128,0,38908:0:0:0:0:
64,192,38834,128,0,38981:0:0:0:0:
320,192,38908,128,0,39054:0:0:0:0:
448,192,38981,128,0,39127:0:0:0:0:
192,192,39054,128,0,39200:0:0:0:0:
320,192,39127,128,0,39273:0:0:0:0:
64,192,39200,128,0,39347:0:0:0:0:
448,192,39200,1,0,0:0:0:0:
192,192,39273,128,0,39420:0:0:0:0:
320,192,39347,128,0,39420:0:0:0:0:
448,192,39347,128,0,39420:0:0:0:0:
64,192,39420,128,0,39566:0:0:0:0:
192,192,39493,128,0,39566:0:0:0:0:
320,192,39493,128,0,39712:0:0:0:0:
448,192,39493,128,0,39712:0:0:0:0:
64,192,39639,128,0,39712:0:0:0:0:
192,192,39639,128,0,39786:0:0:0:0:
64,192,39786,1,0,0:0:0:0:
320,192,39786,1,0,0:0:0:0:
448,192,39786,128,0,39932:0:0:0:0:
192,192,39932,1,0,0:0:0:0:
320,192,40005,128,0,40151:0:0:0:0:
448,192,40005,1,0,0:0:0:0:
64,192,40078,1,0,0:0:0:0:
192,192,40078,1,0,0:0:0:0:
448,192,40151,1,0,0:0:0:0:
192,192,40225,128,0,40371:0:0:0:0:
320,192,40225,1,0,0:0:0:0:
64,192,40371,1,0,0:0:0:0:
448,192,40371,128,0,40517:0:0:0:0:
320,192,40444,128,0,40591:0:0:0:0:
192,192,40517,128,0,40664:0:0:0:0:
64,192,40591,128,0,40737:0:0:0:0:
320,192,40664,128,0,40810:0:0:0:0:
448,192,40664,128,0,40810:0:0:0:0:
64,192,40810,128,0,40883:0:0:0:0:
192,192,40810,128,0,40883:0:0:0:0:
320,192,40883,1,0,0:0:0:0:
64,192,40956,128,0,41249:0:0:0:0:
448,192,40956,128,0,41030:0:0:0:0:
192,192,41030,1,0,0:0:0:0:
320,192,41103,1,0,0:0:0:0:
448,192,41103,1,0,0:0:0:0:
192,192,41176,1,0,0:0:0:0:
448,192,41249,128,0,41322:0:0:0:0:
320,192,41249,1,0,0:0:0:0:
64,192,41322,1,0,0:0:0:0:
192,192,41395,1,0,0:0:0:0:
320,192,41395,128,0,41469:0:0:0:0:
64,192,41469,1,0,0:0:0:0:
192,192,41542,128,0,41615:0:0:0:0:
448,192,41542,128,0,41761:0:0:0:0:
320,192,41688,128,0,41908:0:0:0:0:
64,192,41688,128,0,41761:0:0:0:0:
192,192,41761,128,0,42054:0:0:0:0:
64,192,41834,128,0,42054:0:0:0:0:
448,192,41834,128,0,42054:0:0:0:0:
320,192,41981,128,0,42200:0:0:0:0:
64,192,42127,128,0,42493:0:0:0:0:
192,192,42127,128,0,42273:0:0:0:0:
448,192,42127,128,0,42347:0:0:0:0:
320,192,42273,1,0,0:0:0:0:
192,192,42420,128,0,42566:0:0:0:0:
448,192,42420,128,0,42712:0:0:0:0:
320,192,42420,128,0,42639:0:0:0:0:
64,192,42566,1,0,0:0:0:0:
64,192,42712,128,0,42859:0:0:0:0:
192,192,42712,128,0,42786:0:0:0:0:
448,192,42786,1,0,0:0:0:0:
192,192,42859,128,0,43005:0:0:0:0:
320,192,42859,128,0,42932:0:0:0:0:
64,192,42932,1,0,0:0:0:0:
320,192,43005,128,0,43151:0:0:0:0:
448,192,43005,128,0,43078:0:0:0:0:
192,192,43078,1,0,0:0:0:0:
64,192,43151,128,0,43298:0:0:0:0:
448,192,43151,128,0,43225:0:0:0:0:
192,192,43225,1,0,0:0:0:0:
448,192,43298,1,0,0:0:0:0:
320,192,43334,1,0,0:0:0:0:
192,192,43371,1,0,0:0:0:0:
64,192,43408,1,0,0:0:0:0:
448,192,43444,1,0,0:0:0:0:
320,192,43481,1,0,0:0:0:0:
192,192,43517,1,0,0:0:0:0:
64,192,43554,1,0,0:0:0:0:
320,192,43591,1,0,0:0:0:0:
448,192,43591,1,0,0:0:0:0:
64,192,43737,128,0,43810:0:0:0:0:
192,192,43737,128,0,43956:0:0:0:0:
320,192,43810,128,0,43956:0:0:0:0:
448,192,43883,128,0,44030:0:0:0:0:
64,192,43883,1,0,0:0:0:0:
320,192,44030,1,0,0:0:0:0:
192,192,44103,1,0,0:0:0:0:
64,192,44103,128,0,44249:0:0:0:0:
320,192,44176,1,0,0:0:0:0:
448,192,44176,1,0,0:0:0:0:
192,192,44249,1,0,0:0:0:0:
64,192,44322,1,0,0:0:0:0:
448,192,44322,128,0,44469:0:0:0:0:
320,192,44395,1,0,0:0:0:0:
192,192,44469,1,0,0:0:0:0:
64,192,44505,1,0,0:0:0:0:
320,192,44542,1,0,0:0:0:0:
448,192,44578,1,0,0:0:0:0:
192,192,44615,1,0,0:0:0:0:
64,192,44651,1,0,0:0:0:0:
320,192,44688,1,0,0:0:0:0:
448,192,44725,1,0,0:0:0:0:
192,192,44761,1,0,0:0:0:0:
64,192,44798,1,0,0:0:0:0:
320,192,44834,1,0,0:0:0:0:
448,192,44871,1,0,0:0:0:0:
192,192,44908,128,0,45054:0:0:0:0:
64,192,44981,128,0,45054:0:0:0:0:
448,192,45054,1,0,0:0:0:0:
320,192,45091,1,0,0:0:0:0:
64,192,45127,1,0,0:0:0:0:
192,192,45164,1,0,0:0:0:0:
448,192,45200,1,0,0:0:0:0:
320,192,45237,1,0,0:0:0:0:
64,192,45273,1,0,0:0:0:0:
192,192,45310,1,0,0:0:0:0:
448,192,45347,1,0,0:0:0:0:
320,192,45383,1,0,0:0:0:0:
64,192,45420,1,0,0:0:0:0:
192,192,45456,1,0,0:0:0:0:
448,192,45493,128,0,45712:0:0:0:0:
320,192,45566,128,0,45712:0:0:0:0:
192,192,45639,128,0,45786:0:0:0:0:
64,192,45639,128,0,45786:0:0:0:0:
448,192,45786,1,0,0:0:0:0:
192,192,45859,128,0,46005:0:0:0:0:
320,192,45859,128,0,46005:0:0:0:0:
64,192,45932,1,0,0:0:0:0:
448,192,45932,1,0,0:0:0:0:
320,192,46078,128,0,46225:0:0:0:0:
448,192,46078,128,0,46225:0:0:0:0:
64,192,46225,1,0,0:0:0:0:
192,192,46261,1,0,0:0:0:0:
320,192,46298,1,0,0:0:0:0:
448,192,46334,1,0,0:0:0:0:
64,192,46371,1,0,0:0:0:0:
192,192,46408,1,0,0:0:0:0:
320,192,46444,1,0,0:0:0:0:
448,192,46481,1,0,0:0:0:0:
64,192,46517,1,0,0:0:0:0:
192,192,46554,1,0,0:0:0:0:
320,192,46591,1,0,0:0:0:0:
448,192,46627,1,0,0:0:0:0:
64,192,46664,1,0,0:0:0:0:
192,192,46737,128,0,46883:0:0:0:0:
64,192,46810,128,0,46956:0:0:0:0:
448,192,46810,128,0,46883:0:0:0:0:
320,192,46956,1,0,0:0:0:0:
448,192,46956,1,0,0:0:0:0:
64,192,47030,128,0,47103:0:0:0:0:
192,192,47030,128,0,47176:0:0:0:0:
448,192,47103,1,0,0:0:0:0:
64,192,47176,1,0,0:0:0:0:
192,192,47249,128,0,47322:0:0:0:0:
320,192,47249,128,0,47469:0:0:0:0:
64,192,47395,128,0,47469:0:0:0:0:
448,192,47395,128,0,47469:0:0:0:0:
192,192,47395,128,0,47615:0:0:0:0:
320,192,47542,128,0,47615:0:0:0:0:
448,192,47542,128,0,47615:0:0:0:0:
64,192,47542,128,0,47761:0:0:0:0:
192,192,47688,128,0,47761:0:0:0:0:
320,192,47688,128,0,47761:0:0:0:0:
448,192,47688,128,0,47908:0:0:0:0:
64,192,47834,128,0,47908:0:0:0:0:
192,192,47834,128,0,47908:0:0:0:0:
320,192,47834,128,0,47908:0:0:0:0:
448,192,47981,1,0,0:0:0:0:
320,192,48017,1,0,0:0:0:0:
64,192,48054,1,0,0:0:0:0:
192,192,48091,1,0,0:0:0:0:
448,192,48127,1,0,0:0:0:0:
320,192,48164,1,0,0:0:0:0:
192,192,48200,1,0,0:0:0:0:
64,192,48237,1,0,0:0:0:0:
448,192,48273,128,0,48420:0:0:0:0:
320,192,48347,128,0,48420:0:0:0:0:
64,192,48420,1,0,0:0:0:0:
192,192,48456,1,0,0:0:0:0:
320,192,48493,1,0,0:0:0:0:
448,192,48530,1,0,0:0:0:0:
64,192,48566,128,0,48639:0:0:0:0:
192,192,48566,128,0,48639:0:0:0:0:
448,192,48639,128,0,48712:0:0:0:0:
320,192,48639,128,0,48712:0:0:0:0:
64,192,48712,128,0,48786:0:0:0:0:
192,192,48712,128,0,48786:0:0:0:0:
320,192,48786,128,0,48859:0:0:0:0:
448,192,48786,128,0,48859:0:0:0:0:
64,192,48859,128,0,48932:0:0:0:0:
192,192,48859,128,0,48932:0:0:0:0:
320,192,48932,128,0,49005:0:0:0:0:
448,192,48932,128,0,49005:0:0:0:0:
64,192,49005,128,0,49078:0:0:0:0:
192,192,49005,128,0,49078:0:0:0:0:
320,192,49078,128,0,49151:0:0:0:0:
448,192,49151,1,0,0:0:0:0:
192,192,49151,1,0,0:0:0:0:
64,192,49151,128,0,49298:0:0:0:0:
320,192,49298,1,0,0:0:0:0:
192,192,49371,128,0,49517:0:0:0:0:
64,192,49371,1,0,0:0:0:0:
320,192,49444,1,0,0:0:0:0:
448,192,49444,1,0,0:0:0:0:
64,192,49517,1,0,0:0:0:0:
320,192,49591,128,0,49737:0:0:0:0:
192,192,49591,1,0,0:0:0:0:
448,192,49737,1,0,0:0:0:0:
64,192,49737,128,0,49883:0:0:0:0:
192,192,49810,128,0,49956:0:0:0:0:
320,192,49883,128,0,50030:0:0:0:0:
448,192,49956,128,0,50103:0:0:0:0:
64,192,50030,128,0,50176:0:0:0:0:
192,192,50030,128,0,50176:0:0:0:0:
320,192,50176,128,0,50249:0:0:0:0:
448,192,50176,128,0,50249:0:0:0:0:
192,192,50249,1,0,0:0:0:0:
64,192,50322,128,0,50395:0:0:0:0:
448,192,50322,128,0,50615:0:0:0:0:
320,192,50395,1,0,0:0:0:0:
192,192,50469,1,0,0:0:0:0:
64,192,50469,1,0,0:0:0:0:
320,192,50542,1,0,0:0:0:0:
192,192,50615,1,0,0:0:0:0:
64,192,50615,128,0,50688:0:0:0:0:
448,192,50688,1,0,0:0:0:0:
320,192,50761,1,0,0:0:0:0:
192,192,50761,128,0,50834:0:0:0:0:
448,192,50834,1,0,0:0:0:0:
64,192,50908,128,0,51127:0:0:0:0:
320,192,50908,128,0,50981:0:0:0:0:
192,192,51054,128,0,51127:0:0:0:0:
448,192,51054,128,0,51200:0:0:0:0:
320,192,51127,128,0,51200:0:0:0:0:
64,192,51200,1,0,0:0:0:0:
192,192,51237,1,0,0:0:0:0:
320,192,51273,1,0,0:0:0:0:
448,192,51310,1,0,0:0:0:0:
64,192,51347,1,0,0:0:0:0:
192,192,51383,1,0,0:0:0:0:
320,192,51420,1,0,0:0:0:0:
448,192,51456,1,0,0:0:0:0:
64,192,51493,1,0,0:0:0:0:
192,192,51530,1,0,0:0:0:0:
448,192,51566,1,0,0:0:0:0:
320,192,51603,1,0,0:0:0:0:
64,192,51639,1,0,0:0:0:0:
192,192,51676,1,0,0:0:0:0:
448,192,51712,1,0,0:0:0:0:
320,192,51749,1,0,0:0:0:0:
64,192,51786,128,0,51859:0:0:0:0:
192,192,51786,128,0,52005:0:0:0:0:
64,192,51932,128,0,52151:0:0:0:0:
448,192,51932,128,0,52005:0:0:0:0:
320,192,52078,128,0,52225:0:0:0:0:
448,192,52078,128,0,52151:0:0:0:0:
64,192,52225,1,0,0:0:0:0:
192,192,52298,128,0,52444:0:0:0:0:
320,192,52298,128,0,52371:0:0:0:0:
448,192,52371,1,0,0:0:0:0:
64,192,52371,1,0,0:0:0:0:
320,192,52444,1,0,0:0:0:0:
64,192,52517,128,0,52664:0:0:0:0:
192,192,52517,128,0,52591:0:0:0:0:
320,192,52664,128,0,52883:0:0:0:0:
448,192,52664,128,0,52737:0:0:0:0:
64,192,52810,128,0,52883:0:0:0:0:
448,192,52810,128,0,53030:0:0:0:0:
320,192,52956,128,0,53030:0:0:0:0:
192,192,52956,128,0,53176:0:0:0:0:
64,192,52956,128,0,53176:0:0:0:0:
320,192,53103,128,0,53249:0:0:0:0:
448,192,53103,128,0,53249:0:0:0:0:
64,192,53249,1,0,0:0:0:0:
192,192,53286,1,0,0:0:0:0:
320,192,53322,1,0,0:0:0:0:
448,192,53359,1,0,0:0:0:0:
64,192,53395,1,0,0:0:0:0:
192,192,53432,1,0,0:0:0:0:
320,192,53469,1,0,0:0:0:0:
448,192,53505,1,0,0:0:0:0:
64,192,53542,1,0,0:0:0:0:
192,192,53542,1,0,0:0:0:0:
320,192,53688,128,0,53761:0:0:0:0:
448,192,53688,128,0,53761:0:0:0:0:
64,192,53761,128,0,53908:0:0:0:0:
192,192,53761,128,0,53908:0:0:0:0:
320,192,53834,128,0,53908:0:0:0:0:
448,192,53834,128,0,53908:0:0:0:0:
64,192,53981,1,0,0:0:0:0:
320,192,53981,1,0,0:0:0:0:
448,192,53981,1,0,0:0:0:0:
64,192,54054,128,0,54127:0:0:0:0:
192,192,54054,128,0,54127:0:0:0:0:
448,192,54127,1,0,0:0:0:0:
320,192,54164,1,0,0:0:0:0:
64,192,54200,1,0,0:0:0:0:
192,192,54237,1,0,0:0:0:0:
448,192,54273,1,0,0:0:0:0:
320,192,54310,1,0,0:0:0:0:
64,192,54347,1,0,0:0:0:0:
192,192,54383,1,0,0:0:0:0:
320,192,54420,1,0,0:0:0:0:
448,192,54420,1,0,0:0:0:0:
192,192,54566,128,0,54639:0:0:0:0:
64,192,54566,128,0,54932:0:0:0:0:
192,192,54712,128,0,54932:0:0:0:0:
320,192,54712,128,0,54786:0:0:0:0:
448,192,54712,1,0,0:0:0:0:
320,192,54859,128,0,55078:0:0:0:0:
448,192,54859,128,0,55078:0:0:0:0:
192,192,55005,128,0,55078:0:0:0:0:
64,192,55005,128,0,55078:0:0:0:0:
192,192,55151,1,0,0:0:0:0:
448,192,55151,1,0,0:0:0:0:
64,192,55151,1,0,0:0:0:0:
320,192,55225,128,0,55298:0:0:0:0:
448,192,55225,128,0,55298:0:0:0:0:
192,192,55298,1,0,0:0:0:0:
64,192,55334,1,0,0:0:0:0:
320,192,55371,1,0,0:0:0:0:
448,192,55408,1,0,0:0:0:0:
192,192,55444,1,0,0:0:0:0:
64,192,55481,1,0,0:0:0:0:
320,192,55517,1,0,0:0:0:0:
448,192,55554,1,0,0:0:0:0:
64,192,55591,1,0,0:0:0:0:
192,192,55591,1,0,0:0:0:0:
320,192,55737,128,0,55810:0:0:0:0:
448,192,55737,128,0,55883:0:0:0:0:
64,192,55810,128,0,55956:0:0:0:0:
192,192,55883,128,0,55956:0:0:0:0:
320,192,55883,128,0,56030:0:0:0:0:
448,192,55956,128,0,56030:0:0:0:0:
192,192,56030,128,0,56176:0:0:0:0:
64,192,56030,128,0,56103:0:0:0:0:
320,192,56103,128,0,56249:0:0:0:0:
64,192,56176,128,0,56322:0:0:0:0:
448,192,56176,128,0,56249:0:0:0:0:
192,192,56249,1,0,0:0:0:0:
320,192,56322,128,0,56395:0:0:0:0:
448,192,56322,128,0,56395:0:0:0:0:
64,192,56395,128,0,56469:0:0:0:0:
192,192,56395,128,0,56469:0:0:0:0:
320,192,56469,128,0,56542:0:0:0:0:
448,192,56469,128,0,56542:0:0:0:0:
64,192,56542,1,0,0:0:0:0:
192,192,56615,128,0,56688:0:0:0:0:
320,192,56615,128,0,56761:0:0:0:0:
448,192,56688,1,0,0:0:0:0:
64,192,56761,128,0,56834:0:0:0:0:
192,192,56761,128,0,56834:0:0:0:0:
320,192,56834,128,0,56908:0:0:0:0:
448,192,56834,128,0,56908:0:0:0:0:
64,192,56908,128,0,56981:0:0:0:0:
192,192,56908,128,0,56981:0:0:0:0:
320,192,56981,1,0,0:0:0:0:
64,192,57054,128,0,57200:0:0:0:0:
448,192,57054,128,0,57127:0:0:0:0:
192,192,57127,1,0,0:0:0:0:
320,192,57200,128,0,57273:0:0:0:0:
448,192,57200,128,0,57347:0:0:0:0:
64,192,57273,1,0,0:0:0:0:
320,192,57347,1,0,0:0:0:0:
192,192,57347,128,0,57493:0:0:0:0:
64,192,57420,128,0,57493:0:0:0:0:
448,192,57493,1,0,0:0:0:0:
320,192,57530,1,0,0:0:0:0:
192,192,57566,1,0,0:0:0:0:
64,192,57603,1,0,0:0:0:0:
448,192,57639,128,0,57786:0:0:0:0:
320,192,57712,128,0,57786:0:0:0:0:
64,192,57786,1,0,0:0:0:0:
192,192,57822,1,0,0:0:0:0:
320,192,57859,1,0,0:0:0:0:
448,192,57895,1,0,0:0:0:0:
64,192,57932,128,0,58005:0:0:0:0:
192,192,57932,128,0,58005:0:0:0:0:
448,192,58005,128,0,58078:0:0:0:0:
320,192,58005,128,0,58078:0:0:0:0:
64,192,58078,128,0,58151:0:0:0:0:
192,192,58078,128,0,58225:0:0:0:0:
320,192,58151,128,0,58225:0:0:0:0:
448,192,58225,128,0,58298:0:0:0:0:
64,192,58225,128,0,58298:0:0:0:0:
192,192,58298,128,0,58371:0:0:0:0:
320,192,58298,128,0,58371:0:0:0:0:
64,192,58371,128,0,58444:0:0:0:0:
448,192,58371,128,0,58517:0:0:0:0:
320,192,58444,128,0,58517:0:0:0:0:
192,192,58444,128,0,58517:0:0:0:0:
64,192,58517,128,0,58664:0:0:0:0:
192,192,58591,128,0,58737:0:0:0:0:
320,192,58664,128,0,58810:0:0:0:0:
448,192,58737,128,0,58883:0:0:0:0:
192,192,58810,128,0,58956:0:0:0:0:
320,192,58883,128,0,59030:0:0:0:0:
64,192,58956,128,0,59103:0:0:0:0:
192,192,59030,128,0,59176:0:0:0:0:
448,192,59103,128,0,59249:0:0:0:0:
320,192,59176,128,0,59322:0:0:0:0:
192,192,59249,128,0,59395:0:0:0:0:
64,192,59322,128,0,59469:0:0:0:0:
320,192,59395,128,0,59542:0:0:0:0:
192,192,59469,128,0,59615:0:0:0:0:
448,192,59542,128,0,59688:0:0:0:0:
320,192,59615,128,0,59761:0:0:0:0:
64,192,59688,128,0,59981:0:0:0:0:
192,192,59761,128,0,59908:0:0:0:0:
320,192,59834,128,0,60127:0:0:0:0:
448,192,59908,128,0,60054:0:0:0:0:
192,192,59981,128,0,60273:0:0:0:0:
64,192,60054,128,0,60200:0:0:0:0:
448,192,60127,128,0,60420:0:0:0:0:
320,192,60200,128,0,60347:0:0:0:0:
64,192,60273,128,0,60493:0:0:0:0:
192,192,60347,128,0,60493:0:0:0:0:
320,192,60420,128,0,60566:0:0:0:0:
448,192,60493,128,0,60566:0:0:0:0:
64,192,60566,1,0,0:0:0:0:
192,192,60566,1,0,0:0:0:0:
320,192,60639,1,0,0:0:0:0:
448,192,60639,1,0,0:0:0:0:
64,192,60712,1,0,0:0:0:0:
192,192,60712,1,0,0:0:0:0:
320,192,60786,1,0,0:0:0:0:
64,192,60859,1,0,0:0:0:0:
192,192,60859,1,0,0:0:0:0:
448,192,60859,1,0,0:0:0:0:
320,192,61005,1,0,0:0:0:0:
64,192,61151,128,0,61225:0:0:0:0:
448,192,61151,1,0,0:0:0:0:
192,192,61151,1,0,0:0:0:0:
320,192,61225,128,0,61298:0:0:0:0:
64,192,61298,128,0,61371:0:0:0:0:
320,192,61371,128,0,61444:0:0:0:0:
64,192,61444,1,0,0:0:0:0:
448,192,61444,1,0,0:0:0:0:
192,192,61444,128,0,61591:0:0:0:0:
320,192,61517,128,0,61664:0:0:0:0:
64,192,61591,128,0,61737:0:0:0:0:
192,192,61664,128,0,61810:0:0:0:0:
320,192,61737,128,0,61810:0:0:0:0:
448,192,61737,128,0,61956:0:0:0:0:
320,192,61883,128,0,62103:0:0:0:0:
64,192,61883,128,0,61956:0:0:0:0:
64,192,62030,128,0,62249:0:0:0:0:
192,192,62030,128,0,62249:0:0:0:0:
448,192,62030,128,0,62103:0:0:0:0:
448,192,62176,128,0,62249:0:0:0:0:
320,192,62176,128,0,62249:0:0:0:0:
64,192,62322,128,0,62395:0:0:0:0:
320,192,62322,128,0,62469:0:0:0:0:
448,192,62322,128,0,62542:0:0:0:0:
192,192,62469,1,0,0:0:0:0:
192,192,62542,128,0,62761:0:0:0:0:
64,192,62615,128,0,62834:0:0:0:0:
448,192,62615,128,0,62688:0:0:0:0:
320,192,62615,128,0,62688:0:0:0:0:
448,192,62761,128,0,62981:0:0:0:0:
320,192,62834,128,0,62981:0:0:0:0:
64,192,62908,128,0,63127:0:0:0:0:
192,192,62908,128,0,63127:0:0:0:0:
320,192,63054,1,0,0:0:0:0:
320,192,63127,1,0,0:0:0:0:
64,192,63200,1,0,0:0:0:0:
192,192,63200,1,0,0:0:0:0:
448,192,63200,1,0,0:0:0:0:
320,192,63347,128,0,63566:0:0:0:0:
192,192,63420,128,0,63566:0:0:0:0:
448,192,63493,128,0,63712:0:0:0:0:
64,192,63493,128,0,63566:0:0:0:0:
192,192,63639,128,0,63859:0:0:0:0:
320,192,63639,128,0,63712:0:0:0:0:
448,192,63786,128,0,64005:0:0:0:0:
320,192,63786,128,0,64005:0:0:0:0:
64,192,63786,128,0,63859:0:0:0:0:
192,192,63932,128,0,64005:0:0:0:0:
64,192,63932,128,0,64005:0:0:0:0:
64,192,64078,1,0,0:0:0:0:
448,192,64078,1,0,0:0:0:0:
320,192,64078,128,0,64225:0:0:0:0:
192,192,64151,128,0,64298:0:0:0:0:
448,192,64225,128,0,64371:0:0:0:0:
320,192,64298,128,0,64371:0:0:0:0:
64,192,64371,128,0,64444:0:0:0:0:
192,192,64371,128,0,64444:0:0:0:0:
320,192,64444,128,0,64517:0:0:0:0:
448,192,64444,128,0,64517:0:0:0:0:
64,192,64517,128,0,64591:0:0:0:0:
192,192,64517,128,0,64591:0:0:0:0:
320,192,64591,128,0,64737:0:0:0:0:
448,192,64664,128,0,64737:0:0:0:0:
64,192,64664,128,0,64810:0:0:0:0:
192,192,64737,128,0,64883:0:0:0:0:
320,192,64810,128,0,64956:0:0:0:0:
448,192,64883,128,0,64956:0:0:0:0:
64,192,64956,128,0,65030:0:0:0:0:
192,192,64956,128,0,65103:0:0:0:0:
320,192,65030,128,0,65176:0:0:0:0:
64,192,65103,128,0,65249:0:0:0:0:
448,192,65103,128,0,65176:0:0:0:0:
192,192,65176,128,0,65249:0:0:0:0:
320,192,65249,128,0,65322:0:0:0:0:
448,192,65249,128,0,65395:0:0:0:0:
64,192,65322,128,0,65469:0:0:0:0:
192,192,65395,128,0,65469:0:0:0:0:
320,192,65395,128,0,65542:0:0:0:0:
448,192,65469,128,0,65542:0:0:0:0:
192,192,65542,128,0,65761:0:0:0:0:
64,192,65542,128,0,65761:0:0:0:0:
320,192,65688,128,0,65761:0:0:0:0:
448,192,65688,128,0,65761:0:0:0:0:
192,192,65834,1,0,0:0:0:0:
448,192,65834,128,0,66054:0:0:0:0:
64,192,65834,128,0,66054:0:0:0:0:
192,192,65981,128,0,66054:0:0:0:0:
320,192,65981,128,0,66054:0:0:0:0:
64,192,66127,1,0,0:0:0:0:
320,192,66127,128,0,66420:0:0:0:0:
448,192,66127,128,0,66273:0:0:0:0:
192,192,66200,128,0,66347:0:0:0:0:
64,192,66273,128,0,66347:0:0:0:0:
448,192,66347,128,0,66420:0:0:0:0:
192,192,66420,128,0,66712:0:0:0:0:
64,192,66420,128,0,66566:0:0:0:0:
320,192,66493,128,0,66639:0:0:0:0:
448,192,66566,128,0,66639:0:0:0:0:
64,192,66639,128,0,66712:0:0:0:0:
320,192,66712,128,0,66859:0:0:0:0:
448,192,66712,128,0,66932:0:0:0:0:
64,192,66786,128,0,66932:0:0:0:0:
192,192,66859,128,0,67078:0:0:0:0:
320,192,66932,128,0,67005:0:0:0:0:
448,192,67005,128,0,67151:0:0:0:0:
64,192,67005,128,0,67151:0:0:0:0:
320,192,67078,128,0,67225:0:0:0:0:
192,192,67151,128,0,67298:0:0:0:0:
64,192,67225,128,0,67298:0:0:0:0:
320,192,67298,128,0,67371:0:0:0:0:
448,192,67298,128,0,67444:0:0:0:0:
192,192,67371,128,0,67517:0:0:0:0:
64,192,67371,128,0,67517:0:0:0:0:
320,192,67444,128,0,67591:0:0:0:0:
448,192,67517,128,0,67591:0:0:0:0:
192,192,67591,128,0,67664:0:0:0:0:
64,192,67591,128,0,67737:0:0:0:0:
320,192,67664,128,0,67810:0:0:0:0:
448,192,67664,128,0,67810:0:0:0:0:
192,192,67737,128,0,67883:0:0:0:0:
64,192,67810,128,0,67883:0:0:0:0:
448,192,67883,1,0,0:0:0:0:
320,192,67883,128,0,67956:0:0:0:0:
192,192,67956,128,0,68030:0:0:0:0:
64,192,68030,128,0,68103:0:0:0:0:
448,192,68030,128,0,68103:0:0:0:0:
320,192,68103,128,0,68176:0:0:0:0:
64,192,68176,1,0,0:0:0:0:
448,192,68176,1,0,0:0:0:0:
192,192,68176,128,0,68249:0:0:0:0:
320,192,68249,128,0,68322:0:0:0:0:
448,192,68322,128,0,68395:0:0:0:0:
64,192,68322,128,0,68395:0:0:0:0:
192,192,68395,128,0,68469:0:0:0:0:
448,192,68469,1,0,0:0:0:0:
320,192,68469,128,0,68542:0:0:0:0:
192,192,68542,1,0,0:0:0:0:
64,192,68542,128,0,68615:0:0:0:0:
320,192,68615,1,0,0:0:0:0:
448,192,68615,128,0,68688:0:0:0:0:
64,192,68688,1,0,0:0:0:0:
192,192,68688,128,0,68761:0:0:0:0:
448,192,68761,128,0,68834:0:0:0:0:
320,192,68761,128,0,68834:0:0:0:0:
64,192,68834,128,0,68908:0:0:0:0:
192,192,68834,128,0,68908:0:0:0:0:
320,192,68908,128,0,68981:0:0:0:0:
448,192,68908,128,0,68981:0:0:0:0:
192,192,68981,128,0,69054:0:0:0:0:
64,192,69054,128,0,69273:0:0:0:0:
448,192,69054,128,0,69273:0:0:0:0:
320,192,69054,128,0,69273:0:0:0:0:
192,192,69200,1,0,0:0:0:0:
64,192,69347,128,0,69566:0:0:0:0:
448,192,69347,128,0,69566:0:0:0:0:
192,192,69347,128,0,69566:0:0:0:0:
320,192,69493,1,0,0:0:0:0:
64,192,69639,1,0,0:0:0:0:
448,192,69639,1,0,0:0:0:0:
192,192,69712,1,0,0:0:0:0:
320,192,69712,1,0,0:0:0:0:
64,192,69859,1,0,0:0:0:0:
192,192,69859,1,0,0:0:0:0:
448,192,69859,1,0,0:0:0:0:
320,192,69932,1,0,0:0:0:0:
64,192,70005,128,0,70151:0:0:0:0:
192,192,70005,128,0,70151:0:0:0:0:
320,192,70078,128,0,70151:0:0:0:0:
448,192,70078,128,0,70151:0:0:0:0:
192,192,70225,1,0,0:0:0:0:
448,192,70225,128,0,70371:0:0:0:0:
64,192,70225,128,0,70371:0:0:0:0:
320,192,70298,128,0,70444:0:0:0:0:
192,192,70371,128,0,70517:0:0:0:0:
64,192,70444,128,0,70517:0:0:0:0:
320,192,70517,1,0,0:0:0:0:
448,192,70517,1,0,0:0:0:0:
64,192,70591,1,0,0:0:0:0:
192,192,70591,1,0,0:0:0:0:
320,192,70664,1,0,0:0:0:0:
448,192,70664,1,0,0:0:0:0:
64,192,70737,1,0,0:0:0:0:
192,192,70737,1,0,0:0:0:0:
448,192,70810,128,0,70908:0:0:0:0:
320,192,70834,128,0,70956:0:0:0:0:
192,192,70859,128,0,70932:0:0:0:0:
448,192,70956,1,0,0:0:0:0:
64,192,71030,128,0,71298:0:0:0:0:
192,192,71054,128,0,71151:0:0:0:0:
320,192,71078,128,0,71176:0:0:0:0:
192,192,71249,128,0,71322:0:0:0:0:
320,192,71273,128,0,71347:0:0:0:0:
448,192,71298,128,0,71371:0:0:0:0:
64,192,71395,128,0,71493:0:0:0:0:
192,192,71420,128,0,71542:0:0:0:0:
320,192,71444,128,0,71517:0:0:0:0:
64,192,71542,1,0,0:0:0:0:
448,192,71615,128,0,71883:0:0:0:0:
320,192,71639,128,0,71737:0:0:0:0:
192,192,71664,128,0,71761:0:0:0:0:
320,192,71834,128,0,71908:0:0:0:0:
192,192,71859,128,0,71932:0:0:0:0:
64,192,71883,128,0,71956:0:0:0:0:
320,192,71981,128,0,72054:0:0:0:0:
448,192,71981,128,0,72127:0:0:0:0:
64,192,72054,128,0,72200:0:0:0:0:
192,192,72127,128,0,72200:0:0:0:0:
320,192,72127,128,0,72273:0:0:0:0:
448,192,72200,128,0,72273:0:0:0:0:
64,192,72273,128,0,72347:0:0:0:0:
192,192,72273,128,0,72347:0:0:0:0:
448,192,72347,128,0,72493:0:0:0:0:
320,192,72347,128,0,72493:0:0:0:0:
192,192,72420,128,0,72493:0:0:0:0:
64,192,72420,128,0,72493:0:0:0:0:
64,192,72566,128,0,72712:0:0:0:0:
320,192,72566,1,0,0:0:0:0:
448,192,72566,128,0,72712:0:0:0:0:
192,192,72639,128,0,72786:0:0:0:0:
320,192,72712,128,0,72859:0:0:0:0:
448,192,72786,128,0,72859:0:0:0:0:
64,192,72859,1,0,0:0:0:0:
192,192,72859,1,0,0:0:0:0:
448,192,73005,1,0,0:0:0:0:
64,192,73005,1,0,0:0:0:0:
320,192,73078,1,0,0:0:0:0:
64,192,73151,128,0,73206:0:0:0:0:
192,192,73170,128,0,73225:0:0:0:0:
448,192,73225,128,0,73280:0:0:0:0:
320,192,73243,128,0,73298:0:0:0:0:
64,192,73298,128,0,73353:0:0:0:0:
192,192,73316,128,0,73371:0:0:0:0:
320,192,73371,128,0,73426:0:0:0:0:
448,192,73389,128,0,73444:0:0:0:0:
64,192,73444,128,0,73499:0:0:0:0:
192,192,73462,128,0,73517:0:0:0:0:
448,192,73517,128,0,73572:0:0:0:0:
320,192,73536,128,0,73591:0:0:0:0:
192,192,73591,128,0,73645:0:0:0:0:
64,192,73609,128,0,73664:0:0:0:0:
320,192,73664,128,0,73719:0:0:0:0:
448,192,73682,128,0,73737:0:0:0:0:
192,192,73737,128,0,73786:0:0:0:0:
64,192,73737,128,0,73786:0:0:0:0:
320,192,73834,128,0,73883:0:0:0:0:
192,192,73834,128,0,73883:0:0:0:0:
448,192,73932,128,0,73981:0:0:0:0:
320,192,73932,128,0,73981:0:0:0:0:
192,192,74030,128,0,74103:0:0:0:0:
64,192,74030,128,0,74103:0:0:0:0:
320,192,74103,1,0,0:0:0:0:
448,192,74176,128,0,74249:0:0:0:0:
64,192,74176,128,0,74249:0:0:0:0:
192,192,74249,1,0,0:0:0:0:
448,192,74322,128,0,74395:0:0:0:0:
320,192,74322,128,0,74469:0:0:0:0:
192,192,74395,128,0,74542:0:0:0:0:
64,192,74469,128,0,74542:0:0:0:0:
448,192,74469,128,0,74615:0:0:0:0:
320,192,74542,128,0,74615:0:0:0:0:
192,192,74615,128,0,74688:0:0:0:0:
64,192,74615,128,0,74688:0:0:0:0:
320,192,74688,128,0,74761:0:0:0:0:
448,192,74688,128,0,74761:0:0:0:0:
192,192,74761,128,0,74834:0:0:0:0:
64,192,74761,128,0,74834:0:0:0:0:
320,192,74834,128,0,74908:0:0:0:0:
448,192,74908,1,0,0:0:0:0:
192,192,74908,128,0,75127:0:0:0:0:
64,192,74908,128,0,74981:0:0:0:0:
320,192,74981,128,0,75127:0:0:0:0:
448,192,75054,128,0,75127:0:0:0:0:
64,192,75127,128,0,75273:0:0:0:0:
320,192,75200,128,0,75420:0:0:0:0:
448,192,75200,128,0,75273:0:0:0:0:
192,192,75273,128,0,75420:0:0:0:0:
64,192,75347,128,0,75420:0:0:0:0:
448,192,75420,128,0,75566:0:0:0:0:
320,192,75493,128,0,75566:0:0:0:0:
192,192,75493,128,0,75639:0:0:0:0:
64,192,75566,128,0,75712:0:0:0:0:
320,192,75639,128,0,75786:0:0:0:0:
192,192,75712,128,0,75859:0:0:0:0:
64,192,75786,1,0,0:0:0:0:
448,192,75786,128,0,75932:0:0:0:0:
320,192,75859,128,0,76005:0:0:0:0:
192,192,75932,128,0,76078:0:0:0:0:
64,192,76005,128,0,76151:0:0:0:0:
448,192,76078,128,0,76225:0:0:0:0:
320,192,76078,128,0,76151:0:0:0:0:
192,192,76151,128,0,76298:0:0:0:0:
320,192,76225,128,0,76371:0:0:0:0:
448,192,76298,128,0,76444:0:0:0:0:
192,192,76371,128,0,76444:0:0:0:0:
64,192,76371,128,0,76517:0:0:0:0:
320,192,76444,128,0,76591:0:0:0:0:
192,192,76517,128,0,76664:0:0:0:0:
64,192,76591,128,0,76737:0:0:0:0:
448,192,76664,128,0,76737:0:0:0:0:
320,192,76664,128,0,76810:0:0:0:0:
192,192,76737,128,0,76883:0:0:0:0:
64,192,76810,128,0,76883:0:0:0:0:
448,192,76810,128,0,77030:0:0:0:0:
320,192,76883,128,0,76956:0:0:0:0:
192,192,76956,128,0,77103:0:0:0:0:
64,192,76956,128,0,77030:0:0:0:0:
320,192,77030,128,0,77176:0:0:0:0:
448,192,77103,128,0,77176:0:0:0:0:
64,192,77103,128,0,77322:0:0:0:0:
192,192,77176,128,0,77249:0:0:0:0:
320,192,77249,128,0,77395:0:0:0:0:
448,192,77249,128,0,77322:0:0:0:0:
192,192,77322,128,0,77469:0:0:0:0:
64,192,77395,128,0,77469:0:0:0:0:
448,192,77395,128,0,77542:0:0:0:0:
320,192,77469,128,0,77615:0:0:0:0:
192,192,77542,128,0,77615:0:0:0:0:
64,192,77542,128,0,77688:0:0:0:0:
448,192,77615,128,0,77761:0:0:0:0:
320,192,77688,128,0,77761:0:0:0:0:
192,192,77688,128,0,77834:0:0:0:0:
64,192,77761,128,0,77834:0:0:0:0:
448,192,77834,128,0,77908:0:0:0:0:
320,192,77834,128,0,77908:0:0:0:0:
192,192,77908,128,0,77981:0:0:0:0:
64,192,77908,128,0,77981:0:0:0:0:
448,192,77981,128,0,78054:0:0:0:0:
320,192,77981,128,0,78054:0:0:0:0:
64,192,78054,128,0,78127:0:0:0:0:
192,192,78054,128,0,78127:0:0:0:0:
320,192,78127,128,0,78200:0:0:0:0:
448,192,78127,128,0,78200:0:0:0:0:
192,192,78200,128,0,78273:0:0:0:0:
64,192,78200,128,0,78273:0:0:0:0:
320,192,78273,128,0,78347:0:0:0:0:
448,192,78273,128,0,78347:0:0:0:0:
64,192,78347,128,0,78420:0:0:0:0:
192,192,78347,128,0,78420:0:0:0:0:
448,192,78420,128,0,78475:0:0:0:0:
320,192,78493,128,0,78548:0:0:0:0:
448,192,78566,128,0,78621:0:0:0:0:
192,192,78639,128,0,78694:0:0:0:0:
320,192,78712,128,0,78767:0:0:0:0:
64,192,78786,128,0,78841:0:0:0:0:
192,192,78859,128,0,78914:0:0:0:0:
64,192,78932,128,0,78987:0:0:0:0:
320,192,79005,128,0,79060:0:0:0:0:
192,192,79078,128,0,79133:0:0:0:0:
448,192,79151,128,0,79206:0:0:0:0:
320,192,79225,128,0,79280:0:0:0:0:
192,192,79298,1,0,0:0:0:0:
448,192,79298,128,0,79444:0:0:0:0:
64,192,79298,128,0,79371:0:0:0:0:
320,192,79371,128,0,79517:0:0:0:0:
192,192,79444,128,0,79591:0:0:0:0:
64,192,79517,128,0,79664:0:0:0:0:
320,192,79591,128,0,79883:0:0:0:0:
448,192,79591,128,0,80469:0:0:0:0:
192,192,79737,1,0,0:0:0:0:
64,192,79883,1,0,0:0:0:0:
192,192,80030,1,0,0:0:0:0:
320,192,80176,1,0,0:0:0:0:
192,192,80322,1,0,0:0:0:0:
64,192,80469,128,0,80908:0:0:0:0:
192,192,80615,1,0,0:0:0:0:
320,192,80761,128,0,81273:0:0:0:0:
448,192,80761,128,0,81273:0:0:0:0:
192,192,80908,1,0,0:0:0:0:
64,192,81054,128,0,81347:0:0:0:0:
192,192,81200,128,0,81347:0:0:0:0:
448,192,81347,128,0,81566:0:0:0:0:
320,192,81347,128,0,81566:0:0:0:0:
64,192,81493,128,0,81859:0:0:0:0:
448,192,81639,1,0,0:0:0:0:
192,192,81786,128,0,82005:0:0:0:0:
320,192,81932,128,0,82151:0:0:0:0:
448,192,81932,128,0,82444:0:0:0:0:
192,192,82078,1,0,0:0:0:0:
320,192,82225,1,0,0:0:0:0:
64,192,82371,128,0,82517:0:0:0:0:
192,192,82444,128,0,82591:0:0:0:0:
320,192,82517,128,0,82664:0:0:0:0:
448,192,82517,128,0,82664:0:0:0:0:
320,192,82737,128,0,82883:0:0:0:0:
192,192,82737,128,0,82883:0:0:0:0:
448,192,82810,128,0,83030:0:0:0:0:
64,192,82810,128,0,82883:0:0:0:0:
64,192,82956,128,0,83103:0:0:0:0:
192,192,82956,128,0,83103:0:0:0:0:
448,192,83103,128,0,83688:0:0:0:0:
320,192,83103,128,0,83395:0:0:0:0:
64,192,83249,1,0,0:0:0:0:
192,192,83395,1,0,0:0:0:0:
64,192,83591,128,0,83712:0:0:0:0:
192,192,83688,128,0,83810:0:0:0:0:
320,192,83786,128,0,83908:0:0:0:0:
64,192,83883,128,0,84005:0:0:0:0:
192,192,83981,128,0,84103:0:0:0:0:
448,192,84078,128,0,84200:0:0:0:0:
320,192,84176,128,0,84298:0:0:0:0:
192,192,84273,128,0,84566:0:0:0:0:
64,192,84273,128,0,84786:0:0:0:0:
448,192,84420,1,0,0:0:0:0:
320,192,84566,1,0,0:0:0:0:
448,192,84712,128,0,84859:0:0:0:0:
320,192,84786,128,0,84932:0:0:0:0:
192,192,84859,128,0,85151:0:0:0:0:
64,192,84859,1,0,0:0:0:0:
320,192,85005,1,0,0:0:0:0:
64,192,85151,1,0,0:0:0:0:
448,192,85151,1,0,0:0:0:0:
320,192,85298,128,0,85517:0:0:0:0:
448,192,85371,128,0,85517:0:0:0:0:
64,192,85444,128,0,85664:0:0:0:0:
192,192,85444,128,0,85517:0:0:0:0:
192,192,85591,128,0,85956:0:0:0:0:
320,192,85591,128,0,85810:0:0:0:0:
448,192,85737,128,0,85810:0:0:0:0:
64,192,85737,128,0,85956:0:0:0:0:
320,192,85883,128,0,86103:0:0:0:0:
448,192,85883,128,0,86249:0:0:0:0:
64,192,86030,1,0,0:0:0:0:
192,192,86030,1,0,0:0:0:0:
192,192,86176,128,0,86395:0:0:0:0:
320,192,86322,128,0,86542:0:0:0:0:
64,192,86469,128,0,86688:0:0:0:0:
448,192,86615,128,0,87127:0:0:0:0:
320,192,86615,128,0,86834:0:0:0:0:
192,192,86761,1,0,0:0:0:0:
320,192,86908,1,0,0:0:0:0:
192,192,87054,128,0,87200:0:0:0:0:
64,192,87127,128,0,87273:0:0:0:0:
320,192,87200,128,0,87420:0:0:0:0:
448,192,87200,128,0,87347:0:0:0:0:
192,192,87347,128,0,87566:0:0:0:0:
64,192,87420,128,0,87493:0:0:0:0:
320,192,87493,128,0,87712:0:0:0:0:
448,192,87566,128,0,87639:0:0:0:0:
64,192,87639,128,0,87786:0:0:0:0:
192,192,87712,128,0,87859:0:0:0:0:
448,192,87786,128,0,88151:0:0:0:0:
320,192,87786,128,0,88078:0:0:0:0:
64,192,87932,1,0,0:0:0:0:
192,192,88078,1,0,0:0:0:0:
448,192,88225,128,0,88591:0:0:0:0:
320,192,88371,1,0,0:0:0:0:
192,192,88517,128,0,88591:0:0:0:0:
64,192,88517,128,0,88883:0:0:0:0:
192,192,88664,128,0,88883:0:0:0:0:
320,192,88664,128,0,88737:0:0:0:0:
320,192,88810,128,0,89030:0:0:0:0:
448,192,88810,128,0,89030:0:0:0:0:
192,192,88956,128,0,89249:0:0:0:0:
64,192,88956,128,0,89469:0:0:0:0:
448,192,89103,1,0,0:0:0:0:
320,192,89249,1,0,0:0:0:0:
448,192,89395,128,0,89542:0:0:0:0:
64,192,89542,1,0,0:0:0:0:
192,192,89542,128,0,89639:0:0:0:0:
320,192,89615,128,0,89712:0:0:0:0:
448,192,89688,128,0,89786:0:0:0:0:
192,192,89761,128,0,89859:0:0:0:0:
320,192,89834,128,0,89932:0:0:0:0:
64,192,89908,128,0,90005:0:0:0:0:
192,192,89981,128,0,90078:0:0:0:0:
320,192,90054,128,0,90151:0:0:0:0:
64,192,90273,128,0,90347:0:0:0:0:
448,192,90273,128,0,90347:0:0:0:0:
448,192,90420,128,0,90786:0:0:0:0:
64,192,90420,128,0,90786:0:0:0:0:
192,192,90712,1,0,0:0:0:0:
320,192,90786,1,0,0:0:0:0:
64,192,90859,1,0,0:0:0:0:
448,192,90859,1,0,0:0:0:0:
192,192,90932,1,0,0:0:0:0:
320,192,90932,1,0,0:0:0:0:
64,192,91005,1,0,0:0:0:0:
448,192,91005,1,0,0:0:0:0:
192,192,91151,1,0,0:0:0:0:
320,192,91151,1,0,0:0:0:0:
448,192,91298,1,0,0:0:0:0:
64,192,91298,128,0,91664:0:0:0:0:
192,192,91298,128,0,91395:0:0:0:0:
320,192,91371,128,0,91469:0:0:0:0:
448,192,91444,128,0,91517:0:0:0:0:
192,192,91517,128,0,91615:0:0:0:0:
320,192,91591,128,0,91688:0:0:0:0:
448,192,91664,128,0,92200:0:0:0:0:
64,192,91737,128,0,91834:0:0:0:0:
192,192,91810,128,0,91908:0:0:0:0:
320,192,91883,128,0,91956:0:0:0:0:
64,192,91956,128,0,92054:0:0:0:0:
192,192,92030,128,0,92127:0:0:0:0:
320,192,92103,128,0,92200:0:0:0:0:
192,192,92176,128,0,92395:0:0:0:0:
64,192,92176,128,0,92395:0:0:0:0:
320,192,92322,1,0,0:0:0:0:
448,192,92322,1,0,0:0:0:0:
320,192,92469,1,0,0:0:0:0:
448,192,92469,128,0,92761:0:0:0:0:
64,192,92469,128,0,92615:0:0:0:0:
192,192,92542,128,0,92688:0:0:0:0:
320,192,92615,128,0,92761:0:0:0:0:
192,192,92761,128,0,92908:0:0:0:0:
64,192,92761,128,0,92908:0:0:0:0:
448,192,92834,128,0,92981:0:0:0:0:
320,192,92908,128,0,92981:0:0:0:0:
64,192,92981,1,0,0:0:0:0:
192,192,92981,1,0,0:0:0:0:
320,192,93054,1,0,0:0:0:0:
448,192,93054,1,0,0:0:0:0:
192,192,93127,1,0,0:0:0:0:
448,192,93200,128,0,93273:0:0:0:0:
64,192,93200,128,0,93347:0:0:0:0:
192,192,93273,128,0,93420:0:0:0:0:
320,192,93347,128,0,93420:0:0:0:0:
448,192,93347,128,0,93420:0:0:0:0:
64,192,93420,1,0,0:0:0:0:
320,192,93493,128,0,93639:0:0:0:0:
448,192,93493,128,0,93566:0:0:0:0:
192,192,93566,1,0,0:0:0:0:
448,192,93639,128,0,93932:0:0:0:0:
64,192,93639,128,0,93737:0:0:0:0:
192,192,93712,128,0,93810:0:0:0:0:
320,192,93786,128,0,93883:0:0:0:0:
64,192,93859,128,0,94249:0:0:0:0:
192,192,93932,128,0,94030:0:0:0:0:
320,192,94005,128,0,94103:0:0:0:0:
448,192,94078,128,0,94176:0:0:0:0:
192,192,94151,128,0,94249:0:0:0:0:
320,192,94225,128,0,94591:0:0:0:0:
448,192,94225,128,0,94444:0:0:0:0:
192,192,94371,1,0,0:0:0:0:
64,192,94371,1,0,0:0:0:0:
448,192,94517,128,0,94591:0:0:0:0:
64,192,94517,128,0,94664:0:0:0:0:
192,192,94591,1,0,0:0:0:0:
320,192,94664,128,0,94737:0:0:0:0:
448,192,94664,128,0,94737:0:0:0:0:
64,192,94737,128,0,94810:0:0:0:0:
192,192,94737,128,0,94810:0:0:0:0:
320,192,94810,128,0,94908:0:0:0:0:
448,192,94810,128,0,95176:0:0:0:0:
64,192,94883,128,0,94981:0:0:0:0:
192,192,94956,128,0,95054:0:0:0:0:
320,192,95030,128,0,95127:0:0:0:0:
64,192,95103,128,0,95176:0:0:0:0:
192,192,95176,128,0,95249:0:0:0:0:
320,192,95249,128,0,95322:0:0:0:0:
448,192,95249,128,0,95322:0:0:0:0:
192,192,95322,128,0,95395:0:0:0:0:
64,192,95322,128,0,95395:0:0:0:0:
320,192,95395,128,0,95469:0:0:0:0:
448,192,95395,128,0,95469:0:0:0:0:
192,192,95469,128,0,95542:0:0:0:0:
64,192,95469,128,0,95542:0:0:0:0:
320,192,95542,128,0,95615:0:0:0:0:
448,192,95542,128,0,95615:0:0:0:0:
192,192,95615,128,0,95688:0:0:0:0:
64,192,95688,128,0,95908:0:0:0:0:
320,192,95688,1,0,0:0:0:0:
448,192,95688,128,0,95908:0:0:0:0:
192,192,95761,128,0,95908:0:0:0:0:
320,192,95834,128,0,95908:0:0:0:0:
64,192,95981,1,0,0:0:0:0:
448,192,95981,128,0,96273:0:0:0:0:
192,192,95981,128,0,96078:0:0:0:0:
320,192,96054,128,0,96151:0:0:0:0:
64,192,96127,128,0,96225:0:0:0:0:
192,192,96200,128,0,96273:0:0:0:0:
320,192,96273,1,0,0:0:0:0:
64,192,96273,1,0,0:0:0:0:
192,192,96347,1,0,0:0:0:0:
320,192,96420,128,0,96566:0:0:0:0:
192,192,96493,128,0,96639:0:0:0:0:
64,192,96566,128,0,96859:0:0:0:0:
448,192,96566,128,0,96664:0:0:0:0:
320,192,96639,128,0,96737:0:0:0:0:
192,192,96712,128,0,96810:0:0:0:0:
448,192,96786,128,0,96859:0:0:0:0:
320,192,96859,1,0,0:0:0:0:
192,192,96859,1,0,0:0:0:0:
320,192,97005,128,0,97225:0:0:0:0:
192,192,97078,1,0,0:0:0:0:
64,192,97151,128,0,97371:0:0:0:0:
448,192,97151,1,0,0:0:0:0:
192,192,97225,1,0,0:0:0:0:
448,192,97298,128,0,97517:0:0:0:0:
192,192,97371,1,0,0:0:0:0:
64,192,97444,128,0,97517:0:0:0:0:
320,192,97444,1,0,0:0:0:0:
192,192,97517,1,0,0:0:0:0:
448,192,97591,128,0,97688:0:0:0:0:
64,192,97591,128,0,97956:0:0:0:0:
320,192,97664,128,0,97761:0:0:0:0:
448,192,97737,1,0,0:0:0:0:
192,192,97737,128,0,97956:0:0:0:0:
320,192,97810,128,0,97956:0:0:0:0:
448,192,97883,128,0,98103:0:0:0:0:
64,192,98030,1,0,0:0:0:0:
320,192,98030,1,0,0:0:0:0:
192,192,98030,128,0,98249:0:0:0:0:
320,192,98176,128,0,98322:0:0:0:0:
64,192,98322,128,0,98615:0:0:0:0:
448,192,98322,1,0,0:0:0:0:
192,192,98322,128,0,98420:0:0:0:0:
320,192,98395,128,0,98493:0:0:0:0:
448,192,98469,128,0,98566:0:0:0:0:
192,192,98542,128,0,98615:0:0:0:0:
320,192,98615,1,0,0:0:0:0:
448,192,98615,1,0,0:0:0:0:
64,192,98688,1,0,0:0:0:0:
192,192,98761,128,0,98908:0:0:0:0:
320,192,98834,1,0,0:0:0:0:
64,192,98908,1,0,0:0:0:0:
448,192,98908,128,0,99127:0:0:0:0:
64,192,99054,128,0,99273:0:0:0:0:
320,192,99127,1,0,0:0:0:0:
192,192,99200,128,0,99420:0:0:0:0:
448,192,99200,1,0,0:0:0:0:
320,192,99347,128,0,99566:0:0:0:0:
64,192,99420,1,0,0:0:0:0:
192,192,99493,128,0,99591:0:0:0:0:
448,192,99493,128,0,99786:0:0:0:0:
64,192,99566,128,0,99664:0:0:0:0:
320,192,99639,128,0,99737:0:0:0:0:
192,192,99712,128,0,99786:0:0:0:0:
320,192,99786,1,0,0:0:0:0:
64,192,99786,1,0,0:0:0:0:
192,192,99859,1,0,0:0:0:0:
448,192,99932,128,0,100078:0:0:0:0:
64,192,100005,1,0,0:0:0:0:
192,192,100078,128,0,100298:0:0:0:0:
320,192,100078,1,0,0:0:0:0:
448,192,100225,128,0,100444:0:0:0:0:
320,192,100298,1,0,0:0:0:0:
64,192,100371,128,0,100591:0:0:0:0:
192,192,100371,1,0,0:0:0:0:
320,192,100517,128,0,100737:0:0:0:0:
64,192,100664,128,0,100737:0:0:0:0:
192,192,100664,128,0,100737:0:0:0:0:
448,192,100664,128,0,100883:0:0:0:0:
320,192,100810,128,0,100883:0:0:0:0:
64,192,100810,128,0,100883:0:0:0:0:
192,192,100810,128,0,101030:0:0:0:0:
448,192,100956,128,0,101030:0:0:0:0:
320,192,100956,128,0,101030:0:0:0:0:
64,192,100956,128,0,101176:0:0:0:0:
448,192,101103,128,0,101176:0:0:0:0:
192,192,101103,128,0,101176:0:0:0:0:
320,192,101103,128,0,101176:0:0:0:0:
64,192,101249,128,0,101322:0:0:0:0:
192,192,101249,128,0,101322:0:0:0:0:
320,192,101322,128,0,101395:0:0:0:0:
448,192,101322,128,0,101395:0:0:0:0:
64,192,101395,128,0,101469:0:0:0:0:
192,192,101395,128,0,101469:0:0:0:0:
320,192,101469,128,0,101542:0:0:0:0:
448,192,101469,128,0,101542:0:0:0:0:
192,192,101542,128,0,101615:0:0:0:0:
64,192,101542,128,0,101615:0:0:0:0:
320,192,101615,128,0,101688:0:0:0:0:
448,192,101615,128,0,101688:0:0:0:0:
192,192,101688,128,0,101834:0:0:0:0:
64,192,101688,128,0,101834:0:0:0:0:
320,192,101761,128,0,101834:0:0:0:0:
448,192,101761,128,0,101834:0:0:0:0:
192,192,101981,128,0,102054:0:0:0:0:
64,192,101981,128,0,102054:0:0:0:0:
448,192,101981,128,0,102054:0:0:0:0:
448,192,102127,128,0,102639:0:0:0:0:
64,192,102127,128,0,102347:0:0:0:0:
192,192,102127,128,0,102639:0:0:0:0:
320,192,102420,128,0,102639:0:0:0:0:
64,192,102420,128,0,102639:0:0:0:0:
320,192,102712,128,0,102932:0:0:0:0:
448,192,102712,128,0,102932:0:0:0:0:
64,192,102712,128,0,102786:0:0:0:0:
192,192,102786,128,0,102859:0:0:0:0:
64,192,102859,128,0,103005:0:0:0:0:
192,192,102932,128,0,103005:0:0:0:0:
448,192,103005,1,0,0:0:0:0:
320,192,103042,1,0,0:0:0:0:
192,192,103078,1,0,0:0:0:0:
64,192,103115,1,0,0:0:0:0:
448,192,103151,1,0,0:0:0:0:
320,192,103188,1,0,0:0:0:0:
192,192,103225,1,0,0:0:0:0:
64,192,103261,1,0,0:0:0:0:
448,192,103298,1,0,0:0:0:0:
320,192,103334,1,0,0:0:0:0:
192,192,103371,1,0,0:0:0:0:
64,192,103408,1,0,0:0:0:0:
448,192,103444,128,0,103591:0:0:0:0:
320,192,103517,128,0,103591:0:0:0:0:
192,192,103591,1,0,0:0:0:0:
64,192,103627,1,0,0:0:0:0:
320,192,103664,1,0,0:0:0:0:
448,192,103700,1,0,0:0:0:0:
192,192,103737,1,0,0:0:0:0:
64,192,103773,1,0,0:0:0:0:
320,192,103810,1,0,0:0:0:0:
448,192,103847,1,0,0:0:0:0:
192,192,103883,1,0,0:0:0:0:
64,192,103920,1,0,0:0:0:0:
320,192,103956,1,0,0:0:0:0:
448,192,103993,1,0,0:0:0:0:
192,192,104030,128,0,104322:0:0:0:0:
320,192,104103,128,0,104249:0:0:0:0:
64,192,104176,128,0,104322:0:0:0:0:
448,192,104176,128,0,104395:0:0:0:0:
320,192,104322,1,0,0:0:0:0:
192,192,104395,128,0,104542:0:0:0:0:
64,192,104395,128,0,104688:0:0:0:0:
320,192,104469,1,0,0:0:0:0:
448,192,104469,1,0,0:0:0:0:
192,192,104615,128,0,104688:0:0:0:0:
448,192,104615,128,0,104908:0:0:0:0:
320,192,104761,128,0,104908:0:0:0:0:
64,192,104761,128,0,104981:0:0:0:0:
192,192,104908,1,0,0:0:0:0:
320,192,104981,128,0,105127:0:0:0:0:
448,192,104981,128,0,105273:0:0:0:0:
64,192,105054,1,0,0:0:0:0:
192,192,105054,1,0,0:0:0:0:
320,192,105200,128,0,105273:0:0:0:0:
64,192,105200,128,0,105273:0:0:0:0:
64,192,105347,128,0,105566:0:0:0:0:
192,192,105347,128,0,105493:0:0:0:0:
448,192,105347,128,0,105420:0:0:0:0:
448,192,105493,1,0,0:0:0:0:
192,192,105566,128,0,105712:0:0:0:0:
320,192,105566,128,0,105859:0:0:0:0:
448,192,105639,1,0,0:0:0:0:
64,192,105639,1,0,0:0:0:0:
64,192,105786,128,0,106005:0:0:0:0:
192,192,105786,128,0,106005:0:0:0:0:
320,192,105932,128,0,106151:0:0:0:0:
448,192,105932,128,0,106298:0:0:0:0:
64,192,106078,128,0,106151:0:0:0:0:
192,192,106078,128,0,106151:0:0:0:0:
320,192,106225,128,0,106298:0:0:0:0:
192,192,106225,128,0,106444:0:0:0:0:
64,192,106225,128,0,106444:0:0:0:0:
320,192,106371,128,0,106444:0:0:0:0:
448,192,106371,128,0,106444:0:0:0:0:
64,192,106517,1,0,0:0:0:0:
192,192,106554,1,0,0:0:0:0:
320,192,106591,1,0,0:0:0:0:
448,192,106627,1,0,0:0:0:0:
64,192,106664,1,0,0:0:0:0:
192,192,106700,1,0,0:0:0:0:
320,192,106737,1,0,0:0:0:0:
448,192,106773,1,0,0:0:0:0:
64,192,106810,1,0,0:0:0:0:
192,192,106847,1,0,0:0:0:0:
320,192,106883,1,0,0:0:0:0:
448,192,106920,1,0,0:0:0:0:
64,192,106956,128,0,107103:0:0:0:0:
192,192,107030,128,0,107176:0:0:0:0:
320,192,107103,128,0,107176:0:0:0:0:
448,192,107103,128,0,107249:0:0:0:0:
64,192,107176,128,0,107322:0:0:0:0:
192,192,107249,128,0,107322:0:0:0:0:
320,192,107249,128,0,107395:0:0:0:0:
448,192,107322,128,0,107395:0:0:0:0:
64,192,107395,128,0,107469:0:0:0:0:
192,192,107395,128,0,107469:0:0:0:0:
320,192,107469,128,0,107542:0:0:0:0:
448,192,107469,128,0,107542:0:0:0:0:
64,192,107542,128,0,107615:0:0:0:0:
192,192,107542,128,0,107615:0:0:0:0:
320,192,107615,128,0,107688:0:0:0:0:
448,192,107615,128,0,107688:0:0:0:0:
64,192,107688,128,0,107908:0:0:0:0:
192,192,107688,128,0,107834:0:0:0:0:
320,192,107761,128,0,107908:0:0:0:0:
448,192,107834,128,0,107908:0:0:0:0:
192,192,107908,1,0,0:0:0:0:
64,192,107981,128,0,108127:0:0:0:0:
448,192,107981,128,0,108200:0:0:0:0:
320,192,107981,1,0,0:0:0:0:
192,192,108054,128,0,108200:0:0:0:0:
320,192,108127,128,0,108200:0:0:0:0:
64,192,108200,1,0,0:0:0:0:
192,192,108273,128,0,108493:0:0:0:0:
448,192,108273,128,0,108493:0:0:0:0:
320,192,108347,128,0,108420:0:0:0:0:
64,192,108420,128,0,108493:0:0:0:0:
320,192,108493,128,0,108566:0:0:0:0:
64,192,108566,128,0,108786:0:0:0:0:
448,192,108566,1,0,0:0:0:0:
192,192,108566,128,0,108712:0:0:0:0:
320,192,108639,128,0,108786:0:0:0:0:
448,192,108712,128,0,108786:0:0:0:0:
192,192,108786,1,0,0:0:0:0:
64,192,108859,128,0,109005:0:0:0:0:
448,192,108859,128,0,109078:0:0:0:0:
320,192,108932,128,0,109078:0:0:0:0:
192,192,109005,128,0,109078:0:0:0:0:
64,192,109078,1,0,0:0:0:0:
192,192,109151,128,0,109371:0:0:0:0:
448,192,109151,1,0,0:0:0:0:
320,192,109151,128,0,109298:0:0:0:0:
64,192,109225,128,0,109371:0:0:0:0:
448,192,109298,128,0,109371:0:0:0:0:
320,192,109371,1,0,0:0:0:0:
64,192,109444,128,0,109664:0:0:0:0:
192,192,109444,128,0,109591:0:0:0:0:
448,192,109517,128,0,109664:0:0:0:0:
320,192,109591,128,0,109664:0:0:0:0:
192,192,109664,1,0,0:0:0:0:
64,192,109737,1,0,0:0:0:0:
448,192,109737,128,0,109810:0:0:0:0:
320,192,109737,128,0,109883:0:0:0:0:
192,192,109810,128,0,109956:0:0:0:0:
64,192,109883,128,0,109956:0:0:0:0:
448,192,109883,128,0,109956:0:0:0:0:
320,192,109956,1,0,0:0:0:0:
64,192,110030,1,0,0:0:0:0:
448,192,110030,128,0,110249:0:0:0:0:
192,192,110030,128,0,110176:0:0:0:0:
320,192,110103,128,0,110249:0:0:0:0:
64,192,110176,128,0,110249:0:0:0:0:
192,192,110249,1,0,0:0:0:0:
448,192,110322,1,0,0:0:0:0:
64,192,110322,128,0,110542:0:0:0:0:
320,192,110322,128,0,110469:0:0:0:0:
192,192,110395,128,0,110542:0:0:0:0:
448,192,110469,128,0,110542:0:0:0:0:
320,192,110542,1,0,0:0:0:0:
64,192,110615,128,0,110834:0:0:0:0:
192,192,110615,128,0,110688:0:0:0:0:
320,192,110688,1,0,0:0:0:0:
192,192,110761,128,0,110834:0:0:0:0:
448,192,110761,128,0,110834:0:0:0:0:
320,192,110834,1,0,0:0:0:0:
64,192,110908,128,0,110981:0:0:0:0:
448,192,110908,128,0,111127:0:0:0:0:
192,192,110981,1,0,0:0:0:0:
320,192,111054,128,0,111127:0:0:0:0:
64,192,111054,128,0,111127:0:0:0:0:
192,192,111127,1,0,0:0:0:0:
64,192,111200,128,0,111347:0:0:0:0:
448,192,111200,128,0,111420:0:0:0:0:
320,192,111347,128,0,111420:0:0:0:0:
192,192,111420,128,0,111493:0:0:0:0:
64,192,111420,128,0,111493:0:0:0:0:
320,192,111493,1,0,0:0:0:0:
448,192,111493,1,0,0:0:0:0:
192,192,111566,128,0,111712:0:0:0:0:
64,192,111639,128,0,111712:0:0:0:0:
320,192,111639,128,0,111786:0:0:0:0:
448,192,111712,128,0,111859:0:0:0:0:
64,192,111786,128,0,111859:0:0:0:0:
192,192,111786,128,0,111932:0:0:0:0:
320,192,111859,128,0,112005:0:0:0:0:
448,192,111932,128,0,112005:0:0:0:0:
64,192,111932,128,0,112078:0:0:0:0:
192,192,112005,128,0,112078:0:0:0:0:
320,192,112078,128,0,112151:0:0:0:0:
448,192,112078,128,0,112151:0:0:0:0:
64,192,112151,128,0,112225:0:0:0:0:
192,192,112151,128,0,112225:0:0:0:0:
320,192,112225,128,0,112298:0:0:0:0:
448,192,112225,128,0,112298:0:0:0:0:
192,192,112298,128,0,112371:0:0:0:0:
64,192,112298,128,0,112371:0:0:0:0:
320,192,112371,128,0,112444:0:0:0:0:
448,192,112371,128,0,112517:0:0:0:0:
64,192,112517,128,0,112810:0:0:0:0:
192,192,112591,128,0,112810:0:0:0:0:
448,192,112810,128,0,112883:0:0:0:0:
64,192,112883,128,0,112956:0:0:0:0:
320,192,112956,128,0,113030:0:0:0:0:
448,192,113030,1,0,0:0:0:0:
192,192,113103,128,0,113176:0:0:0:0:
320,192,113176,1,0,0:0:0:0:
64,192,113249,128,0,113322:0:0:0:0:
192,192,113322,1,0,0:0:0:0:
448,192,113395,128,0,113469:0:0:0:0:
320,192,113469,1,0,0:0:0:0:
192,192,113542,128,0,113615:0:0:0:0:
64,192,113615,1,0,0:0:0:0:
320,192,113688,128,0,113761:0:0:0:0:
192,192,113761,1,0,0:0:0:0:
448,192,113834,128,0,113908:0:0:0:0:
64,192,113908,1,0,0:0:0:0:
192,192,113981,128,0,114054:0:0:0:0:
448,192,114054,1,0,0:0:0:0:
320,192,114127,128,0,114200:0:0:0:0:
64,192,114200,1,0,0:0:0:0:
192,192,114273,128,0,114347:0:0:0:0:
320,192,114347,1,0,0:0:0:0:
64,192,114420,128,0,114639:0:0:0:0:
448,192,114420,128,0,114639:0:0:0:0:
192,192,114420,128,0,114639:0:0:0:0:
320,192,114493,128,0,114639:0:0:0:0:
448,192,114712,128,0,114859:0:0:0:0:
64,192,114712,128,0,114786:0:0:0:0:
192,192,114712,128,0,114786:0:0:0:0:
320,192,114786,128,0,115005:0:0:0:0:
192,192,114859,128,0,114932:0:0:0:0:
64,192,114859,128,0,114932:0:0:0:0:
448,192,114932,128,0,115005:0:0:0:0:
64,192,115005,128,0,115078:0:0:0:0:
192,192,115005,128,0,115151:0:0:0:0:
320,192,115078,128,0,115225:0:0:0:0:
448,192,115151,128,0,115225:0:0:0:0:
64,192,115151,128,0,115298:0:0:0:0:
192,192,115225,128,0,115371:0:0:0:0:
320,192,115298,128,0,115371:0:0:0:0:
448,192,115298,128,0,115371:0:0:0:0:
64,192,115371,128,0,115591:0:0:0:0:
320,192,115444,128,0,115517:0:0:0:0:
448,192,115444,128,0,115517:0:0:0:0:
192,192,115517,128,0,115591:0:0:0:0:
320,192,115591,128,0,115664:0:0:0:0:
448,192,115591,128,0,115737:0:0:0:0:
64,192,115664,128,0,115810:0:0:0:0:
192,192,115737,128,0,115810:0:0:0:0:
320,192,115737,128,0,115883:0:0:0:0:
448,192,115810,128,0,115956:0:0:0:0:
192,192,115883,128,0,115956:0:0:0:0:
64,192,115883,128,0,115956:0:0:0:0:
320,192,115956,128,0,116176:0:0:0:0:
64,192,116030,128,0,116103:0:0:0:0:
192,192,116030,128,0,116103:0:0:0:0:
448,192,116103,128,0,116176:0:0:0:0:
64,192,116176,128,0,116249:0:0:0:0:
192,192,116176,128,0,116322:0:0:0:0:
320,192,116249,128,0,116395:0:0:0:0:
448,192,116322,128,0,116395:0:0:0:0:
64,192,116322,128,0,116469:0:0:0:0:
192,192,116395,128,0,116542:0:0:0:0:
320,192,116469,128,0,116542:0:0:0:0:
448,192,116469,128,0,116542:0:0:0:0:
64,192,116542,128,0,116761:0:0:0:0:
320,192,116615,128,0,116688:0:0:0:0:
448,192,116615,128,0,116688:0:0:0:0:
192,192,116688,128,0,116761:0:0:0:0:
320,192,116761,128,0,116834:0:0:0:0:
448,192,116761,128,0,116908:0:0:0:0:
64,192,116834,128,0,116981:0:0:0:0:
192,192,116908,128,0,116981:0:0:0:0:
320,192,116908,128,0,117054:0:0:0:0:
448,192,116981,128,0,117054:0:0:0:0:
64,192,117054,128,0,117127:0:0:0:0:
192,192,117054,128,0,117127:0:0:0:0:
320,192,117127,128,0,117273:0:0:0:0:
448,192,117127,128,0,117200:0:0:0:0:
192,192,117200,128,0,117273:0:0:0:0:
64,192,117200,128,0,117347:0:0:0:0:
448,192,117273,128,0,117420:0:0:0:0:
320,192,117347,128,0,117420:0:0:0:0:
192,192,117347,128,0,117493:0:0:0:0:
64,192,117420,128,0,117566:0:0:0:0:
448,192,117493,128,0,117566:0:0:0:0:
320,192,117493,128,0,117639:0:0:0:0:
192,192,117566,128,0,117639:0:0:0:0:
64,192,117639,128,0,117712:0:0:0:0:
448,192,117639,128,0,117712:0:0:0:0:
320,192,117712,128,0,117786:0:0:0:0:
192,192,117712,128,0,117859:0:0:0:0:
64,192,117786,128,0,117859:0:0:0:0:
448,192,117786,128,0,117932:0:0:0:0:
320,192,117859,128,0,118005:0:0:0:0:
192,192,117932,128,0,118005:0:0:0:0:
64,192,117932,128,0,118078:0:0:0:0:
448,192,118005,128,0,118151:0:0:0:0:
320,192,118078,128,0,118151:0:0:0:0:
192,192,118078,128,0,118225:0:0:0:0:
64,192,118151,128,0,118225:0:0:0:0:
320,192,118225,128,0,118298:0:0:0:0:
448,192,118225,128,0,118298:0:0:0:0:
64,192,118298,128,0,118371:0:0:0:0:
192,192,118298,128,0,118371:0:0:0:0:
320,192,118371,128,0,118444:0:0:0:0:
448,192,118371,128,0,118444:0:0:0:0:
192,192,118444,128,0,118517:0:0:0:0:
64,192,118444,128,0,118517:0:0:0:0:
320,192,118517,128,0,118591:0:0:0:0:
448,192,118517,128,0,118591:0:0:0:0:
192,192,118591,128,0,118664:0:0:0:0:
64,192,118591,128,0,118664:0:0:0:0:
320,192,118664,128,0,118737:0:0:0:0:
448,192,118664,128,0,118737:0:0:0:0:
192,192,118737,128,0,118810:0:0:0:0:
64,192,118737,128,0,118810:0:0:0:0:
320,192,118810,128,0,118883:0:0:0:0:
448,192,118810,128,0,118883:0:0:0:0:
192,192,118883,128,0,118956:0:0:0:0:
64,192,118883,128,0,118956:0:0:0:0:
320,192,118956,128,0,119030:0:0:0:0:
448,192,118956,128,0,119030:0:0:0:0:
192,192,119030,128,0,119103:0:0:0:0:
64,192,119030,128,0,119103:0:0:0:0:
320,192,119103,128,0,119176:0:0:0:0:
448,192,119103,128,0,119176:0:0:0:0:
192,192,119176,128,0,119249:0:0:0:0:
64,192,119176,128,0,119249:0:0:0:0:
320,192,119249,128,0,119322:0:0:0:0:
448,192,119249,128,0,119322:0:0:0:0:
192,192,119322,128,0,119395:0:0:0:0:
64,192,119322,128,0,119395:0:0:0:0:
320,192,119395,128,0,119834:0:0:0:0:
448,192,119395,128,0,119542:0:0:0:0:
192,192,119542,128,0,119834:0:0:0:0:
448,192,119688,128,0,120127:0:0:0:0:
64,192,119688,128,0,119834:0:0:0:0:
192,192,119981,128,0,120347:0:0:0:0:
64,192,119981,128,0,120347:0:0:0:0:
320,192,120273,128,0,120639:0:0:0:0:
192,192,120420,128,0,120639:0:0:0:0:
64,192,120566,128,0,121078:0:0:0:0:
448,192,120566,128,0,120786:0:0:0:0:
320,192,120859,128,0,121078:0:0:0:0:
448,192,120859,128,0,121078:0:0:0:0:
64,192,121151,128,0,121371:0:0:0:0:
448,192,121151,128,0,121664:0:0:0:0:
192,192,121151,128,0,121664:0:0:0:0:
320,192,121444,128,0,121664:0:0:0:0:
64,192,121444,128,0,121664:0:0:0:0:
64,192,121737,128,0,121956:0:0:0:0:
448,192,121737,128,0,121956:0:0:0:0:
448,192,122030,128,0,122176:0:0:0:0:
320,192,122103,128,0,122249:0:0:0:0:
192,192,122176,128,0,122395:0:0:0:0:
64,192,122249,128,0,122395:0:0:0:0:
320,192,122322,128,0,122469:0:0:0:0:
448,192,122322,128,0,122542:0:0:0:0:
64,192,122615,128,0,122688:0:0:0:0:
320,192,122615,128,0,122834:0:0:0:0:
192,192,122761,128,0,122834:0:0:0:0:
448,192,122761,128,0,122981:0:0:0:0:
320,192,122908,128,0,122981:0:0:0:0:
64,192,122908,128,0,123420:0:0:0:0:
448,192,123054,128,0,123127:0:0:0:0:
192,192,123127,128,0,123200:0:0:0:0:
320,192,123200,128,0,123273:0:0:0:0:
448,192,123273,128,0,123347:0:0:0:0:
192,192,123347,128,0,123420:0:0:0:0:
320,192,123420,128,0,123493:0:0:0:0:
448,192,123493,128,0,124005:0:0:0:0:
64,192,123493,128,0,123566:0:0:0:0:
192,192,123566,128,0,123639:0:0:0:0:
320,192,123639,128,0,123712:0:0:0:0:
64,192,123712,128,0,123786:0:0:0:0:
192,192,123786,128,0,123859:0:0:0:0:
320,192,123859,128,0,123932:0:0:0:0:
64,192,123932,128,0,124005:0:0:0:0:
192,192,124005,128,0,124078:0:0:0:0:
320,192,124078,128,0,124298:0:0:0:0:
448,192,124078,128,0,124444:0:0:0:0:
64,192,124225,128,0,124444:0:0:0:0:
192,192,124371,128,0,124591:0:0:0:0:
320,192,124517,128,0,124737:0:0:0:0:
64,192,124664,128,0,125176:0:0:0:0:
192,192,124664,128,0,125176:0:0:0:0:
448,192,124956,128,0,125176:0:0:0:0:
320,192,124956,128,0,125176:0:0:0:0:
192,192,125249,128,0,125469:0:0:0:0:
64,192,125249,128,0,125688:0:0:0:0:
320,192,125542,128,0,125908:0:0:0:0:
448,192,125688,128,0,125908:0:0:0:0:
192,192,125834,128,0,126054:0:0:0:0:
64,192,125834,128,0,126054:0:0:0:0:
320,192,125981,128,0,126200:0:0:0:0:
448,192,126127,128,0,126347:0:0:0:0:
64,192,126127,128,0,126347:0:0:0:0:
192,192,126273,128,0,126493:0:0:0:0:
320,192,126420,128,0,126639:0:0:0:0:
448,192,126420,128,0,126859:0:0:0:0:
64,192,126566,128,0,126932:0:0:0:0:
192,192,126712,128,0,126932:0:0:0:0:
320,192,126859,128,0,127225:0:0:0:0:
192,192,127005,128,0,127225:0:0:0:0:
448,192,127151,128,0,127444:0:0:0:0:
320,192,127298,128,0,127444:0:0:0:0:
64,192,127444,1,0,0:0:0:0:
192,192,127481,1,0,0:0:0:0:
320,192,127517,1,0,0:0:0:0:
448,192,127554,1,0,0:0:0:0:
64,192,127591,128,0,127737:0:0:0:0:
192,192,127591,128,0,127883:0:0:0:0:
320,192,127737,128,0,128176:0:0:0:0:
448,192,127883,128,0,128176:0:0:0:0:
192,192,128030,128,0,128176:0:0:0:0:
64,192,128176,1,0,0:0:0:0:
192,192,128249,1,0,0:0:0:0:
320,192,128322,1,0,0:0:0:0:
448,192,128395,1,0,0:0:0:0:
192,192,128469,1,0,0:0:0:0:
64,192,128542,1,0,0:0:0:0:
320,192,128615,1,0,0:0:0:0:
192,192,128688,1,0,0:0:0:0:
320,192,128761,1,0,0:0:0:0:
448,192,128761,1,0,0:0:0:0:
64,192,128761,128,0,128981:0:0:0:0:
192,192,128908,128,0,129127:0:0:0:0:
320,192,129054,128,0,129273:0:0:0:0:
448,192,129200,128,0,129420:0:0:0:0:
192,192,129347,128,0,129566:0:0:0:0:
320,192,129493,128,0,129712:0:0:0:0:
64,192,129639,128,0,129932:0:0:0:0:
192,192,129786,128,0,129932:0:0:0:0:
320,192,129932,128,0,130078:0:0:0:0:
448,192,129932,1,0,0:0:0:0:
64,192,130078,1,0,0:0:0:0:
192,192,130127,1,0,0:0:0:0:
320,192,130176,1,0,0:0:0:0:
448,192,130225,128,0,130444:0:0:0:0:
192,192,130371,128,0,130591:0:0:0:0:
320,192,130517,128,0,130737:0:0:0:0:
64,192,130664,128,0,130883:0:0:0:0:
192,192,130810,128,0,131030:0:0:0:0:
320,192,130956,128,0,131176:0:0:0:0:
64,192,131103,128,0,135786:0:0:0:0:
448,192,131103,128,0,131834:0:0:0:0:
192,192,131395,128,0,135786:0:0:0:0:
320,192,131688,128,0,135786:0:0:0:0:
448,192,131981,128,0,135786:0:0:0:0:
