osu file format v14

[General]
AudioFilename: audio.mp3
AudioLeadIn: 0
PreviewTime: 94723
Countdown: 0
SampleSet: Soft
StackLeniency: 0.7
Mode: 3
LetterboxInBreaks: 0
SpecialStyle: 0
WidescreenStoryboard: 0

[Editor]
Bookmarks: 12618,17671,22723,30302,32828,37881,53039,65671,75776,80828,85881,90934,94723,95986,126302
DistanceSpacing: 1
BeatDivisor: 4
GridSize: 4
TimelineZoom: 2.899999

[Metadata]
Title:#be_fortunate
TitleUnicode:#be_fortunate
Artist:Hino Isuka
ArtistUnicode:翡乃イスカ
Creator:_Kobii
Version:#reba's_black_another
Source:
Tags:G2R2018 bofu BMS Reba Blocko Remuring instrumental
BeatmapID:2166287
BeatmapSetID:1032511

[Difficulty]
HPDrainRate:8.2
CircleSize:7
OverallDifficulty:8.2
ApproachRate:5
SliderMultiplier:1.4
SliderTickRate:1

[Events]
//Background and Video events
0,0,"bg.jpg",0,0
//Break Periods
//Storyboard Layer 0 (Background)
//Storyboard Layer 1 (Fail)
//Storyboard Layer 2 (Pass)
//Storyboard Layer 3 (Foreground)
//Storyboard Layer 4 (Overlay)
//Storyboard Sound Samples

[TimingPoints]
1250,315.789473684211,4,2,1,80,1,0
95986,-100,4,2,1,80,0,1
99776,-100,4,2,1,80,0,0
101039,-100,4,2,1,80,0,1
104828,-100,4,2,1,80,0,0
106092,-100,4,2,1,80,0,1
109881,-100,4,2,1,80,0,0
111144,-100,4,2,1,80,0,1
114934,-100,4,2,1,80,0,0
116197,-100,4,2,1,80,0,1
123776,-100,4,2,1,80,0,0
126302,-100,4,2,1,80,0,1
136407,-100,4,2,1,80,0,0

[HitObjects]
36,192,2039,5,0,0:0:0:0:
182,192,2039,1,0,0:0:0:0:
109,192,2197,1,0,0:0:0:0:
256,192,2197,1,0,0:0:0:0:
182,192,2355,1,0,0:0:0:0:
329,192,2355,1,0,0:0:0:0:
36,192,2513,1,0,0:0:0:50:kick.wav
256,192,2513,1,0,0:0:0:0:
402,192,2513,1,0,0:0:0:0:
475,192,2513,1,0,0:0:0:0:
109,192,2671,1,0,0:0:0:0:
182,192,2671,1,0,0:0:0:0:
329,192,2828,1,0,0:0:0:0:
402,192,2828,1,0,0:0:0:0:
36,192,2986,1,0,0:0:0:0:
182,192,2986,1,0,0:0:0:0:
329,192,3144,1,0,0:0:0:0:
475,192,3144,1,0,0:0:0:0:
109,192,3302,1,0,0:0:0:0:
256,192,3302,1,0,0:0:0:0:
402,192,3460,1,0,0:0:0:0:
475,192,3460,1,0,0:0:0:0:
182,192,3618,1,0,0:0:0:0:
329,192,3618,1,0,0:0:0:0:
36,192,3776,1,0,0:0:0:0:
109,192,3776,1,0,0:0:0:0:
402,192,3934,1,0,0:0:0:0:
475,192,3934,1,0,0:0:0:0:
109,192,4092,1,0,0:0:0:0:
256,192,4092,1,0,0:0:0:0:
329,192,4250,1,0,0:0:0:0:
475,192,4250,1,0,0:0:0:0:
36,192,4407,1,0,0:0:0:0:
182,192,4407,1,0,0:0:0:0:
329,192,4565,1,0,0:0:0:0:
475,192,4565,1,0,0:0:0:0:
36,192,4723,1,0,0:0:0:0:
109,192,4723,1,0,0:0:0:0:
402,192,4881,1,0,0:0:0:0:
475,192,4881,1,0,0:0:0:0:
109,192,5039,1,0,0:0:0:0:
256,192,5039,1,0,0:0:0:0:
329,192,5197,1,0,0:0:0:0:
475,192,5197,1,0,0:0:0:0:
36,192,5355,1,0,0:0:0:0:
182,192,5355,1,0,0:0:0:0:
256,192,5513,1,0,0:0:0:0:
402,192,5513,1,0,0:0:0:0:
36,192,5671,1,0,0:0:0:0:
109,192,5671,1,0,0:0:0:0:
182,192,5828,1,0,0:0:0:0:
329,192,5828,1,0,0:0:0:0:
402,192,5986,1,0,0:0:0:0:
475,192,5986,1,0,0:0:0:0:
109,192,6144,1,0,0:0:0:0:
256,192,6144,1,0,0:0:0:0:
36,192,6302,1,0,0:0:0:50:kick.wav
182,192,6302,1,0,0:0:0:50:cymbal.wav
329,192,6302,1,0,0:0:0:0:
475,192,6302,1,0,0:0:0:0:
402,192,6618,1,0,0:0:0:0:
329,192,6671,1,0,0:0:0:0:
256,192,6723,1,0,0:0:0:0:
36,192,6776,1,0,0:0:0:0:
109,192,6776,1,0,0:0:0:0:
329,192,6828,1,0,0:0:0:0:
402,192,6881,1,0,0:0:0:0:
36,192,6934,1,0,0:0:0:50:kick.wav
109,192,6934,1,0,0:0:0:50:cymbal.wav
182,192,6934,1,0,0:0:0:0:
475,192,6934,1,0,0:0:0:0:
182,192,7092,1,0,0:0:0:0:
256,192,7092,1,0,0:0:0:0:
256,192,7250,1,0,0:0:0:0:
329,192,7250,1,0,0:0:0:0:
329,192,7407,1,0,0:0:0:0:
402,192,7407,1,0,0:0:0:0:
36,192,7565,1,0,0:0:0:50:kick.wav
109,192,7565,1,0,0:0:0:50:cymbal.wav
402,192,7565,1,0,0:0:0:0:
475,192,7565,1,0,0:0:0:0:
182,192,7723,1,0,0:0:0:70:hihat1.wav
256,192,7723,1,0,0:0:0:0:
329,192,7881,1,0,0:0:0:0:
402,192,7881,1,0,0:0:0:0:
109,192,8039,1,0,0:0:0:70:hihat1.wav
182,192,8039,1,0,0:0:0:0:
36,192,8197,1,0,0:0:0:70:snare2.wav
256,192,8197,1,0,0:0:0:0:
475,192,8197,1,0,0:0:0:0:
329,192,8355,1,0,0:0:0:70:hihat1.wav
402,192,8355,1,0,0:0:0:0:
36,192,8513,1,0,0:0:0:0:
182,192,8513,1,0,0:0:0:0:
402,192,8671,1,0,0:0:0:70:hihat1.wav
475,192,8671,1,0,0:0:0:0:
36,192,8828,1,0,0:0:0:50:kick.wav
109,192,8828,1,0,0:0:0:0:
256,192,8828,1,0,0:0:0:0:
329,192,8986,1,0,0:0:0:70:hihat1.wav
475,192,8986,1,0,0:0:0:0:
36,192,9144,1,0,0:0:0:0:
182,192,9144,1,0,0:0:0:0:
256,192,9302,1,0,0:0:0:70:hihat1.wav
329,192,9302,1,0,0:0:0:0:
109,192,9460,1,0,0:0:0:70:snare2.wav
402,192,9460,1,0,0:0:0:0:
475,192,9460,1,0,0:0:0:0:
182,192,9618,1,0,0:0:0:70:hihat1.wav
329,192,9618,1,0,0:0:0:0:
36,192,9776,1,0,0:0:0:0:
256,192,9776,1,0,0:0:0:0:
329,192,9934,1,0,0:0:0:70:hihat1.wav
475,192,9934,1,0,0:0:0:0:
36,192,10092,1,0,0:0:0:50:kick.wav
182,192,10092,1,0,0:0:0:0:
402,192,10092,1,0,0:0:0:0:
256,192,10250,1,0,0:0:0:70:hihat1.wav
329,192,10250,1,0,0:0:0:0:
109,192,10407,1,0,0:0:0:0:
182,192,10407,1,0,0:0:0:0:
329,192,10565,1,0,0:0:0:70:hihat1.wav
402,192,10565,1,0,0:0:0:0:
36,192,10723,1,0,0:0:0:70:snare2.wav
256,192,10723,1,0,0:0:0:0:
475,192,10723,1,0,0:0:0:0:
109,192,10881,1,0,0:0:0:70:hihat1.wav
182,192,10881,1,0,0:0:0:0:
329,192,11039,1,0,0:0:0:0:
475,192,11039,1,0,0:0:0:0:
182,192,11197,1,0,0:0:0:70:hihat1.wav
256,192,11197,1,0,0:0:0:0:
36,192,11355,1,0,0:0:0:50:kick.wav
109,192,11355,1,0,0:0:0:50:cymbal.wav
402,192,11355,1,0,0:0:0:0:
475,192,11355,1,0,0:0:0:0:
109,192,11671,1,0,0:0:0:0:
182,192,11723,1,0,0:0:0:0:
256,192,11776,1,0,0:0:0:0:
402,192,11828,1,0,0:0:0:70:hihat1.wav
475,192,11828,1,0,0:0:0:0:
182,192,11881,1,0,0:0:0:0:
109,192,11934,1,0,0:0:0:0:
36,192,11986,1,0,0:0:0:50:kick.wav
329,192,11986,1,0,0:0:0:0:
402,192,11986,1,0,0:0:0:0:
475,192,11986,1,0,0:0:0:0:
256,192,12144,1,0,0:0:0:70:hihat1.wav
329,192,12144,1,0,0:0:0:0:
182,192,12302,1,0,0:0:0:0:
256,192,12302,1,0,0:0:0:0:
109,192,12460,1,0,0:0:0:70:hihat1.wav
182,192,12460,1,0,0:0:0:0:
36,192,12618,1,0,0:0:0:50:kick.wav
109,192,12618,1,0,0:0:0:50:cymbal.wav
402,192,12618,1,0,0:0:0:0:
475,192,12618,1,0,0:0:0:0:
329,192,12697,1,0,0:0:0:0:
109,192,12776,1,0,0:0:0:0:
256,192,12776,1,0,0:0:0:0:
402,192,12855,1,0,0:0:0:0:
475,192,12855,1,0,0:0:0:0:
36,192,12934,1,0,0:0:0:50:kick.wav
182,192,12934,1,0,0:0:0:0:
402,192,13013,1,0,0:0:0:0:
475,192,13013,1,0,0:0:0:0:
109,192,13092,1,0,0:0:0:0:
256,192,13092,1,0,0:0:0:0:
402,192,13171,1,0,0:0:0:0:
475,192,13171,1,0,0:0:0:0:
182,192,13250,1,0,0:0:0:50:kick.wav
329,192,13250,1,0,0:0:0:0:
256,192,13407,1,0,0:0:0:0:
402,192,13407,1,0,0:0:0:0:
182,192,13486,1,0,0:0:0:0:
36,192,13565,1,0,0:0:0:50:kick.wav
109,192,13565,1,0,0:0:0:0:
329,192,13565,1,0,0:0:0:0:
182,192,13723,1,0,0:0:0:0:
402,192,13723,1,0,0:0:0:0:
256,192,13802,1,0,0:0:0:0:
329,192,13802,1,0,0:0:0:0:
36,192,13881,1,0,0:0:0:50:kick.wav
109,192,13881,1,0,0:0:0:0:
475,192,13881,1,0,0:0:0:0:
109,192,14039,1,0,0:0:0:0:
182,192,14039,1,0,0:0:0:0:
256,192,14118,1,0,0:0:0:0:
329,192,14118,1,0,0:0:0:0:
402,192,14197,1,0,0:0:0:50:kick.wav
475,192,14197,1,0,0:0:0:0:
109,192,14276,1,0,0:0:0:0:
256,192,14276,1,0,0:0:0:0:
329,192,14355,1,0,0:0:0:0:
402,192,14355,1,0,0:0:0:0:
36,192,14434,1,0,0:0:0:0:
182,192,14434,1,0,0:0:0:0:
256,192,14513,1,0,0:0:0:50:kick.wav
329,192,14513,1,0,0:0:0:0:
109,192,14671,1,0,0:0:0:0:
182,192,14671,1,0,0:0:0:0:
256,192,14750,1,0,0:0:0:0:
36,192,14828,1,0,0:0:0:50:kick.wav
329,192,14828,1,0,0:0:0:0:
475,192,14828,1,0,0:0:0:0:
36,192,14986,1,0,0:0:0:0:
256,192,14986,1,0,0:0:0:0:
402,192,14986,1,0,0:0:0:0:
182,192,15065,1,0,0:0:0:0:
36,192,15144,1,0,0:0:0:50:kick.wav
109,192,15144,1,0,0:0:0:0:
329,192,15144,1,0,0:0:0:0:
256,192,15223,1,0,0:0:0:0:
475,192,15223,1,0,0:0:0:0:
109,192,15302,1,0,0:0:0:0:
182,192,15302,1,0,0:0:0:0:
329,192,15381,1,0,0:0:0:0:
402,192,15381,1,0,0:0:0:0:
182,192,15460,1,0,0:0:0:50:kick.wav
256,192,15460,1,0,0:0:0:0:
256,192,15618,1,0,0:0:0:0:
329,192,15618,1,0,0:0:0:0:
182,192,15697,1,0,0:0:0:0:
36,192,15776,1,0,0:0:0:50:kick.wav
109,192,15776,1,0,0:0:0:0:
402,192,15776,1,0,0:0:0:0:
329,192,15934,1,0,0:0:0:0:
475,192,15934,1,0,0:0:0:0:
109,192,16013,1,0,0:0:0:0:
182,192,16013,1,0,0:0:0:0:
256,192,16092,1,0,0:0:0:50:kick.wav
402,192,16092,1,0,0:0:0:0:
36,192,16171,1,0,0:0:0:0:
109,192,16171,1,0,0:0:0:0:
182,192,16250,1,0,0:0:0:0:
329,192,16250,1,0,0:0:0:0:
402,192,16328,1,0,0:0:0:0:
475,192,16328,1,0,0:0:0:0:
36,192,16407,1,0,0:0:0:50:kick.wav
109,192,16407,1,0,0:0:0:50:cymbal.wav
256,192,16407,1,0,0:0:0:0:
329,192,16407,1,0,0:0:0:0:
402,192,16723,1,0,0:0:0:0:
329,192,16776,1,0,0:0:0:0:
256,192,16828,1,0,0:0:0:0:
36,192,16881,1,0,0:0:0:0:
109,192,16881,1,0,0:0:0:0:
329,192,16934,1,0,0:0:0:0:
402,192,16986,1,0,0:0:0:0:
36,192,17039,1,0,0:0:0:50:kick.wav
109,192,17039,1,0,0:0:0:50:cymbal.wav
182,192,17039,1,0,0:0:0:0:
475,192,17039,1,0,0:0:0:0:
256,192,17197,1,0,0:0:0:0:
402,192,17197,1,0,0:0:0:0:
36,192,17276,1,0,0:0:0:0:
182,192,17276,1,0,0:0:0:0:
329,192,17355,1,0,0:0:0:0:
475,192,17434,1,0,0:0:0:0:
109,192,17513,1,0,0:0:0:0:
256,192,17513,1,0,0:0:0:0:
329,192,17592,1,0,0:0:0:0:
182,192,17671,1,0,0:0:0:50:kick.wav
402,192,17671,1,0,0:0:0:0:
475,192,17671,1,0,0:0:0:0:
256,192,17750,1,0,0:0:0:0:
36,192,17828,1,0,0:0:0:0:
329,192,17828,1,0,0:0:0:0:
182,192,17907,1,0,0:0:0:0:
36,192,17986,1,0,0:0:0:0:
475,192,17986,1,0,0:0:0:0:
329,192,18065,1,0,0:0:0:0:
109,192,18144,1,0,0:0:0:0:
475,192,18144,1,0,0:0:0:0:
256,192,18223,1,0,0:0:0:0:
36,192,18302,1,0,0:0:0:0:
402,192,18302,1,0,0:0:0:0:
182,192,18381,1,0,0:0:0:0:
36,192,18460,1,0,0:0:0:0:
475,192,18460,1,0,0:0:0:0:
329,192,18539,1,0,0:0:0:0:
109,192,18618,1,0,0:0:0:0:
475,192,18618,1,0,0:0:0:0:
256,192,18697,1,0,0:0:0:0:
36,192,18776,1,0,0:0:0:0:
402,192,18776,1,0,0:0:0:0:
182,192,18855,1,0,0:0:0:0:
329,192,18934,1,0,0:0:0:0:
475,192,18934,1,0,0:0:0:0:
256,192,19013,1,0,0:0:0:0:
109,192,19092,1,0,0:0:0:0:
182,192,19092,1,0,0:0:0:0:
329,192,19171,1,0,0:0:0:0:
36,192,19250,1,0,0:0:0:0:
475,192,19250,1,0,0:0:0:0:
182,192,19328,1,0,0:0:0:0:
329,192,19407,1,0,0:0:0:0:
475,192,19407,1,0,0:0:0:0:
256,192,19486,1,0,0:0:0:0:
109,192,19565,1,0,0:0:0:0:
182,192,19565,1,0,0:0:0:0:
36,192,19644,1,0,0:0:0:0:
329,192,19723,1,0,0:0:0:0:
402,192,19723,1,0,0:0:0:0:
475,192,19802,1,0,0:0:0:0:
109,192,19881,1,0,0:0:0:0:
182,192,19881,1,0,0:0:0:0:
36,192,19960,1,0,0:0:0:0:
329,192,20039,1,0,0:0:0:0:
402,192,20039,1,0,0:0:0:0:
475,192,20118,1,0,0:0:0:0:
36,192,20197,1,0,0:0:0:50:kick.wav
109,192,20197,1,0,0:0:0:50:cymbal.wav
182,192,20197,1,0,0:0:0:0:
256,192,20197,1,0,0:0:0:0:
36,192,20513,1,0,0:0:0:50:kick.wav
182,192,20513,1,0,0:0:0:0:
329,192,20513,1,0,0:0:0:0:
475,192,20513,1,0,0:0:0:0:
36,192,20828,1,0,0:0:0:50:kick.wav
109,192,20828,1,0,0:0:0:0:
256,192,20828,1,0,0:0:0:0:
402,192,20828,1,0,0:0:0:0:
36,192,20986,1,0,0:0:0:50:kick.wav
109,192,20986,1,0,0:0:0:0:
256,192,20986,1,0,0:0:0:0:
402,192,20986,1,0,0:0:0:0:
109,192,21302,1,0,0:0:0:50:kick.wav
182,192,21302,1,0,0:0:0:0:
329,192,21302,1,0,0:0:0:0:
402,192,21302,1,0,0:0:0:0:
36,192,21618,1,0,0:0:0:50:kick.wav
182,192,21618,1,0,0:0:0:0:
329,192,21618,1,0,0:0:0:0:
475,192,21618,1,0,0:0:0:0:
182,192,21776,1,0,0:0:0:50:kick.wav
256,192,21776,1,0,0:0:0:0:
402,192,21776,1,0,0:0:0:0:
475,192,21776,1,0,0:0:0:0:
109,192,21934,1,0,0:0:0:50:kick.wav
182,192,21934,1,0,0:0:0:0:
329,192,21934,1,0,0:0:0:0:
402,192,21934,1,0,0:0:0:0:
36,192,22092,1,0,0:0:0:50:kick.wav
109,192,22092,1,0,0:0:0:0:
256,192,22092,1,0,0:0:0:0:
329,192,22092,1,0,0:0:0:0:
402,192,22131,1,0,0:0:0:0:
475,192,22171,1,0,0:0:0:0:
182,192,22210,1,0,0:0:0:0:
256,192,22250,1,0,0:0:0:0:
329,192,22289,1,0,0:0:0:0:
402,192,22328,1,0,0:0:0:0:
475,192,22368,1,0,0:0:0:0:
182,192,22407,1,0,0:0:0:0:
109,192,22447,1,0,0:0:0:0:
36,192,22486,1,0,0:0:0:0:
475,192,22526,1,0,0:0:0:0:
402,192,22565,1,0,0:0:0:0:
329,192,22605,1,0,0:0:0:0:
256,192,22644,1,0,0:0:0:0:
182,192,22684,1,0,0:0:0:0:
36,192,22723,1,0,0:0:0:50:kick.wav
109,192,22723,1,0,0:0:0:50:cymbal.wav
402,192,22723,1,0,0:0:0:0:
475,192,22723,1,0,0:0:0:0:
329,192,22802,1,0,0:0:0:0:
182,192,22881,1,0,0:0:0:0:
256,192,22881,1,0,0:0:0:0:
402,192,22960,1,0,0:0:0:0:
475,192,22960,1,0,0:0:0:0:
182,192,23039,1,0,0:0:0:50:kick.wav
256,192,23039,1,0,0:0:0:0:
402,192,23118,1,0,0:0:0:0:
475,192,23118,1,0,0:0:0:0:
182,192,23197,1,0,0:0:0:0:
256,192,23197,1,0,0:0:0:0:
402,192,23276,1,0,0:0:0:0:
475,192,23276,1,0,0:0:0:0:
36,192,23355,1,0,0:0:0:50:kick.wav
109,192,23355,1,0,0:0:0:0:
256,192,23355,1,0,0:0:0:0:
182,192,23513,1,0,0:0:0:0:
329,192,23513,1,0,0:0:0:0:
256,192,23671,1,0,0:0:0:50:kick.wav
402,192,23671,1,0,0:0:0:0:
475,192,23671,1,0,0:0:0:0:
36,192,23828,1,0,0:0:0:0:
182,192,23828,1,0,0:0:0:0:
109,192,23907,1,0,0:0:0:0:
256,192,23907,1,0,0:0:0:0:
182,192,23986,1,0,0:0:0:50:kick.wav
329,192,23986,1,0,0:0:0:0:
475,192,23986,1,0,0:0:0:0:
256,192,24144,1,0,0:0:0:0:
402,192,24144,1,0,0:0:0:0:
36,192,24223,1,0,0:0:0:0:
109,192,24223,1,0,0:0:0:0:
329,192,24302,1,0,0:0:0:50:kick.wav
475,192,24302,1,0,0:0:0:0:
109,192,24381,1,0,0:0:0:0:
182,192,24381,1,0,0:0:0:0:
402,192,24460,1,0,0:0:0:50:kick.wav
475,192,24460,1,0,0:0:0:0:
182,192,24539,1,0,0:0:0:50:kick.wav
256,192,24539,1,0,0:0:0:0:
36,192,24618,1,0,0:0:0:50:kick.wav
329,192,24618,1,0,0:0:0:0:
475,192,24618,1,0,0:0:0:0:
109,192,24776,1,0,0:0:0:0:
182,192,24776,1,0,0:0:0:0:
256,192,24855,1,0,0:0:0:50:kick.wav
402,192,24855,1,0,0:0:0:0:
475,192,24855,1,0,0:0:0:0:
36,192,24934,1,0,0:0:0:0:
109,192,24934,1,0,0:0:0:0:
36,192,25092,1,0,0:0:0:50:kick.wav
256,192,25092,1,0,0:0:0:0:
475,192,25092,1,0,0:0:0:0:
36,192,25250,1,0,0:0:0:50:kick.wav
109,192,25250,1,0,0:0:0:50:cymbal.wav
402,192,25250,1,0,0:0:0:0:
475,192,25250,1,0,0:0:0:0:
256,192,25328,1,0,0:0:0:0:
329,192,25328,1,0,0:0:0:0:
36,192,25407,1,0,0:0:0:0:
109,192,25407,1,0,0:0:0:0:
256,192,25486,1,0,0:0:0:0:
329,192,25486,1,0,0:0:0:0:
36,192,25565,1,0,0:0:0:50:kick.wav
109,192,25565,1,0,0:0:0:0:
182,192,25723,1,0,0:0:0:0:
329,192,25723,1,0,0:0:0:0:
256,192,25881,1,0,0:0:0:50:kick.wav
402,192,25881,1,0,0:0:0:0:
475,192,25881,1,0,0:0:0:0:
329,192,26039,1,0,0:0:0:0:
475,192,26039,1,0,0:0:0:0:
36,192,26118,1,0,0:0:0:50:kick.wav
182,192,26118,1,0,0:0:0:0:
256,192,26197,1,0,0:0:0:50:kick.wav
402,192,26197,1,0,0:0:0:0:
109,192,26276,1,0,0:0:0:50:kick.wav
475,192,26276,1,0,0:0:0:0:
182,192,26355,1,0,0:0:0:50:kick.wav
329,192,26355,1,0,0:0:0:0:
109,192,26434,1,0,0:0:0:50:kick.wav
402,192,26434,1,0,0:0:0:0:
36,192,26513,1,0,0:0:0:50:kick.wav
256,192,26513,1,0,0:0:0:0:
475,192,26513,1,0,0:0:0:0:
182,192,26592,1,0,0:0:0:0:
329,192,26592,1,0,0:0:0:0:
36,192,26671,1,0,0:0:0:50:kick.wav
475,192,26671,1,0,0:0:0:0:
182,192,26750,1,0,0:0:0:0:
329,192,26750,1,0,0:0:0:0:
36,192,26828,1,0,0:0:0:50:kick.wav
256,192,26828,1,0,0:0:0:0:
475,192,26828,1,0,0:0:0:0:
182,192,26986,1,0,0:0:0:0:
329,192,26986,1,0,0:0:0:0:
109,192,27144,1,0,0:0:0:0:
256,192,27144,1,0,0:0:0:0:
36,192,27302,1,0,0:0:0:50:kick.wav
182,192,27302,1,0,0:0:0:0:
402,192,27381,1,0,0:0:0:50:kick.wav
475,192,27381,1,0,0:0:0:0:
109,192,27460,1,0,0:0:0:0:
182,192,27460,1,0,0:0:0:0:
329,192,27460,1,0,0:0:0:0:
36,192,27618,1,0,0:0:0:50:kick.wav
109,192,27618,1,0,0:0:0:0:
256,192,27618,1,0,0:0:0:0:
36,192,27776,1,0,0:0:0:50:kick.wav
182,192,27776,1,0,0:0:0:50:cymbal.wav
329,192,27776,1,0,0:0:0:0:
475,192,27776,1,0,0:0:0:0:
109,192,27934,1,0,0:0:0:0:
256,192,27934,1,0,0:0:0:0:
402,192,28013,1,0,0:0:0:0:
109,192,28092,1,0,0:0:0:50:kick.wav
256,192,28092,1,0,0:0:0:0:
402,192,28171,1,0,0:0:0:0:
36,192,28250,1,0,0:0:0:0:
182,192,28250,1,0,0:0:0:0:
329,192,28328,1,0,0:0:0:0:
36,192,28407,1,0,0:0:0:50:kick.wav
182,192,28407,1,0,0:0:0:0:
329,192,28486,1,0,0:0:0:0:
109,192,28565,1,0,0:0:0:0:
475,192,28565,1,0,0:0:0:0:
256,192,28644,1,0,0:0:0:0:
402,192,28723,1,0,0:0:0:50:kick.wav
475,192,28723,1,0,0:0:0:0:
182,192,28802,1,0,0:0:0:0:
329,192,28802,1,0,0:0:0:0:
36,192,28881,1,0,0:0:0:0:
109,192,28881,1,0,0:0:0:0:
256,192,28960,1,0,0:0:0:0:
402,192,28960,1,0,0:0:0:0:
36,192,29039,1,0,0:0:0:50:kick.wav
182,192,29039,1,0,0:0:0:0:
475,192,29039,1,0,0:0:0:0:
256,192,29197,1,0,0:0:0:0:
402,192,29197,1,0,0:0:0:0:
109,192,29276,1,0,0:0:0:0:
256,192,29355,1,0,0:0:0:50:kick.wav
402,192,29355,1,0,0:0:0:0:
109,192,29434,1,0,0:0:0:0:
329,192,29513,1,0,0:0:0:50:kick.wav
475,192,29513,1,0,0:0:0:0:
36,192,29592,1,0,0:0:0:50:kick.wav
182,192,29592,1,0,0:0:0:0:
256,192,29671,1,0,0:0:0:50:kick.wav
402,192,29671,1,0,0:0:0:0:
475,192,29671,1,0,0:0:0:0:
36,192,29907,1,0,0:0:0:50:kick.wav
182,192,29907,1,0,0:0:0:0:
329,192,29907,1,0,0:0:0:0:
109,192,30144,1,0,0:0:0:50:kick.wav
256,192,30144,1,0,0:0:0:0:
402,192,30144,1,0,0:0:0:0:
36,192,30302,1,0,0:0:0:50:kick.wav
109,192,30302,1,0,0:0:0:0:
329,192,30302,1,0,0:0:0:0:
182,192,30381,1,0,0:0:0:50:kick.wav
402,192,30381,1,0,0:0:0:0:
475,192,30381,1,0,0:0:0:0:
36,192,30460,1,0,0:0:0:50:kick.wav
109,192,30460,1,0,0:0:0:0:
256,192,30460,1,0,0:0:0:0:
182,192,30618,1,0,0:0:0:0:
329,192,30618,1,0,0:0:0:0:
182,192,30776,1,0,0:0:0:0:
329,192,30776,1,0,0:0:0:0:
256,192,30934,1,0,0:0:0:50:kick.wav
402,192,30934,1,0,0:0:0:0:
475,192,30934,1,0,0:0:0:0:
36,192,31013,1,0,0:0:0:0:
109,192,31013,1,0,0:0:0:0:
182,192,31013,1,0,0:0:0:0:
329,192,31092,1,0,0:0:0:0:
402,192,31092,1,0,0:0:0:0:
475,192,31092,1,0,0:0:0:0:
36,192,31250,1,0,0:0:0:50:kick.wav
109,192,31250,1,0,0:0:0:0:
256,192,31250,1,0,0:0:0:0:
329,192,31328,1,0,0:0:0:0:
402,192,31328,1,0,0:0:0:0:
475,192,31328,1,0,0:0:0:0:
36,192,31407,1,0,0:0:0:0:
109,192,31407,1,0,0:0:0:0:
182,192,31407,1,0,0:0:0:0:
109,192,31565,1,0,0:0:0:50:kick.wav
182,192,31565,1,0,0:0:0:0:
329,192,31565,1,0,0:0:0:0:
402,192,31565,1,0,0:0:0:0:
329,192,31723,1,0,0:0:0:0:
182,192,31802,1,0,0:0:0:0:
329,192,31881,1,0,0:0:0:0:
182,192,31960,1,0,0:0:0:0:
329,192,32039,1,0,0:0:0:0:
182,192,32118,1,0,0:0:0:0:
329,192,32197,1,0,0:0:0:0:
475,192,32355,1,0,0:0:0:50:kick.wav
402,192,32381,1,0,0:0:0:0:
329,192,32407,1,0,0:0:0:0:
36,192,32513,1,0,0:0:0:50:kick.wav
109,192,32539,1,0,0:0:0:0:
182,192,32565,1,0,0:0:0:0:
402,192,32671,1,0,0:0:0:50:kick.wav
329,192,32697,1,0,0:0:0:0:
256,192,32723,1,0,0:0:0:0:
36,192,32828,1,0,0:0:0:50:kick.wav
109,192,32828,1,0,0:0:0:50:cymbal.wav
402,192,32828,1,0,0:0:0:0:
475,192,32828,1,0,0:0:0:0:
329,192,32986,1,0,0:0:0:0:
402,192,32986,1,0,0:0:0:0:
109,192,33065,1,0,0:0:0:0:
182,192,33065,1,0,0:0:0:0:
329,192,33144,1,0,0:0:0:50:kick.wav
402,192,33144,1,0,0:0:0:0:
109,192,33223,1,0,0:0:0:0:
182,192,33223,1,0,0:0:0:0:
329,192,33302,1,0,0:0:0:0:
402,192,33302,1,0,0:0:0:0:
109,192,33381,1,0,0:0:0:0:
182,192,33381,1,0,0:0:0:0:
329,192,33460,1,0,0:0:0:50:kick.wav
402,192,33460,1,0,0:0:0:0:
182,192,33618,1,0,0:0:0:0:
256,192,33618,1,0,0:0:0:0:
36,192,33776,1,0,0:0:0:50:kick.wav
109,192,33776,1,0,0:0:0:0:
329,192,33776,1,0,0:0:0:0:
182,192,33934,1,0,0:0:0:0:
402,192,33934,1,0,0:0:0:0:
256,192,34013,1,0,0:0:0:0:
475,192,34013,1,0,0:0:0:0:
36,192,34092,1,0,0:0:0:50:kick.wav
109,192,34092,1,0,0:0:0:0:
329,192,34092,1,0,0:0:0:0:
402,192,34250,1,0,0:0:0:0:
475,192,34250,1,0,0:0:0:0:
182,192,34328,1,0,0:0:0:0:
329,192,34328,1,0,0:0:0:0:
36,192,34407,1,0,0:0:0:50:kick.wav
109,192,34407,1,0,0:0:0:0:
256,192,34486,1,0,0:0:0:0:
402,192,34486,1,0,0:0:0:0:
109,192,34565,1,0,0:0:0:0:
182,192,34565,1,0,0:0:0:0:
329,192,34644,1,0,0:0:0:0:
475,192,34644,1,0,0:0:0:0:
182,192,34723,1,0,0:0:0:50:kick.wav
256,192,34723,1,0,0:0:0:0:
256,192,34881,1,0,0:0:0:0:
329,192,34881,1,0,0:0:0:0:
36,192,34960,1,0,0:0:0:0:
182,192,34960,1,0,0:0:0:0:
329,192,35039,1,0,0:0:0:50:kick.wav
402,192,35039,1,0,0:0:0:0:
475,192,35039,1,0,0:0:0:0:
109,192,35197,1,0,0:0:0:0:
256,192,35197,1,0,0:0:0:0:
36,192,35355,1,0,0:0:0:50:kick.wav
182,192,35355,1,0,0:0:0:50:cymbal.wav
329,192,35355,1,0,0:0:0:0:
402,192,35434,1,0,0:0:0:0:
475,192,35434,1,0,0:0:0:0:
109,192,35513,1,0,0:0:0:0:
256,192,35513,1,0,0:0:0:0:
402,192,35592,1,0,0:0:0:0:
475,192,35592,1,0,0:0:0:0:
36,192,35671,1,0,0:0:0:50:kick.wav
182,192,35671,1,0,0:0:0:0:
329,192,35671,1,0,0:0:0:0:
256,192,35828,1,0,0:0:0:0:
402,192,35828,1,0,0:0:0:0:
109,192,35986,1,0,0:0:0:50:kick.wav
329,192,35986,1,0,0:0:0:0:
475,192,35986,1,0,0:0:0:0:
182,192,36144,1,0,0:0:0:50:kick.wav
256,192,36144,1,0,0:0:0:0:
329,192,36223,1,0,0:0:0:50:kick.wav
475,192,36223,1,0,0:0:0:0:
109,192,36302,1,0,0:0:0:50:kick.wav
182,192,36302,1,0,0:0:0:0:
256,192,36381,1,0,0:0:0:50:kick.wav
402,192,36381,1,0,0:0:0:0:
36,192,36460,1,0,0:0:0:50:kick.wav
109,192,36460,1,0,0:0:0:0:
182,192,36539,1,0,0:0:0:50:kick.wav
329,192,36539,1,0,0:0:0:0:
256,192,36618,1,0,0:0:0:50:kick.wav
402,192,36618,1,0,0:0:0:0:
475,192,36618,1,0,0:0:0:0:
256,192,36776,1,0,0:0:0:50:kick.wav
402,192,36776,1,0,0:0:0:0:
475,192,36776,1,0,0:0:0:0:
182,192,36934,1,0,0:0:0:50:kick.wav
256,192,36973,1,0,0:0:0:0:
329,192,37013,1,0,0:0:0:0:
402,192,37052,1,0,0:0:0:0:
475,192,37092,1,0,0:0:0:0:
256,192,37171,1,0,0:0:0:0:
36,192,37250,1,0,0:0:0:0:
109,192,37289,1,0,0:0:0:0:
182,192,37328,1,0,0:0:0:0:
256,192,37368,1,0,0:0:0:0:
329,192,37407,1,0,0:0:0:0:
182,192,37486,1,0,0:0:0:0:
36,192,37565,1,0,0:0:0:50:kick.wav
329,192,37565,1,0,0:0:0:0:
475,192,37565,1,0,0:0:0:0:
109,192,37644,1,0,0:0:0:50:kick.wav
256,192,37644,1,0,0:0:0:0:
402,192,37723,1,0,0:0:0:50:kick.wav
475,192,37723,1,0,0:0:0:0:
182,192,37802,1,0,0:0:0:50:kick.wav
329,192,37802,1,0,0:0:0:0:
36,192,37881,1,0,0:0:0:50:kick.wav
109,192,37881,1,0,0:0:0:50:cymbal.wav
256,192,37881,1,0,0:0:0:0:
329,192,37960,1,0,0:0:0:0:
402,192,38039,1,0,0:0:0:0:
475,192,38039,1,0,0:0:0:0:
256,192,38118,1,0,0:0:0:0:
36,192,38197,1,0,0:0:0:0:
109,192,38197,1,0,0:0:0:0:
256,192,38276,1,0,0:0:0:0:
402,192,38355,1,0,0:0:0:0:
475,192,38355,1,0,0:0:0:0:
256,192,38434,1,0,0:0:0:0:
36,192,38513,1,0,0:0:0:0:
109,192,38513,1,0,0:0:0:0:
329,192,38592,1,0,0:0:0:0:
182,192,38671,1,0,0:0:0:0:
475,192,38671,1,0,0:0:0:0:
329,192,38750,1,0,0:0:0:0:
36,192,38828,1,0,0:0:0:0:
182,192,38828,1,0,0:0:0:0:
329,192,38907,1,0,0:0:0:0:
182,192,38986,1,0,0:0:0:0:
475,192,38986,1,0,0:0:0:0:
329,192,39065,1,0,0:0:0:0:
36,192,39144,1,0,0:0:0:0:
256,192,39144,1,0,0:0:0:0:
182,192,39223,1,0,0:0:0:0:
109,192,39302,1,0,0:0:0:0:
475,192,39302,1,0,0:0:0:0:
256,192,39381,1,0,0:0:0:0:
36,192,39460,1,0,0:0:0:0:
402,192,39460,1,0,0:0:0:0:
329,192,39539,1,0,0:0:0:0:
256,192,39618,1,0,0:0:0:0:
475,192,39618,1,0,0:0:0:0:
182,192,39697,1,0,0:0:0:0:
36,192,39776,1,0,0:0:0:0:
109,192,39776,1,0,0:0:0:0:
329,192,39855,1,0,0:0:0:0:
182,192,39934,1,0,0:0:0:0:
475,192,39934,1,0,0:0:0:0:
256,192,40013,1,0,0:0:0:0:
329,192,40092,1,0,0:0:0:50:kick.wav
402,192,40092,1,0,0:0:0:50:cymbal.wav
475,192,40092,1,0,0:0:0:0:
182,192,40171,1,0,0:0:0:0:
36,192,40250,1,0,0:0:0:0:
329,192,40250,1,0,0:0:0:0:
256,192,40328,1,0,0:0:0:0:
36,192,40407,1,0,0:0:0:50:kick.wav
182,192,40407,1,0,0:0:0:0:
402,192,40407,1,0,0:0:0:0:
475,192,40407,1,0,0:0:0:0:
36,192,40644,1,0,0:0:0:50:kick.wav
109,192,40644,1,0,0:0:0:0:
329,192,40644,1,0,0:0:0:0:
475,192,40644,1,0,0:0:0:0:
36,192,40881,1,0,0:0:0:50:kick.wav
256,192,40881,1,0,0:0:0:0:
402,192,40881,1,0,0:0:0:0:
475,192,40881,1,0,0:0:0:0:
36,192,41118,1,0,0:0:0:50:kick.wav
182,192,41118,1,0,0:0:0:0:
329,192,41118,1,0,0:0:0:0:
475,192,41118,1,0,0:0:0:0:
36,192,41355,1,0,0:0:0:50:kick.wav
109,192,41355,1,0,0:0:0:0:
256,192,41355,1,0,0:0:0:0:
402,192,41355,1,0,0:0:0:0:
109,192,41592,1,0,0:0:0:50:kick.wav
182,192,41592,1,0,0:0:0:0:
329,192,41592,1,0,0:0:0:0:
475,192,41592,1,0,0:0:0:0:
329,192,41828,1,0,0:0:0:50:kick.wav
475,192,41828,1,0,0:0:0:0:
109,192,41907,1,0,0:0:0:50:kick.wav
256,192,41907,1,0,0:0:0:0:
36,192,42065,1,0,0:0:0:50:kick.wav
182,192,42065,1,0,0:0:0:0:
256,192,42144,1,0,0:0:0:50:kick.wav
402,192,42144,1,0,0:0:0:0:
36,192,42302,1,0,0:0:0:50:kick.wav
475,192,42302,1,0,0:0:0:0:
109,192,42407,1,0,0:0:0:50:kick.wav
402,192,42407,1,0,0:0:0:0:
182,192,42513,1,0,0:0:0:50:kick.wav
329,192,42513,1,0,0:0:0:0:
109,192,42618,1,0,0:0:0:50:kick.wav
402,192,42618,1,0,0:0:0:0:
36,192,42723,1,0,0:0:0:50:kick.wav
475,192,42723,1,0,0:0:0:0:
182,192,42828,1,0,0:0:0:50:kick.wav
329,192,42828,1,0,0:0:0:0:
256,192,42934,1,0,0:0:0:50:kick.wav
402,192,42934,1,0,0:0:0:50:cymbal.wav
475,192,42934,1,0,0:0:0:0:
182,192,43013,1,0,0:0:0:0:
36,192,43092,1,0,0:0:0:0:
109,192,43092,1,0,0:0:0:0:
256,192,43171,1,0,0:0:0:0:
182,192,43250,1,0,0:0:0:50:kick.wav
402,192,43250,1,0,0:0:0:0:
475,192,43250,1,0,0:0:0:0:
36,192,43328,1,0,0:0:0:0:
109,192,43407,1,0,0:0:0:0:
256,192,43407,1,0,0:0:0:0:
329,192,43486,1,0,0:0:0:0:
182,192,43565,1,0,0:0:0:50:kick.wav
402,192,43565,1,0,0:0:0:0:
475,192,43565,1,0,0:0:0:0:
36,192,43644,1,0,0:0:0:0:
256,192,43723,1,0,0:0:0:0:
475,192,43723,1,0,0:0:0:0:
182,192,43802,1,0,0:0:0:0:
36,192,43881,1,0,0:0:0:50:kick.wav
109,192,43881,1,0,0:0:0:0:
329,192,43881,1,0,0:0:0:0:
475,192,43960,1,0,0:0:0:0:
182,192,44039,1,0,0:0:0:0:
402,192,44039,1,0,0:0:0:0:
329,192,44118,1,0,0:0:0:0:
36,192,44197,1,0,0:0:0:50:kick.wav
109,192,44197,1,0,0:0:0:0:
475,192,44197,1,0,0:0:0:0:
256,192,44276,1,0,0:0:0:0:
182,192,44355,1,0,0:0:0:0:
402,192,44355,1,0,0:0:0:0:
329,192,44434,1,0,0:0:0:0:
109,192,44513,1,0,0:0:0:50:kick.wav
256,192,44513,1,0,0:0:0:0:
475,192,44513,1,0,0:0:0:0:
402,192,44592,1,0,0:0:0:0:
182,192,44671,1,0,0:0:0:0:
329,192,44671,1,0,0:0:0:0:
109,192,44750,1,0,0:0:0:0:
36,192,44828,1,0,0:0:0:50:kick.wav
256,192,44828,1,0,0:0:0:0:
475,192,44828,1,0,0:0:0:0:
329,192,44907,1,0,0:0:0:0:
402,192,44986,1,0,0:0:0:0:
475,192,44986,1,0,0:0:0:0:
256,192,45065,1,0,0:0:0:0:
36,192,45144,1,0,0:0:0:50:kick.wav
109,192,45144,1,0,0:0:0:0:
329,192,45144,1,0,0:0:0:0:
182,192,45223,1,0,0:0:0:0:
256,192,45302,1,0,0:0:0:0:
475,192,45302,1,0,0:0:0:0:
109,192,45381,1,0,0:0:0:0:
182,192,45460,1,0,0:0:0:50:kick.wav
329,192,45460,1,0,0:0:0:0:
475,192,45460,1,0,0:0:0:0:
36,192,45539,1,0,0:0:0:0:
109,192,45618,1,0,0:0:0:0:
256,192,45618,1,0,0:0:0:0:
329,192,45697,1,0,0:0:0:0:
182,192,45776,1,0,0:0:0:50:kick.wav
402,192,45776,1,0,0:0:0:0:
475,192,45776,1,0,0:0:0:0:
109,192,45855,1,0,0:0:0:0:
36,192,45934,1,0,0:0:0:0:
256,192,45934,1,0,0:0:0:0:
329,192,46013,1,0,0:0:0:0:
182,192,46092,1,0,0:0:0:50:kick.wav
402,192,46092,1,0,0:0:0:0:
475,192,46092,1,0,0:0:0:0:
36,192,46171,1,0,0:0:0:0:
256,192,46250,1,0,0:0:0:0:
402,192,46250,1,0,0:0:0:0:
182,192,46328,1,0,0:0:0:0:
36,192,46407,1,0,0:0:0:50:kick.wav
109,192,46407,1,0,0:0:0:0:
329,192,46407,1,0,0:0:0:0:
36,192,46565,1,0,0:0:0:50:kick.wav
182,192,46565,1,0,0:0:0:0:
402,192,46565,1,0,0:0:0:0:
475,192,46565,1,0,0:0:0:0:
36,192,46881,1,0,0:0:0:50:kick.wav
109,192,46881,1,0,0:0:0:0:
256,192,46881,1,0,0:0:0:0:
475,192,46881,1,0,0:0:0:0:
109,192,47197,1,0,0:0:0:50:kick.wav
182,192,47197,1,0,0:0:0:0:
329,192,47197,1,0,0:0:0:0:
475,192,47197,1,0,0:0:0:0:
182,192,47513,1,0,0:0:0:50:kick.wav
256,192,47513,1,0,0:0:0:0:
402,192,47513,1,0,0:0:0:0:
475,192,47513,1,0,0:0:0:0:
329,192,47671,1,0,0:0:0:0:
182,192,47750,1,0,0:0:0:0:
329,192,47828,1,0,0:0:0:0:
182,192,47907,1,0,0:0:0:0:
36,192,47986,1,0,0:0:0:50:kick.wav
256,192,47986,1,0,0:0:0:50:cymbal.wav
402,192,47986,1,0,0:0:0:0:
475,192,47986,1,0,0:0:0:0:
109,192,48065,1,0,0:0:0:0:
182,192,48144,1,0,0:0:0:0:
329,192,48144,1,0,0:0:0:0:
402,192,48223,1,0,0:0:0:0:
109,192,48302,1,0,0:0:0:50:kick.wav
256,192,48302,1,0,0:0:0:0:
475,192,48302,1,0,0:0:0:0:
329,192,48381,1,0,0:0:0:0:
182,192,48460,1,0,0:0:0:0:
402,192,48460,1,0,0:0:0:0:
36,192,48539,1,0,0:0:0:0:
256,192,48618,1,0,0:0:0:50:kick.wav
402,192,48618,1,0,0:0:0:0:
475,192,48618,1,0,0:0:0:0:
109,192,48697,1,0,0:0:0:0:
329,192,48776,1,0,0:0:0:0:
475,192,48776,1,0,0:0:0:0:
182,192,48855,1,0,0:0:0:0:
36,192,48934,1,0,0:0:0:50:kick.wav
402,192,48934,1,0,0:0:0:0:
475,192,48934,1,0,0:0:0:0:
256,192,49013,1,0,0:0:0:0:
36,192,49092,1,0,0:0:0:0:
109,192,49092,1,0,0:0:0:0:
329,192,49171,1,0,0:0:0:0:
109,192,49250,1,0,0:0:0:50:kick.wav
182,192,49250,1,0,0:0:0:0:
475,192,49250,1,0,0:0:0:0:
402,192,49328,1,0,0:0:0:0:
182,192,49407,1,0,0:0:0:0:
329,192,49407,1,0,0:0:0:0:
109,192,49486,1,0,0:0:0:0:
36,192,49565,1,0,0:0:0:50:kick.wav
256,192,49565,1,0,0:0:0:0:
402,192,49565,1,0,0:0:0:0:
182,192,49644,1,0,0:0:0:0:
109,192,49723,1,0,0:0:0:0:
329,192,49723,1,0,0:0:0:0:
256,192,49802,1,0,0:0:0:0:
36,192,49881,1,0,0:0:0:50:kick.wav
182,192,49881,1,0,0:0:0:0:
475,192,49881,1,0,0:0:0:0:
329,192,49960,1,0,0:0:0:0:
182,192,50039,1,0,0:0:0:0:
402,192,50039,1,0,0:0:0:0:
475,192,50118,1,0,0:0:0:0:
36,192,50197,1,0,0:0:0:50:kick.wav
109,192,50197,1,0,0:0:0:0:
256,192,50197,1,0,0:0:0:0:
402,192,50276,1,0,0:0:0:0:
109,192,50355,1,0,0:0:0:0:
329,192,50355,1,0,0:0:0:0:
256,192,50434,1,0,0:0:0:0:
36,192,50513,1,0,0:0:0:50:kick.wav
182,192,50513,1,0,0:0:0:0:
475,192,50513,1,0,0:0:0:0:
329,192,50592,1,0,0:0:0:0:
36,192,50671,1,0,0:0:0:0:
402,192,50671,1,0,0:0:0:0:
475,192,50750,1,0,0:0:0:0:
109,192,50828,1,0,0:0:0:50:kick.wav
182,192,50828,1,0,0:0:0:0:
329,192,50828,1,0,0:0:0:0:
475,192,50907,1,0,0:0:0:0:
36,192,50986,1,0,0:0:0:0:
256,192,50986,1,0,0:0:0:0:
329,192,51065,1,0,0:0:0:0:
182,192,51144,1,0,0:0:0:50:kick.wav
402,192,51144,1,0,0:0:0:0:
475,192,51144,1,0,0:0:0:0:
36,192,51223,1,0,0:0:0:0:
256,192,51302,1,0,0:0:0:0:
402,192,51302,1,0,0:0:0:0:
182,192,51381,1,0,0:0:0:0:
36,192,51460,1,0,0:0:0:50:kick.wav
109,192,51460,1,0,0:0:0:0:
329,192,51460,1,0,0:0:0:0:
475,192,51539,1,0,0:0:0:0:
109,192,51618,1,0,0:0:0:50:kick.wav
256,192,51618,1,0,0:0:0:0:
402,192,51618,1,0,0:0:0:0:
36,192,51697,1,0,0:0:0:0:
182,192,51776,1,0,0:0:0:0:
329,192,51776,1,0,0:0:0:0:
475,192,51855,1,0,0:0:0:0:
109,192,51934,1,0,0:0:0:50:kick.wav
256,192,51934,1,0,0:0:0:0:
402,192,51934,1,0,0:0:0:0:
329,192,52013,1,0,0:0:0:0:
36,192,52092,1,0,0:0:0:0:
256,192,52092,1,0,0:0:0:0:
402,192,52171,1,0,0:0:0:0:
36,192,52250,1,0,0:0:0:50:kick.wav
109,192,52250,1,0,0:0:0:0:
182,192,52250,1,0,0:0:0:0:
329,192,52328,1,0,0:0:0:0:
182,192,52407,1,0,0:0:0:0:
475,192,52407,1,0,0:0:0:0:
109,192,52486,1,0,0:0:0:0:
36,192,52565,1,0,0:0:0:50:kick.wav
329,192,52565,1,0,0:0:0:0:
475,192,52565,1,0,0:0:0:0:
182,192,52644,1,0,0:0:0:0:
329,192,52723,1,0,0:0:0:0:
475,192,52723,1,0,0:0:0:0:
256,192,52802,1,0,0:0:0:0:
109,192,52881,1,0,0:0:0:50:kick.wav
182,192,52881,1,0,0:0:0:0:
475,192,52881,1,0,0:0:0:0:
329,192,52960,1,0,0:0:0:0:
36,192,53039,1,0,0:0:0:0:
109,192,53078,1,0,0:0:0:0:
182,192,53118,1,0,0:0:0:0:
256,192,53157,1,0,0:0:0:0:
329,192,53197,1,0,0:0:0:0:
402,192,53236,1,0,0:0:0:0:
475,192,53276,1,0,0:0:0:0:
182,192,53315,1,0,0:0:0:0:
109,192,53355,1,0,0:0:0:0:
36,192,53394,1,0,0:0:0:0:
475,192,53434,1,0,0:0:0:0:
402,192,53473,1,0,0:0:0:0:
329,192,53513,1,0,0:0:0:0:
256,192,53552,1,0,0:0:0:0:
182,192,53592,1,0,0:0:0:0:
109,192,53631,1,0,0:0:0:0:
36,192,53671,1,0,0:0:0:0:
329,192,53710,1,0,0:0:0:0:
402,192,53750,1,0,0:0:0:0:
475,192,53789,1,0,0:0:0:0:
36,192,53828,1,0,0:0:0:0:
109,192,53868,1,0,0:0:0:0:
182,192,53907,1,0,0:0:0:0:
256,192,53947,1,0,0:0:0:0:
329,192,53986,1,0,0:0:0:0:
402,192,54026,1,0,0:0:0:0:
475,192,54065,1,0,0:0:0:0:
182,192,54105,1,0,0:0:0:0:
109,192,54144,1,0,0:0:0:0:
36,192,54184,1,0,0:0:0:0:
475,192,54223,1,0,0:0:0:0:
402,192,54263,1,0,0:0:0:0:
182,192,54302,1,0,0:0:0:50:kick.wav
256,192,54302,1,0,0:0:0:0:
329,192,54302,1,0,0:0:0:0:
475,192,54460,1,0,0:0:0:0:
402,192,54500,1,0,0:0:0:0:
329,192,54539,1,0,0:0:0:0:
256,192,54578,1,0,0:0:0:0:
36,192,54618,1,0,0:0:0:0:
182,192,54618,1,0,0:0:0:0:
329,192,54776,1,0,0:0:0:0:
475,192,54776,1,0,0:0:0:0:
36,192,54934,1,0,0:0:0:0:
109,192,54934,1,0,0:0:0:0:
182,192,55092,1,0,0:0:0:0:
329,192,55092,1,0,0:0:0:0:
475,192,55250,1,0,0:0:0:0:
256,192,55407,1,0,0:0:0:0:
36,192,55565,1,0,0:0:0:50:kick.wav
109,192,55565,1,0,0:0:0:50:cymbal.wav
402,192,55565,1,0,0:0:0:0:
475,192,55565,1,0,0:0:0:0:
256,192,55723,1,0,0:0:0:0:
182,192,55881,1,0,0:0:0:0:
329,192,55881,1,0,0:0:0:0:
36,192,56039,1,0,0:0:0:0:
256,192,56197,1,0,0:0:0:70:snare2.wav
402,192,56197,1,0,0:0:0:0:
475,192,56197,1,0,0:0:0:0:
109,192,56355,1,0,0:0:0:0:
329,192,56513,1,0,0:0:0:0:
475,192,56513,1,0,0:0:0:0:
36,192,56592,1,0,0:0:0:0:
182,192,56592,1,0,0:0:0:0:
329,192,56671,1,0,0:0:0:0:
475,192,56671,1,0,0:0:0:0:
36,192,56750,1,0,0:0:0:0:
182,192,56750,1,0,0:0:0:0:
256,192,56828,1,0,0:0:0:50:kick.wav
329,192,56828,1,0,0:0:0:0:
475,192,56828,1,0,0:0:0:0:
109,192,56986,1,0,0:0:0:0:
182,192,56986,1,0,0:0:0:0:
402,192,57144,1,0,0:0:0:0:
256,192,57302,1,0,0:0:0:0:
36,192,57460,1,0,0:0:0:70:snare2.wav
109,192,57460,1,0,0:0:0:0:
329,192,57460,1,0,0:0:0:0:
182,192,57618,1,0,0:0:0:0:
402,192,57618,1,0,0:0:0:0:
256,192,57776,1,0,0:0:0:0:
475,192,57776,1,0,0:0:0:0:
36,192,57934,1,0,0:0:0:0:
109,192,57934,1,0,0:0:0:0:
256,192,58092,1,0,0:0:0:50:kick.wav
402,192,58092,1,0,0:0:0:0:
475,192,58092,1,0,0:0:0:0:
109,192,58171,1,0,0:0:0:50:kick.wav
182,192,58171,1,0,0:0:0:0:
329,192,58250,1,0,0:0:0:50:kick.wav
402,192,58250,1,0,0:0:0:0:
475,192,58250,1,0,0:0:0:0:
182,192,58328,1,0,0:0:0:50:kick.wav
256,192,58328,1,0,0:0:0:0:
36,192,58407,1,0,0:0:0:50:kick.wav
109,192,58407,1,0,0:0:0:0:
329,192,58407,1,0,0:0:0:0:
109,192,58565,1,0,0:0:0:70:snare2.wav
182,192,58565,1,0,0:0:0:0:
402,192,58565,1,0,0:0:0:0:
182,192,58723,1,0,0:0:0:50:kick.wav
256,192,58723,1,0,0:0:0:0:
475,192,58723,1,0,0:0:0:0:
36,192,58802,1,0,0:0:0:50:kick.wav
109,192,58802,1,0,0:0:0:0:
256,192,58881,1,0,0:0:0:50:kick.wav
329,192,58881,1,0,0:0:0:0:
402,192,58881,1,0,0:0:0:0:
109,192,58960,1,0,0:0:0:50:kick.wav
182,192,58960,1,0,0:0:0:0:
329,192,59039,1,0,0:0:0:50:kick.wav
402,192,59039,1,0,0:0:0:0:
475,192,59039,1,0,0:0:0:0:
36,192,59197,1,0,0:0:0:70:snare2.wav
109,192,59197,1,0,0:0:0:0:
256,192,59197,1,0,0:0:0:0:
329,192,59355,1,0,0:0:0:70:snare2.wav
475,192,59355,1,0,0:0:0:0:
109,192,59434,1,0,0:0:0:50:kick.wav
182,192,59434,1,0,0:0:0:0:
402,192,59513,1,0,0:0:0:50:kick.wav
475,192,59513,1,0,0:0:0:0:
36,192,59592,1,0,0:0:0:70:snare2.wav
329,192,59592,1,0,0:0:0:0:
109,192,59671,1,0,0:0:0:50:kick.wav
256,192,59671,1,0,0:0:0:0:
402,192,59750,1,0,0:0:0:50:kick.wav
475,192,59750,1,0,0:0:0:0:
36,192,59828,1,0,0:0:0:70:snare2.wav
182,192,59828,1,0,0:0:0:0:
329,192,59907,1,0,0:0:0:50:kick.wav
402,192,59907,1,0,0:0:0:0:
256,192,59986,1,0,0:0:0:0:
182,192,60065,1,0,0:0:0:0:
109,192,60144,1,0,0:0:0:70:snare2.wav
402,192,60144,1,0,0:0:0:0:
475,192,60144,1,0,0:0:0:0:
36,192,60223,1,0,0:0:0:0:
182,192,60302,1,0,0:0:0:70:snare2.wav
329,192,60381,1,0,0:0:0:0:
36,192,60460,1,0,0:0:0:70:snare2.wav
109,192,60460,1,0,0:0:0:0:
475,192,60460,1,0,0:0:0:0:
182,192,60539,1,0,0:0:0:0:
256,192,60618,1,0,0:0:0:50:kick.wav
329,192,60618,1,0,0:0:0:50:cymbal.wav
402,192,60618,1,0,0:0:0:0:
475,192,60618,1,0,0:0:0:0:
109,192,60776,1,0,0:0:0:0:
256,192,60934,1,0,0:0:0:0:
402,192,60934,1,0,0:0:0:0:
182,192,61092,1,0,0:0:0:0:
36,192,61250,1,0,0:0:0:70:snare2.wav
109,192,61250,1,0,0:0:0:0:
329,192,61250,1,0,0:0:0:0:
256,192,61407,1,0,0:0:0:0:
36,192,61565,1,0,0:0:0:0:
182,192,61565,1,0,0:0:0:0:
329,192,61644,1,0,0:0:0:0:
475,192,61644,1,0,0:0:0:0:
36,192,61723,1,0,0:0:0:0:
182,192,61723,1,0,0:0:0:0:
329,192,61802,1,0,0:0:0:0:
475,192,61802,1,0,0:0:0:0:
36,192,61881,1,0,0:0:0:50:kick.wav
182,192,61881,1,0,0:0:0:0:
256,192,61881,1,0,0:0:0:0:
329,192,62039,1,0,0:0:0:0:
402,192,62039,1,0,0:0:0:0:
109,192,62197,1,0,0:0:0:0:
475,192,62197,1,0,0:0:0:0:
182,192,62355,1,0,0:0:0:0:
256,192,62513,1,0,0:0:0:70:snare2.wav
402,192,62513,1,0,0:0:0:0:
475,192,62513,1,0,0:0:0:0:
182,192,62671,1,0,0:0:0:0:
329,192,62671,1,0,0:0:0:0:
109,192,62828,1,0,0:0:0:0:
256,192,62828,1,0,0:0:0:0:
402,192,62986,1,0,0:0:0:0:
475,192,62986,1,0,0:0:0:0:
36,192,63144,1,0,0:0:0:50:kick.wav
182,192,63144,1,0,0:0:0:0:
329,192,63144,1,0,0:0:0:0:
402,192,63223,1,0,0:0:0:50:kick.wav
475,192,63223,1,0,0:0:0:0:
36,192,63302,1,0,0:0:0:50:kick.wav
109,192,63302,1,0,0:0:0:0:
256,192,63302,1,0,0:0:0:0:
329,192,63381,1,0,0:0:0:50:kick.wav
402,192,63381,1,0,0:0:0:0:
109,192,63460,1,0,0:0:0:50:kick.wav
182,192,63460,1,0,0:0:0:0:
475,192,63460,1,0,0:0:0:0:
36,192,63618,1,0,0:0:0:70:snare2.wav
256,192,63618,1,0,0:0:0:0:
475,192,63618,1,0,0:0:0:0:
329,192,63776,1,0,0:0:0:50:kick.wav
475,192,63776,1,0,0:0:0:0:
36,192,63855,1,0,0:0:0:50:kick.wav
109,192,63855,1,0,0:0:0:0:
256,192,63934,1,0,0:0:0:50:kick.wav
402,192,63934,1,0,0:0:0:0:
36,192,64013,1,0,0:0:0:50:kick.wav
182,192,64013,1,0,0:0:0:0:
329,192,64092,1,0,0:0:0:50:kick.wav
475,192,64092,1,0,0:0:0:0:
109,192,64171,1,0,0:0:0:50:kick.wav
256,192,64171,1,0,0:0:0:0:
402,192,64250,1,0,0:0:0:50:kick.wav
475,192,64250,1,0,0:0:0:0:
36,192,64328,1,0,0:0:0:50:kick.wav
182,192,64328,1,0,0:0:0:0:
329,192,64407,1,0,0:0:0:50:kick.wav
402,192,64407,1,0,0:0:0:0:
182,192,64565,1,0,0:0:0:0:
329,192,64644,1,0,0:0:0:0:
182,192,64723,1,0,0:0:0:0:
182,192,64881,1,0,0:0:0:0:
182,192,65039,1,0,0:0:0:0:
36,192,65197,1,0,0:0:0:0:
109,192,65197,1,0,0:0:0:0:
109,192,65355,1,0,0:0:0:0:
182,192,65355,1,0,0:0:0:0:
182,192,65513,1,0,0:0:0:0:
256,192,65513,1,0,0:0:0:0:
36,192,65671,1,0,0:0:0:50:kick.wav
256,192,65671,1,0,0:0:0:50:cymbal.wav
329,192,65671,1,0,0:0:0:0:
475,192,65671,1,0,0:0:0:0:
109,192,65750,1,0,0:0:0:0:
182,192,65828,1,0,0:0:0:0:
402,192,65828,1,0,0:0:0:0:
329,192,65907,1,0,0:0:0:0:
36,192,65986,1,0,0:0:0:50:kick.wav
109,192,65986,1,0,0:0:0:0:
256,192,65986,1,0,0:0:0:0:
402,192,66065,1,0,0:0:0:0:
182,192,66144,1,0,0:0:0:0:
329,192,66144,1,0,0:0:0:0:
36,192,66223,1,0,0:0:0:0:
256,192,66302,1,0,0:0:0:50:kick.wav
402,192,66302,1,0,0:0:0:0:
475,192,66302,1,0,0:0:0:0:
109,192,66381,1,0,0:0:0:0:
182,192,66460,1,0,0:0:0:0:
329,192,66460,1,0,0:0:0:0:
402,192,66539,1,0,0:0:0:0:
36,192,66618,1,0,0:0:0:50:kick.wav
109,192,66618,1,0,0:0:0:0:
475,192,66618,1,0,0:0:0:0:
182,192,66697,1,0,0:0:0:0:
329,192,66697,1,0,0:0:0:0:
402,192,66776,1,0,0:0:0:0:
475,192,66776,1,0,0:0:0:0:
109,192,66855,1,0,0:0:0:0:
256,192,66855,1,0,0:0:0:0:
36,192,66934,1,0,0:0:0:50:kick.wav
329,192,66934,1,0,0:0:0:0:
402,192,66934,1,0,0:0:0:0:
182,192,67013,1,0,0:0:0:0:
256,192,67092,1,0,0:0:0:0:
329,192,67092,1,0,0:0:0:0:
109,192,67171,1,0,0:0:0:0:
182,192,67250,1,0,0:0:0:50:kick.wav
256,192,67250,1,0,0:0:0:0:
475,192,67250,1,0,0:0:0:0:
402,192,67328,1,0,0:0:0:0:
109,192,67407,1,0,0:0:0:0:
329,192,67407,1,0,0:0:0:0:
256,192,67486,1,0,0:0:0:0:
36,192,67565,1,0,0:0:0:50:kick.wav
182,192,67565,1,0,0:0:0:0:
402,192,67565,1,0,0:0:0:0:
475,192,67644,1,0,0:0:0:0:
109,192,67723,1,0,0:0:0:0:
329,192,67723,1,0,0:0:0:0:
256,192,67802,1,0,0:0:0:0:
182,192,67881,1,0,0:0:0:50:kick.wav
402,192,67881,1,0,0:0:0:0:
475,192,67881,1,0,0:0:0:0:
36,192,67960,1,0,0:0:0:0:
256,192,68039,1,0,0:0:0:0:
402,192,68039,1,0,0:0:0:0:
182,192,68118,1,0,0:0:0:0:
36,192,68197,1,0,0:0:0:50:kick.wav
109,192,68197,1,0,0:0:0:0:
329,192,68197,1,0,0:0:0:0:
475,192,68276,1,0,0:0:0:0:
182,192,68355,1,0,0:0:0:0:
402,192,68355,1,0,0:0:0:0:
329,192,68434,1,0,0:0:0:0:
36,192,68513,1,0,0:0:0:50:kick.wav
256,192,68513,1,0,0:0:0:0:
475,192,68513,1,0,0:0:0:0:
109,192,68592,1,0,0:0:0:0:
182,192,68671,1,0,0:0:0:0:
329,192,68671,1,0,0:0:0:0:
402,192,68750,1,0,0:0:0:0:
475,192,68750,1,0,0:0:0:0:
36,192,68828,1,0,0:0:0:50:kick.wav
109,192,68828,1,0,0:0:0:0:
256,192,68828,1,0,0:0:0:0:
329,192,68907,1,0,0:0:0:0:
475,192,68907,1,0,0:0:0:0:
182,192,68986,1,0,0:0:0:0:
402,192,68986,1,0,0:0:0:0:
109,192,69065,1,0,0:0:0:0:
329,192,69065,1,0,0:0:0:0:
36,192,69144,1,0,0:0:0:50:kick.wav
256,192,69144,1,0,0:0:0:0:
182,192,69223,1,0,0:0:0:0:
402,192,69223,1,0,0:0:0:0:
109,192,69302,1,0,0:0:0:0:
329,192,69302,1,0,0:0:0:0:
256,192,69381,1,0,0:0:0:0:
475,192,69381,1,0,0:0:0:0:
182,192,69460,1,0,0:0:0:50:kick.wav
329,192,69460,1,0,0:0:0:0:
402,192,69539,1,0,0:0:0:0:
475,192,69539,1,0,0:0:0:0:
109,192,69618,1,0,0:0:0:0:
256,192,69618,1,0,0:0:0:0:
329,192,69697,1,0,0:0:0:0:
475,192,69697,1,0,0:0:0:0:
36,192,69776,1,0,0:0:0:50:kick.wav
109,192,69776,1,0,0:0:0:0:
182,192,69776,1,0,0:0:0:0:
256,192,69855,1,0,0:0:0:50:kick.wav
402,192,69855,1,0,0:0:0:0:
475,192,69855,1,0,0:0:0:0:
36,192,69934,1,0,0:0:0:50:kick.wav
109,192,69934,1,0,0:0:0:0:
329,192,69934,1,0,0:0:0:0:
182,192,70013,1,0,0:0:0:50:kick.wav
402,192,70013,1,0,0:0:0:0:
475,192,70013,1,0,0:0:0:0:
36,192,70092,1,0,0:0:0:50:kick.wav
109,192,70092,1,0,0:0:0:0:
256,192,70092,1,0,0:0:0:0:
109,192,70250,1,0,0:0:0:50:kick.wav
182,192,70250,1,0,0:0:0:0:
329,192,70250,1,0,0:0:0:0:
182,192,70407,1,0,0:0:0:50:kick.wav
256,192,70407,1,0,0:0:0:0:
402,192,70407,1,0,0:0:0:0:
256,192,70565,1,0,0:0:0:50:kick.wav
329,192,70565,1,0,0:0:0:0:
475,192,70565,1,0,0:0:0:0:
36,192,70723,1,0,0:0:0:50:kick.wav
182,192,70723,1,0,0:0:0:50:cymbal.wav
402,192,70723,1,0,0:0:0:0:
475,192,70723,1,0,0:0:0:0:
329,192,70802,1,0,0:0:0:0:
109,192,70881,1,0,0:0:0:0:
256,192,70881,1,0,0:0:0:0:
402,192,70960,1,0,0:0:0:0:
36,192,71039,1,0,0:0:0:50:kick.wav
182,192,71039,1,0,0:0:0:0:
329,192,71039,1,0,0:0:0:0:
475,192,71118,1,0,0:0:0:0:
256,192,71197,1,0,0:0:0:0:
402,192,71197,1,0,0:0:0:0:
182,192,71276,1,0,0:0:0:0:
36,192,71355,1,0,0:0:0:50:kick.wav
109,192,71355,1,0,0:0:0:0:
329,192,71355,1,0,0:0:0:0:
475,192,71434,1,0,0:0:0:0:
182,192,71513,1,0,0:0:0:0:
402,192,71513,1,0,0:0:0:0:
329,192,71592,1,0,0:0:0:0:
36,192,71671,1,0,0:0:0:50:kick.wav
182,192,71671,1,0,0:0:0:0:
256,192,71671,1,0,0:0:0:0:
329,192,71750,1,0,0:0:0:0:
475,192,71750,1,0,0:0:0:0:
36,192,71828,1,0,0:0:0:0:
182,192,71828,1,0,0:0:0:0:
329,192,71907,1,0,0:0:0:0:
475,192,71907,1,0,0:0:0:0:
36,192,71986,1,0,0:0:0:50:kick.wav
182,192,71986,1,0,0:0:0:0:
256,192,71986,1,0,0:0:0:0:
402,192,72065,1,0,0:0:0:0:
109,192,72144,1,0,0:0:0:0:
329,192,72144,1,0,0:0:0:0:
256,192,72223,1,0,0:0:0:0:
36,192,72302,1,0,0:0:0:50:kick.wav
182,192,72302,1,0,0:0:0:0:
402,192,72302,1,0,0:0:0:0:
475,192,72381,1,0,0:0:0:0:
109,192,72460,1,0,0:0:0:0:
329,192,72460,1,0,0:0:0:0:
402,192,72539,1,0,0:0:0:0:
36,192,72618,1,0,0:0:0:50:kick.wav
256,192,72618,1,0,0:0:0:0:
475,192,72618,1,0,0:0:0:0:
182,192,72697,1,0,0:0:0:0:
109,192,72776,1,0,0:0:0:0:
329,192,72776,1,0,0:0:0:0:
402,192,72855,1,0,0:0:0:0:
36,192,72934,1,0,0:0:0:50:kick.wav
182,192,72934,1,0,0:0:0:0:
475,192,72934,1,0,0:0:0:0:
256,192,73013,1,0,0:0:0:0:
329,192,73092,1,0,0:0:0:0:
402,192,73092,1,0,0:0:0:0:
182,192,73171,1,0,0:0:0:0:
256,192,73250,1,0,0:0:0:50:kick.wav
402,192,73250,1,0,0:0:0:0:
475,192,73250,1,0,0:0:0:0:
36,192,73328,1,0,0:0:0:0:
182,192,73328,1,0,0:0:0:0:
329,192,73407,1,0,0:0:0:0:
475,192,73407,1,0,0:0:0:0:
109,192,73486,1,0,0:0:0:0:
256,192,73486,1,0,0:0:0:0:
36,192,73565,1,0,0:0:0:0:
402,192,73565,1,0,0:0:0:0:
182,192,73644,1,0,0:0:0:0:
329,192,73723,1,0,0:0:0:0:
182,192,73802,1,0,0:0:0:0:
36,192,73881,1,0,0:0:0:0:
475,192,73881,1,0,0:0:0:0:
182,192,73960,1,0,0:0:0:0:
402,192,73960,1,0,0:0:0:0:
109,192,74039,1,0,0:0:0:0:
329,192,74039,1,0,0:0:0:0:
36,192,74118,1,0,0:0:0:0:
475,192,74118,1,0,0:0:0:0:
182,192,74197,1,0,0:0:0:0:
329,192,74197,1,0,0:0:0:0:
36,192,74276,1,0,0:0:0:0:
402,192,74276,1,0,0:0:0:0:
109,192,74355,1,0,0:0:0:0:
475,192,74355,1,0,0:0:0:0:
182,192,74434,1,0,0:0:0:0:
329,192,74434,1,0,0:0:0:0:
36,192,74513,1,0,0:0:0:50:kick.wav
256,192,74513,1,0,0:0:0:0:
402,192,74513,1,0,0:0:0:0:
475,192,74513,1,0,0:0:0:0:
182,192,74592,1,0,0:0:0:0:
329,192,74671,1,0,0:0:0:0:
475,192,74750,1,0,0:0:0:0:
402,192,74828,1,0,0:0:0:0:
329,192,74907,1,0,0:0:0:0:
109,192,74986,1,0,0:0:0:0:
256,192,74986,1,0,0:0:0:0:
402,192,75065,1,0,0:0:0:0:
475,192,75065,1,0,0:0:0:0:
182,192,75144,1,0,0:0:0:0:
36,192,75223,1,0,0:0:0:0:
256,192,75302,1,0,0:0:0:0:
475,192,75302,1,0,0:0:0:0:
182,192,75381,1,0,0:0:0:0:
36,192,75460,1,0,0:0:0:0:
109,192,75460,1,0,0:0:0:0:
256,192,75539,1,0,0:0:0:0:
402,192,75618,1,0,0:0:0:0:
475,192,75618,1,0,0:0:0:0:
329,192,75697,1,0,0:0:0:0:
36,192,75776,1,0,0:0:0:50:kick.wav
109,192,75776,1,0,0:0:0:50:cymbal.wav
182,192,75776,1,0,0:0:0:0:
256,192,75776,1,0,0:0:0:0:
109,192,76250,1,0,0:0:0:0:
329,192,76250,1,0,0:0:0:0:
182,192,76328,1,0,0:0:0:0:
402,192,76328,1,0,0:0:0:0:
256,192,76407,1,0,0:0:0:0:
475,192,76407,1,0,0:0:0:0:
36,192,76565,1,0,0:0:0:0:
182,192,76565,1,0,0:0:0:0:
329,192,76723,1,0,0:0:0:0:
475,192,76723,1,0,0:0:0:0:
36,192,76881,1,0,0:0:0:50:kick.wav
109,192,76881,1,0,0:0:0:50:cymbal.wav
182,192,76881,1,0,0:0:0:0:
256,192,76881,1,0,0:0:0:0:
402,192,77039,1,0,0:0:0:0:
475,192,77039,1,0,0:0:0:0:
182,192,77118,1,0,0:0:0:0:
36,192,77197,1,0,0:0:0:0:
329,192,77197,1,0,0:0:0:0:
256,192,77276,1,0,0:0:0:0:
109,192,77355,1,0,0:0:0:0:
182,192,77355,1,0,0:0:0:0:
329,192,77434,1,0,0:0:0:0:
36,192,77513,1,0,0:0:0:50:kick.wav
182,192,77513,1,0,0:0:0:50:cymbal.wav
256,192,77513,1,0,0:0:0:0:
475,192,77513,1,0,0:0:0:0:
109,192,77671,1,0,0:0:0:0:
402,192,77671,1,0,0:0:0:0:
182,192,77750,1,0,0:0:0:0:
256,192,77828,1,0,0:0:0:0:
329,192,77907,1,0,0:0:0:0:
36,192,77986,1,0,0:0:0:50:kick.wav
182,192,77986,1,0,0:0:0:50:cymbal.wav
402,192,77986,1,0,0:0:0:0:
475,192,77986,1,0,0:0:0:0:
256,192,78065,1,0,0:0:0:0:
109,192,78144,1,0,0:0:0:0:
329,192,78223,1,0,0:0:0:0:
36,192,78302,1,0,0:0:0:50:kick.wav
109,192,78302,1,0,0:0:0:50:cymbal.wav
182,192,78302,1,0,0:0:0:0:
475,192,78302,1,0,0:0:0:0:
402,192,78618,1,0,0:0:0:0:
475,192,78618,1,0,0:0:0:0:
329,192,78697,1,0,0:0:0:0:
256,192,78776,1,0,0:0:0:0:
182,192,78855,1,0,0:0:0:0:
36,192,78934,1,0,0:0:0:50:kick.wav
109,192,78934,1,0,0:0:0:50:cymbal.wav
329,192,78934,1,0,0:0:0:0:
475,192,78934,1,0,0:0:0:0:
256,192,79092,1,0,0:0:0:0:
402,192,79092,1,0,0:0:0:0:
182,192,79250,1,0,0:0:0:70:snare2.wav
329,192,79250,1,0,0:0:0:0:
109,192,79328,1,0,0:0:0:0:
36,192,79407,1,0,0:0:0:70:snare2.wav
182,192,79486,1,0,0:0:0:0:
36,192,79565,1,0,0:0:0:50:kick.wav
329,192,79565,1,0,0:0:0:50:cymbal.wav
402,192,79565,1,0,0:0:0:0:
475,192,79565,1,0,0:0:0:0:
256,192,79644,1,0,0:0:0:0:
109,192,79723,1,0,0:0:0:0:
182,192,79723,1,0,0:0:0:0:
329,192,79802,1,0,0:0:0:0:
36,192,79881,1,0,0:0:0:0:
475,192,79881,1,0,0:0:0:0:
182,192,79960,1,0,0:0:0:0:
329,192,80039,1,0,0:0:0:0:
475,192,80039,1,0,0:0:0:0:
256,192,80118,1,0,0:0:0:0:
182,192,80197,1,0,0:0:0:0:
329,192,80276,1,0,0:0:0:0:
475,192,80355,1,0,0:0:0:0:
256,192,80434,1,0,0:0:0:0:
36,192,80513,1,0,0:0:0:0:
182,192,80592,1,0,0:0:0:0:
329,192,80671,1,0,0:0:0:0:
475,192,80750,1,0,0:0:0:0:
109,192,80828,1,0,0:0:0:0:
256,192,80828,1,0,0:0:0:0:
402,192,80986,1,0,0:0:0:0:
475,192,80986,1,0,0:0:0:0:
182,192,81065,1,0,0:0:0:0:
329,192,81065,1,0,0:0:0:0:
36,192,81144,1,0,0:0:0:0:
109,192,81144,1,0,0:0:0:0:
256,192,81302,1,0,0:0:0:0:
402,192,81302,1,0,0:0:0:0:
36,192,81460,1,0,0:0:0:0:
109,192,81460,1,0,0:0:0:0:
329,192,81539,1,0,0:0:0:0:
475,192,81539,1,0,0:0:0:0:
109,192,81618,1,0,0:0:0:0:
182,192,81618,1,0,0:0:0:0:
256,192,81776,1,0,0:0:0:0:
475,192,81776,1,0,0:0:0:0:
36,192,81934,1,0,0:0:0:0:
182,192,81934,1,0,0:0:0:0:
329,192,82092,1,0,0:0:0:0:
475,192,82092,1,0,0:0:0:0:
109,192,82250,1,0,0:0:0:0:
256,192,82250,1,0,0:0:0:0:
329,192,82407,1,0,0:0:0:0:
475,192,82407,1,0,0:0:0:0:
36,192,82565,1,0,0:0:0:0:
182,192,82565,1,0,0:0:0:0:
329,192,82723,1,0,0:0:0:0:
475,192,82723,1,0,0:0:0:0:
36,192,82802,1,0,0:0:0:0:
256,192,82802,1,0,0:0:0:0:
182,192,82881,1,0,0:0:0:0:
402,192,82881,1,0,0:0:0:0:
109,192,82960,1,0,0:0:0:0:
329,192,82960,1,0,0:0:0:0:
256,192,83039,1,0,0:0:0:0:
475,192,83039,1,0,0:0:0:0:
36,192,83197,1,0,0:0:0:0:
256,192,83197,1,0,0:0:0:0:
182,192,83355,1,0,0:0:0:0:
475,192,83355,1,0,0:0:0:0:
182,192,83513,1,0,0:0:0:0:
329,192,83513,1,0,0:0:0:0:
109,192,83671,1,0,0:0:0:0:
402,192,83671,1,0,0:0:0:0:
256,192,83828,1,0,0:0:0:0:
402,192,83828,1,0,0:0:0:0:
36,192,83986,1,0,0:0:0:0:
182,192,83986,1,0,0:0:0:0:
182,192,84144,1,0,0:0:0:0:
329,192,84144,1,0,0:0:0:0:
329,192,84302,1,0,0:0:0:0:
475,192,84302,1,0,0:0:0:0:
36,192,84381,1,0,0:0:0:0:
256,192,84381,1,0,0:0:0:0:
182,192,84460,1,0,0:0:0:0:
402,192,84460,1,0,0:0:0:0:
109,192,84539,1,0,0:0:0:0:
329,192,84539,1,0,0:0:0:0:
36,192,84618,1,0,0:0:0:50:kick.wav
256,192,84618,1,0,0:0:0:50:cymbal.wav
402,192,84618,1,0,0:0:0:0:
475,192,84618,1,0,0:0:0:0:
36,192,84776,1,0,0:0:0:0:
182,192,84776,1,0,0:0:0:0:
329,192,84934,1,0,0:0:0:70:snare2.wav
475,192,84934,1,0,0:0:0:0:
36,192,85092,1,0,0:0:0:50:kick.wav
256,192,85092,1,0,0:0:0:50:cymbal.wav
402,192,85092,1,0,0:0:0:0:
475,192,85092,1,0,0:0:0:0:
36,192,85407,1,0,0:0:0:70:snare2.wav
182,192,85407,1,0,0:0:0:0:
475,192,85407,1,0,0:0:0:0:
182,192,85565,1,0,0:0:0:0:
329,192,85565,1,0,0:0:0:0:
109,192,85723,1,0,0:0:0:0:
256,192,85723,1,0,0:0:0:0:
36,192,85881,1,0,0:0:0:50:kick.wav
256,192,85881,1,0,0:0:0:50:cymbal.wav
402,192,85881,1,0,0:0:0:0:
475,192,85881,1,0,0:0:0:0:
109,192,86355,1,0,0:0:0:0:
402,192,86355,1,0,0:0:0:0:
182,192,86434,1,0,0:0:0:0:
329,192,86434,1,0,0:0:0:0:
36,192,86513,1,0,0:0:0:0:
256,192,86513,1,0,0:0:0:0:
329,192,86671,1,0,0:0:0:0:
475,192,86671,1,0,0:0:0:0:
36,192,86828,1,0,0:0:0:0:
182,192,86828,1,0,0:0:0:0:
256,192,86986,1,0,0:0:0:50:kick.wav
329,192,86986,1,0,0:0:0:50:cymbal.wav
402,192,86986,1,0,0:0:0:0:
475,192,86986,1,0,0:0:0:0:
36,192,87144,1,0,0:0:0:0:
109,192,87144,1,0,0:0:0:0:
256,192,87223,1,0,0:0:0:0:
402,192,87302,1,0,0:0:0:0:
475,192,87302,1,0,0:0:0:0:
329,192,87381,1,0,0:0:0:0:
109,192,87460,1,0,0:0:0:0:
256,192,87460,1,0,0:0:0:0:
329,192,87539,1,0,0:0:0:0:
36,192,87618,1,0,0:0:0:50:kick.wav
182,192,87618,1,0,0:0:0:50:cymbal.wav
402,192,87618,1,0,0:0:0:0:
475,192,87618,1,0,0:0:0:0:
109,192,87776,1,0,0:0:0:0:
329,192,87776,1,0,0:0:0:0:
256,192,87855,1,0,0:0:0:0:
182,192,87934,1,0,0:0:0:0:
109,192,88013,1,0,0:0:0:0:
36,192,88092,1,0,0:0:0:50:kick.wav
329,192,88092,1,0,0:0:0:50:cymbal.wav
402,192,88092,1,0,0:0:0:0:
475,192,88092,1,0,0:0:0:0:
182,192,88171,1,0,0:0:0:0:
256,192,88250,1,0,0:0:0:0:
329,192,88328,1,0,0:0:0:0:
36,192,88407,1,0,0:0:0:50:kick.wav
109,192,88407,1,0,0:0:0:50:cymbal.wav
182,192,88407,1,0,0:0:0:0:
475,192,88407,1,0,0:0:0:0:
36,192,88723,1,0,0:0:0:0:
182,192,88723,1,0,0:0:0:0:
329,192,88802,1,0,0:0:0:0:
256,192,88881,1,0,0:0:0:0:
182,192,88960,1,0,0:0:0:0:
36,192,89039,1,0,0:0:0:50:kick.wav
329,192,89039,1,0,0:0:0:50:cymbal.wav
402,192,89039,1,0,0:0:0:0:
475,192,89039,1,0,0:0:0:0:
109,192,89197,1,0,0:0:0:0:
256,192,89197,1,0,0:0:0:0:
182,192,89355,1,0,0:0:0:70:snare2.wav
329,192,89355,1,0,0:0:0:0:
402,192,89434,1,0,0:0:0:0:
475,192,89513,1,0,0:0:0:70:snare2.wav
329,192,89592,1,0,0:0:0:0:
36,192,89671,1,0,0:0:0:50:kick.wav
109,192,89671,1,0,0:0:0:50:cymbal.wav
182,192,89671,1,0,0:0:0:0:
475,192,89671,1,0,0:0:0:0:
256,192,89750,1,0,0:0:0:0:
329,192,89828,1,0,0:0:0:0:
475,192,89828,1,0,0:0:0:0:
182,192,89907,1,0,0:0:0:0:
36,192,89986,1,0,0:0:0:0:
256,192,89986,1,0,0:0:0:0:
329,192,90065,1,0,0:0:0:0:
182,192,90144,1,0,0:0:0:0:
475,192,90144,1,0,0:0:0:0:
36,192,90223,1,0,0:0:0:0:
256,192,90302,1,0,0:0:0:0:
402,192,90302,1,0,0:0:0:0:
36,192,90460,1,0,0:0:0:0:
182,192,90460,1,0,0:0:0:0:
329,192,90618,1,0,0:0:0:0:
402,192,90618,1,0,0:0:0:0:
182,192,90776,1,0,0:0:0:0:
256,192,90776,1,0,0:0:0:0:
36,192,90934,1,0,0:0:0:50:kick.wav
109,192,90934,1,0,0:0:0:0:
402,192,90934,1,0,0:0:0:0:
475,192,90934,1,0,0:0:0:0:
256,192,91092,1,0,0:0:0:0:
329,192,91092,1,0,0:0:0:0:
109,192,91250,1,0,0:0:0:50:kick.wav
182,192,91250,1,0,0:0:0:0:
475,192,91250,1,0,0:0:0:0:
36,192,91407,1,0,0:0:0:0:
256,192,91407,1,0,0:0:0:0:
329,192,91565,1,0,0:0:0:50:kick.wav
402,192,91565,1,0,0:0:0:0:
475,192,91565,1,0,0:0:0:0:
36,192,91723,1,0,0:0:0:0:
182,192,91723,1,0,0:0:0:0:
256,192,91881,1,0,0:0:0:50:kick.wav
402,192,91881,1,0,0:0:0:0:
475,192,91881,1,0,0:0:0:0:
36,192,92039,1,0,0:0:0:0:
109,192,92039,1,0,0:0:0:0:
182,192,92197,1,0,0:0:0:50:kick.wav
329,192,92197,1,0,0:0:0:0:
402,192,92197,1,0,0:0:0:0:
109,192,92355,1,0,0:0:0:0:
256,192,92355,1,0,0:0:0:0:
36,192,92513,1,0,0:0:0:50:kick.wav
182,192,92513,1,0,0:0:0:0:
475,192,92513,1,0,0:0:0:0:
329,192,92671,1,0,0:0:0:0:
402,192,92671,1,0,0:0:0:0:
109,192,92828,1,0,0:0:0:50:kick.wav
256,192,92828,1,0,0:0:0:0:
475,192,92828,1,0,0:0:0:0:
36,192,92986,1,0,0:0:0:0:
182,192,92986,1,0,0:0:0:0:
329,192,93144,1,0,0:0:0:50:kick.wav
402,192,93144,1,0,0:0:0:0:
475,192,93144,1,0,0:0:0:0:
182,192,93302,1,0,0:0:0:0:
256,192,93302,1,0,0:0:0:0:
36,192,93460,1,0,0:0:0:50:kick.wav
109,192,93460,1,0,0:0:0:0:
329,192,93460,1,0,0:0:0:0:
475,192,93539,1,0,0:0:0:0:
182,192,93618,1,0,0:0:0:0:
402,192,93618,1,0,0:0:0:0:
329,192,93697,1,0,0:0:0:0:
36,192,93776,1,0,0:0:0:50:kick.wav
109,192,93776,1,0,0:0:0:0:
475,192,93776,1,0,0:0:0:0:
256,192,93855,1,0,0:0:0:0:
402,192,93934,1,0,0:0:0:0:
475,192,93934,1,0,0:0:0:0:
329,192,94013,1,0,0:0:0:0:
36,192,94092,1,0,0:0:0:50:kick.wav
109,192,94092,1,0,0:0:0:0:
256,192,94092,1,0,0:0:0:0:
402,192,94171,1,0,0:0:0:0:
182,192,94250,1,0,0:0:0:0:
329,192,94250,1,0,0:0:0:0:
109,192,94328,1,0,0:0:0:0:
36,192,94407,1,0,0:0:0:50:kick.wav
256,192,94407,1,0,0:0:0:0:
475,192,94407,1,0,0:0:0:0:
329,192,94486,1,0,0:0:0:0:
182,192,94565,1,0,0:0:0:0:
402,192,94565,1,0,0:0:0:0:
256,192,94644,1,0,0:0:0:0:
329,192,94723,1,0,0:0:0:0:
475,192,94723,1,0,0:0:0:0:
36,192,94802,1,0,0:0:0:0:
182,192,94802,1,0,0:0:0:0:
329,192,94881,1,0,0:0:0:0:
475,192,94881,1,0,0:0:0:0:
36,192,94960,1,0,0:0:0:0:
182,192,94960,1,0,0:0:0:0:
329,192,95039,1,0,0:0:0:0:
475,192,95039,1,0,0:0:0:0:
36,192,95118,1,0,0:0:0:0:
182,192,95118,1,0,0:0:0:0:
329,192,95197,1,0,0:0:0:0:
475,192,95197,1,0,0:0:0:0:
36,192,95276,1,0,0:0:0:0:
182,192,95276,1,0,0:0:0:0:
329,192,95355,1,0,0:0:0:0:
475,192,95355,1,0,0:0:0:0:
109,192,95513,1,0,0:0:0:0:
256,192,95513,1,0,0:0:0:0:
402,192,95592,1,0,0:0:0:0:
475,192,95592,1,0,0:0:0:0:
36,192,95671,1,0,0:0:0:0:
182,192,95671,1,0,0:0:0:0:
256,192,95750,1,0,0:0:0:0:
329,192,95828,1,0,0:0:0:0:
182,192,95907,1,0,0:0:0:0:
36,192,95986,1,0,0:0:0:50:kick.wav
402,192,95986,1,0,0:0:0:0:
475,192,95986,1,0,0:0:0:0:
109,192,96065,1,0,0:0:0:0:
329,192,96065,1,0,0:0:0:0:
182,192,96144,1,0,0:0:0:0:
256,192,96144,1,0,0:0:0:0:
109,192,96223,1,0,0:0:0:0:
36,192,96302,1,0,0:0:0:50:kick.wav
329,192,96302,1,0,0:0:0:0:
475,192,96302,1,0,0:0:0:0:
256,192,96381,1,0,0:0:0:0:
109,192,96460,1,0,0:0:0:0:
182,192,96460,1,0,0:0:0:0:
329,192,96539,1,0,0:0:0:0:
475,192,96539,1,0,0:0:0:0:
36,192,96618,1,0,0:0:0:50:kick.wav
182,192,96618,1,0,0:0:0:0:
402,192,96618,1,0,0:0:0:0:
256,192,96697,1,0,0:0:0:0:
475,192,96697,1,0,0:0:0:0:
109,192,96776,1,0,0:0:0:0:
329,192,96776,1,0,0:0:0:0:
402,192,96855,1,0,0:0:0:0:
475,192,96855,1,0,0:0:0:0:
36,192,96934,1,0,0:0:0:50:kick.wav
109,192,96934,1,0,0:0:0:0:
256,192,96934,1,0,0:0:0:0:
329,192,97013,1,0,0:0:0:0:
402,192,97013,1,0,0:0:0:0:
109,192,97092,1,0,0:0:0:0:
182,192,97092,1,0,0:0:0:0:
256,192,97171,1,0,0:0:0:0:
402,192,97171,1,0,0:0:0:0:
36,192,97250,1,0,0:0:0:50:kick.wav
329,192,97250,1,0,0:0:0:0:
475,192,97250,1,0,0:0:0:0:
109,192,97328,1,0,0:0:0:0:
256,192,97328,1,0,0:0:0:0:
182,192,97407,1,0,0:0:0:0:
402,192,97407,1,0,0:0:0:0:
329,192,97486,1,0,0:0:0:0:
109,192,97565,1,0,0:0:0:50:kick.wav
256,192,97565,1,0,0:0:0:0:
475,192,97565,1,0,0:0:0:0:
402,192,97644,1,0,0:0:0:0:
182,192,97723,1,0,0:0:0:0:
329,192,97723,1,0,0:0:0:0:
36,192,97802,1,0,0:0:0:0:
109,192,97802,1,0,0:0:0:0:
256,192,97881,1,0,0:0:0:50:kick.wav
402,192,97881,1,0,0:0:0:0:
475,192,97881,1,0,0:0:0:0:
36,192,97960,1,0,0:0:0:0:
182,192,97960,1,0,0:0:0:0:
329,192,98039,1,0,0:0:0:0:
475,192,98039,1,0,0:0:0:0:
109,192,98118,1,0,0:0:0:0:
256,192,98118,1,0,0:0:0:0:
36,192,98197,1,0,0:0:0:50:kick.wav
402,192,98197,1,0,0:0:0:0:
475,192,98197,1,0,0:0:0:0:
182,192,98276,1,0,0:0:0:0:
329,192,98276,1,0,0:0:0:0:
109,192,98355,1,0,0:0:0:0:
256,192,98355,1,0,0:0:0:0:
36,192,98434,1,0,0:0:0:0:
182,192,98513,1,0,0:0:0:50:kick.wav
402,192,98513,1,0,0:0:0:0:
475,192,98513,1,0,0:0:0:0:
256,192,98592,1,0,0:0:0:0:
329,192,98592,1,0,0:0:0:0:
36,192,98671,1,0,0:0:0:0:
182,192,98671,1,0,0:0:0:0:
329,192,98750,1,0,0:0:0:0:
475,192,98750,1,0,0:0:0:0:
36,192,98828,1,0,0:0:0:50:kick.wav
109,192,98828,1,0,0:0:0:0:
256,192,98828,1,0,0:0:0:0:
36,192,98986,1,0,0:0:0:50:kick.wav
109,192,98986,1,0,0:0:0:0:
256,192,98986,1,0,0:0:0:0:
182,192,99144,1,0,0:0:0:0:
402,192,99144,1,0,0:0:0:0:
475,192,99144,1,0,0:0:0:0:
109,192,99223,1,0,0:0:0:0:
329,192,99223,1,0,0:0:0:0:
256,192,99302,1,0,0:0:0:0:
475,192,99302,1,0,0:0:0:0:
36,192,99381,1,0,0:0:0:0:
182,192,99381,1,0,0:0:0:0:
329,192,99460,1,0,0:0:0:0:
402,192,99460,1,0,0:0:0:0:
475,192,99460,1,0,0:0:0:0:
109,192,99539,1,0,0:0:0:0:
256,192,99539,1,0,0:0:0:0:
36,192,99618,1,0,0:0:0:0:
475,192,99618,1,0,0:0:0:0:
182,192,99697,1,0,0:0:0:0:
329,192,99697,1,0,0:0:0:0:
36,192,99776,1,0,0:0:0:50:kick.wav
109,192,99776,1,0,0:0:0:50:cymbal.wav
402,192,99776,1,0,0:0:0:0:
475,192,99776,1,0,0:0:0:0:
36,192,99934,1,0,0:0:0:50:kick.wav
182,192,99934,1,0,0:0:0:0:
329,192,99934,1,0,0:0:0:0:
475,192,99934,1,0,0:0:0:0:
109,192,100092,1,0,0:0:0:50:kick.wav
256,192,100092,1,0,0:0:0:0:
402,192,100092,1,0,0:0:0:0:
475,192,100092,1,0,0:0:0:0:
109,192,100250,1,0,0:0:0:50:kick.wav
182,192,100250,1,0,0:0:0:0:
329,192,100250,1,0,0:0:0:0:
475,192,100250,1,0,0:0:0:0:
36,192,100565,1,0,0:0:0:0:
329,192,100565,1,0,0:0:0:0:
475,192,100565,1,0,0:0:0:0:
256,192,100618,1,0,0:0:0:0:
182,192,100671,1,0,0:0:0:0:
109,192,100723,1,0,0:0:0:0:
329,192,100776,1,0,0:0:0:0:
402,192,100828,1,0,0:0:0:0:
475,192,100881,1,0,0:0:0:0:
182,192,100934,1,0,0:0:0:0:
256,192,100986,1,0,0:0:0:0:
36,192,101039,1,0,0:0:0:50:kick.wav
329,192,101039,1,0,0:0:0:0:
402,192,101039,1,0,0:0:0:0:
475,192,101039,1,0,0:0:0:0:
109,192,101118,1,0,0:0:0:0:
256,192,101118,1,0,0:0:0:0:
182,192,101197,1,0,0:0:0:0:
402,192,101197,1,0,0:0:0:0:
109,192,101276,1,0,0:0:0:0:
329,192,101276,1,0,0:0:0:0:
36,192,101355,1,0,0:0:0:50:kick.wav
256,192,101355,1,0,0:0:0:0:
475,192,101355,1,0,0:0:0:0:
402,192,101434,1,0,0:0:0:0:
182,192,101513,1,0,0:0:0:0:
329,192,101513,1,0,0:0:0:0:
109,192,101592,1,0,0:0:0:0:
36,192,101671,1,0,0:0:0:50:kick.wav
256,192,101671,1,0,0:0:0:0:
475,192,101671,1,0,0:0:0:0:
329,192,101750,1,0,0:0:0:0:
402,192,101750,1,0,0:0:0:0:
109,192,101828,1,0,0:0:0:0:
182,192,101828,1,0,0:0:0:0:
256,192,101907,1,0,0:0:0:0:
329,192,101907,1,0,0:0:0:0:
36,192,101986,1,0,0:0:0:50:kick.wav
402,192,101986,1,0,0:0:0:0:
475,192,101986,1,0,0:0:0:0:
109,192,102065,1,0,0:0:0:0:
256,192,102065,1,0,0:0:0:0:
329,192,102144,1,0,0:0:0:0:
475,192,102144,1,0,0:0:0:0:
36,192,102223,1,0,0:0:0:0:
182,192,102223,1,0,0:0:0:0:
256,192,102302,1,0,0:0:0:50:kick.wav
402,192,102302,1,0,0:0:0:0:
475,192,102302,1,0,0:0:0:0:
36,192,102381,1,0,0:0:0:0:
109,192,102381,1,0,0:0:0:0:
182,192,102460,1,0,0:0:0:0:
329,192,102460,1,0,0:0:0:0:
402,192,102539,1,0,0:0:0:0:
475,192,102539,1,0,0:0:0:0:
36,192,102618,1,0,0:0:0:50:kick.wav
109,192,102618,1,0,0:0:0:0:
256,192,102618,1,0,0:0:0:0:
329,192,102697,1,0,0:0:0:0:
402,192,102776,1,0,0:0:0:0:
475,192,102776,1,0,0:0:0:0:
182,192,102855,1,0,0:0:0:0:
36,192,102934,1,0,0:0:0:50:kick.wav
329,192,102934,1,0,0:0:0:0:
475,192,102934,1,0,0:0:0:0:
109,192,103013,1,0,0:0:0:0:
256,192,103013,1,0,0:0:0:0:
182,192,103092,1,0,0:0:0:0:
402,192,103092,1,0,0:0:0:0:
109,192,103171,1,0,0:0:0:0:
329,192,103171,1,0,0:0:0:0:
36,192,103250,1,0,0:0:0:50:kick.wav
256,192,103250,1,0,0:0:0:0:
475,192,103250,1,0,0:0:0:0:
182,192,103328,1,0,0:0:0:0:
402,192,103328,1,0,0:0:0:0:
329,192,103407,1,0,0:0:0:0:
475,192,103407,1,0,0:0:0:0:
109,192,103486,1,0,0:0:0:0:
256,192,103486,1,0,0:0:0:0:
36,192,103565,1,0,0:0:0:50:kick.wav
402,192,103565,1,0,0:0:0:0:
475,192,103565,1,0,0:0:0:0:
256,192,103644,1,0,0:0:0:0:
36,192,103723,1,0,0:0:0:0:
109,192,103723,1,0,0:0:0:0:
36,192,103802,1,0,0:0:0:0:
109,192,103802,1,0,0:0:0:0:
182,192,103881,1,0,0:0:0:50:kick.wav
402,192,103881,1,0,0:0:0:0:
475,192,103881,1,0,0:0:0:0:
36,192,103960,1,0,0:0:0:0:
256,192,103960,1,0,0:0:0:0:
329,192,104039,1,0,0:0:0:0:
475,192,104039,1,0,0:0:0:0:
109,192,104118,1,0,0:0:0:0:
182,192,104118,1,0,0:0:0:0:
256,192,104197,1,0,0:0:0:50:kick.wav
402,192,104197,1,0,0:0:0:0:
475,192,104197,1,0,0:0:0:0:
36,192,104276,1,0,0:0:0:0:
109,192,104276,1,0,0:0:0:0:
182,192,104355,1,0,0:0:0:0:
329,192,104355,1,0,0:0:0:0:
402,192,104434,1,0,0:0:0:0:
475,192,104434,1,0,0:0:0:0:
36,192,104513,1,0,0:0:0:50:kick.wav
109,192,104513,1,0,0:0:0:0:
256,192,104513,1,0,0:0:0:0:
329,192,104592,1,0,0:0:0:50:kick.wav
402,192,104592,1,0,0:0:0:0:
109,192,104671,1,0,0:0:0:50:kick.wav
182,192,104671,1,0,0:0:0:0:
402,192,104750,1,0,0:0:0:50:kick.wav
475,192,104750,1,0,0:0:0:0:
36,192,104828,1,0,0:0:0:50:kick.wav
182,192,104828,1,0,0:0:0:50:cymbal.wav
256,192,104828,1,0,0:0:0:0:
256,192,104986,1,0,0:0:0:0:
329,192,104986,1,0,0:0:0:0:
329,192,105144,1,0,0:0:0:0:
402,192,105144,1,0,0:0:0:0:
402,192,105302,1,0,0:0:0:0:
475,192,105302,1,0,0:0:0:0:
182,192,105460,1,0,0:0:0:0:
329,192,105460,1,0,0:0:0:0:
36,192,105618,1,0,0:0:0:0:
109,192,105618,1,0,0:0:0:0:
256,192,105934,1,0,0:0:0:0:
36,192,106092,1,0,0:0:0:50:kick.wav
182,192,106092,1,0,0:0:0:50:cymbal.wav
402,192,106092,1,0,0:0:0:0:
475,192,106092,1,0,0:0:0:0:
329,192,106171,1,0,0:0:0:0:
109,192,106250,1,0,0:0:0:0:
256,192,106250,1,0,0:0:0:0:
402,192,106328,1,0,0:0:0:0:
36,192,106407,1,0,0:0:0:50:kick.wav
182,192,106407,1,0,0:0:0:0:
475,192,106407,1,0,0:0:0:0:
256,192,106486,1,0,0:0:0:0:
109,192,106565,1,0,0:0:0:0:
329,192,106565,1,0,0:0:0:0:
402,192,106644,1,0,0:0:0:0:
475,192,106644,1,0,0:0:0:0:
36,192,106723,1,0,0:0:0:50:kick.wav
182,192,106723,1,0,0:0:0:0:
256,192,106723,1,0,0:0:0:0:
329,192,106802,1,0,0:0:0:0:
475,192,106802,1,0,0:0:0:0:
109,192,106881,1,0,0:0:0:0:
182,192,106881,1,0,0:0:0:0:
256,192,106960,1,0,0:0:0:0:
402,192,106960,1,0,0:0:0:0:
36,192,107039,1,0,0:0:0:50:kick.wav
109,192,107039,1,0,0:0:0:0:
475,192,107039,1,0,0:0:0:0:
182,192,107118,1,0,0:0:0:0:
329,192,107118,1,0,0:0:0:0:
402,192,107197,1,0,0:0:0:0:
475,192,107197,1,0,0:0:0:0:
109,192,107276,1,0,0:0:0:0:
256,192,107276,1,0,0:0:0:0:
329,192,107355,1,0,0:0:0:50:kick.wav
402,192,107355,1,0,0:0:0:0:
475,192,107355,1,0,0:0:0:0:
36,192,107434,1,0,0:0:0:0:
182,192,107434,1,0,0:0:0:0:
256,192,107513,1,0,0:0:0:0:
402,192,107513,1,0,0:0:0:0:
329,192,107592,1,0,0:0:0:0:
109,192,107671,1,0,0:0:0:50:kick.wav
256,192,107671,1,0,0:0:0:0:
475,192,107671,1,0,0:0:0:0:
402,192,107750,1,0,0:0:0:0:
182,192,107828,1,0,0:0:0:0:
329,192,107828,1,0,0:0:0:0:
36,192,107907,1,0,0:0:0:0:
109,192,107907,1,0,0:0:0:0:
256,192,107986,1,0,0:0:0:50:kick.wav
402,192,107986,1,0,0:0:0:0:
475,192,107986,1,0,0:0:0:0:
36,192,108065,1,0,0:0:0:0:
182,192,108065,1,0,0:0:0:0:
329,192,108144,1,0,0:0:0:0:
475,192,108144,1,0,0:0:0:0:
109,192,108223,1,0,0:0:0:0:
256,192,108223,1,0,0:0:0:0:
36,192,108302,1,0,0:0:0:50:kick.wav
402,192,108302,1,0,0:0:0:0:
475,192,108302,1,0,0:0:0:0:
109,192,108381,1,0,0:0:0:0:
329,192,108381,1,0,0:0:0:0:
182,192,108460,1,0,0:0:0:0:
256,192,108460,1,0,0:0:0:0:
329,192,108539,1,0,0:0:0:0:
36,192,108618,1,0,0:0:0:50:kick.wav
402,192,108618,1,0,0:0:0:0:
475,192,108618,1,0,0:0:0:0:
109,192,108697,1,0,0:0:0:0:
256,192,108697,1,0,0:0:0:0:
329,192,108776,1,0,0:0:0:0:
402,192,108776,1,0,0:0:0:0:
36,192,108855,1,0,0:0:0:0:
182,192,108855,1,0,0:0:0:0:
256,192,108934,1,0,0:0:0:50:kick.wav
329,192,108934,1,0,0:0:0:0:
475,192,108934,1,0,0:0:0:0:
256,192,109092,1,0,0:0:0:50:kick.wav
329,192,109092,1,0,0:0:0:0:
475,192,109092,1,0,0:0:0:0:
36,192,109250,1,0,0:0:0:0:
182,192,109250,1,0,0:0:0:0:
402,192,109250,1,0,0:0:0:0:
256,192,109328,1,0,0:0:0:0:
475,192,109328,1,0,0:0:0:0:
109,192,109407,1,0,0:0:0:0:
329,192,109407,1,0,0:0:0:0:
402,192,109486,1,0,0:0:0:0:
475,192,109486,1,0,0:0:0:0:
36,192,109565,1,0,0:0:0:0:
182,192,109565,1,0,0:0:0:0:
256,192,109644,1,0,0:0:0:0:
402,192,109644,1,0,0:0:0:0:
109,192,109723,1,0,0:0:0:0:
475,192,109723,1,0,0:0:0:0:
182,192,109802,1,0,0:0:0:0:
329,192,109802,1,0,0:0:0:0:
36,192,109881,1,0,0:0:0:50:kick.wav
256,192,109881,1,0,0:0:0:50:cymbal.wav
402,192,109881,1,0,0:0:0:0:
475,192,109881,1,0,0:0:0:0:
109,192,110039,1,0,0:0:0:50:kick.wav
182,192,110039,1,0,0:0:0:0:
329,192,110039,1,0,0:0:0:0:
475,192,110039,1,0,0:0:0:0:
36,192,110197,1,0,0:0:0:50:kick.wav
109,192,110197,1,0,0:0:0:0:
256,192,110197,1,0,0:0:0:0:
402,192,110197,1,0,0:0:0:0:
36,192,110355,1,0,0:0:0:50:kick.wav
182,192,110355,1,0,0:0:0:0:
329,192,110355,1,0,0:0:0:0:
475,192,110355,1,0,0:0:0:0:
36,192,110671,1,0,0:0:0:0:
329,192,110671,1,0,0:0:0:0:
475,192,110671,1,0,0:0:0:0:
109,192,110723,1,0,0:0:0:0:
182,192,110776,1,0,0:0:0:0:
256,192,110828,1,0,0:0:0:0:
475,192,110881,1,0,0:0:0:0:
402,192,110934,1,0,0:0:0:0:
329,192,110986,1,0,0:0:0:0:
182,192,111039,1,0,0:0:0:0:
109,192,111092,1,0,0:0:0:0:
36,192,111144,1,0,0:0:0:50:kick.wav
329,192,111144,1,0,0:0:0:50:cymbal.wav
402,192,111144,1,0,0:0:0:0:
475,192,111144,1,0,0:0:0:0:
109,192,111223,1,0,0:0:0:0:
256,192,111223,1,0,0:0:0:0:
402,192,111302,1,0,0:0:0:0:
475,192,111302,1,0,0:0:0:0:
182,192,111381,1,0,0:0:0:0:
329,192,111381,1,0,0:0:0:0:
36,192,111460,1,0,0:0:0:50:kick.wav
109,192,111460,1,0,0:0:0:0:
475,192,111460,1,0,0:0:0:0:
402,192,111539,1,0,0:0:0:0:
109,192,111618,1,0,0:0:0:0:
329,192,111618,1,0,0:0:0:0:
182,192,111697,1,0,0:0:0:0:
36,192,111776,1,0,0:0:0:50:kick.wav
256,192,111776,1,0,0:0:0:0:
475,192,111776,1,0,0:0:0:0:
182,192,111855,1,0,0:0:0:0:
402,192,111855,1,0,0:0:0:0:
109,192,111934,1,0,0:0:0:0:
329,192,111934,1,0,0:0:0:0:
256,192,112013,1,0,0:0:0:0:
475,192,112013,1,0,0:0:0:0:
36,192,112092,1,0,0:0:0:50:kick.wav
109,192,112092,1,0,0:0:0:0:
182,192,112092,1,0,0:0:0:0:
329,192,112171,1,0,0:0:0:0:
402,192,112171,1,0,0:0:0:0:
109,192,112250,1,0,0:0:0:0:
256,192,112250,1,0,0:0:0:0:
402,192,112328,1,0,0:0:0:0:
475,192,112328,1,0,0:0:0:0:
36,192,112407,1,0,0:0:0:50:kick.wav
182,192,112407,1,0,0:0:0:50:cymbal.wav
329,192,112407,1,0,0:0:0:0:
109,192,112486,1,0,0:0:0:0:
256,192,112486,1,0,0:0:0:0:
402,192,112565,1,0,0:0:0:0:
475,192,112565,1,0,0:0:0:0:
182,192,112644,1,0,0:0:0:0:
329,192,112644,1,0,0:0:0:0:
36,192,112723,1,0,0:0:0:50:kick.wav
109,192,112723,1,0,0:0:0:0:
475,192,112723,1,0,0:0:0:0:
256,192,112802,1,0,0:0:0:0:
182,192,112881,1,0,0:0:0:0:
402,192,112881,1,0,0:0:0:0:
329,192,112960,1,0,0:0:0:0:
36,192,113039,1,0,0:0:0:50:kick.wav
256,192,113039,1,0,0:0:0:0:
475,192,113039,1,0,0:0:0:0:
109,192,113118,1,0,0:0:0:0:
402,192,113118,1,0,0:0:0:0:
182,192,113197,1,0,0:0:0:0:
329,192,113197,1,0,0:0:0:0:
109,192,113276,1,0,0:0:0:0:
402,192,113276,1,0,0:0:0:0:
36,192,113355,1,0,0:0:0:50:kick.wav
256,192,113355,1,0,0:0:0:0:
475,192,113355,1,0,0:0:0:0:
109,192,113434,1,0,0:0:0:0:
182,192,113434,1,0,0:0:0:0:
329,192,113513,1,0,0:0:0:0:
402,192,113513,1,0,0:0:0:0:
182,192,113592,1,0,0:0:0:0:
256,192,113592,1,0,0:0:0:0:
36,192,113671,1,0,0:0:0:50:kick.wav
109,192,113671,1,0,0:0:0:0:
475,192,113671,1,0,0:0:0:0:
256,192,113750,1,0,0:0:0:0:
402,192,113828,1,0,0:0:0:0:
475,192,113828,1,0,0:0:0:0:
402,192,113907,1,0,0:0:0:0:
475,192,113907,1,0,0:0:0:0:
36,192,113986,1,0,0:0:0:50:kick.wav
109,192,113986,1,0,0:0:0:0:
329,192,113986,1,0,0:0:0:0:
256,192,114065,1,0,0:0:0:0:
475,192,114065,1,0,0:0:0:0:
182,192,114144,1,0,0:0:0:0:
402,192,114144,1,0,0:0:0:0:
109,192,114223,1,0,0:0:0:0:
329,192,114223,1,0,0:0:0:0:
256,192,114302,1,0,0:0:0:50:kick.wav
402,192,114302,1,0,0:0:0:0:
475,192,114302,1,0,0:0:0:0:
36,192,114381,1,0,0:0:0:0:
109,192,114381,1,0,0:0:0:0:
182,192,114460,1,0,0:0:0:0:
402,192,114460,1,0,0:0:0:0:
256,192,114539,1,0,0:0:0:0:
475,192,114539,1,0,0:0:0:0:
36,192,114618,1,0,0:0:0:50:kick.wav
109,192,114618,1,0,0:0:0:0:
329,192,114618,1,0,0:0:0:0:
182,192,114697,1,0,0:0:0:50:kick.wav
402,192,114697,1,0,0:0:0:0:
475,192,114697,1,0,0:0:0:0:
36,192,114776,1,0,0:0:0:50:kick.wav
109,192,114776,1,0,0:0:0:0:
256,192,114776,1,0,0:0:0:0:
329,192,114855,1,0,0:0:0:50:kick.wav
402,192,114855,1,0,0:0:0:0:
475,192,114855,1,0,0:0:0:0:
36,192,114934,1,0,0:0:0:50:kick.wav
109,192,114934,1,0,0:0:0:50:cymbal.wav
182,192,114934,1,0,0:0:0:0:
256,192,114986,1,0,0:0:0:0:
329,192,115039,1,0,0:0:0:0:
402,192,115092,1,0,0:0:0:0:
475,192,115144,1,0,0:0:0:0:
329,192,115197,1,0,0:0:0:0:
182,192,115250,1,0,0:0:0:0:
36,192,115302,1,0,0:0:0:0:
109,192,115355,1,0,0:0:0:0:
182,192,115407,1,0,0:0:0:0:
256,192,115460,1,0,0:0:0:0:
329,192,115513,1,0,0:0:0:0:
402,192,115565,1,0,0:0:0:0:
475,192,115618,1,0,0:0:0:0:
329,192,115671,1,0,0:0:0:0:
36,192,115723,1,0,0:0:0:0:
182,192,115723,1,0,0:0:0:0:
36,192,115881,1,0,0:0:0:0:
256,192,115881,1,0,0:0:0:0:
109,192,116039,1,0,0:0:0:0:
329,192,116039,1,0,0:0:0:0:
36,192,116197,1,0,0:0:0:50:kick.wav
109,192,116197,1,0,0:0:0:0:
402,192,116197,1,0,0:0:0:0:
475,192,116197,1,0,0:0:0:0:
182,192,116276,1,0,0:0:0:50:kick.wav
329,192,116276,1,0,0:0:0:0:
36,192,116355,1,0,0:0:0:50:kick.wav
256,192,116355,1,0,0:0:0:0:
475,192,116355,1,0,0:0:0:0:
109,192,116434,1,0,0:0:0:50:kick.wav
329,192,116434,1,0,0:0:0:0:
182,192,116513,1,0,0:0:0:50:kick.wav
402,192,116513,1,0,0:0:0:0:
475,192,116513,1,0,0:0:0:0:
329,192,116671,1,0,0:0:0:50:kick.wav
475,192,116671,1,0,0:0:0:0:
36,192,116750,1,0,0:0:0:50:kick.wav
182,192,116750,1,0,0:0:0:0:
36,192,116907,1,0,0:0:0:50:kick.wav
182,192,116907,1,0,0:0:0:0:
329,192,116986,1,0,0:0:0:50:kick.wav
475,192,116986,1,0,0:0:0:0:
36,192,117144,1,0,0:0:0:50:kick.wav
256,192,117144,1,0,0:0:0:0:
475,192,117144,1,0,0:0:0:0:
36,192,117302,1,0,0:0:0:50:kick.wav
182,192,117302,1,0,0:0:0:0:
402,192,117302,1,0,0:0:0:0:
36,192,117460,1,0,0:0:0:50:kick.wav
329,192,117460,1,0,0:0:0:0:
475,192,117460,1,0,0:0:0:0:
182,192,117539,1,0,0:0:0:50:kick.wav
256,192,117539,1,0,0:0:0:0:
109,192,117618,1,0,0:0:0:50:kick.wav
402,192,117618,1,0,0:0:0:0:
475,192,117618,1,0,0:0:0:0:
256,192,117697,1,0,0:0:0:50:kick.wav
329,192,117697,1,0,0:0:0:0:
36,192,117776,1,0,0:0:0:50:kick.wav
182,192,117776,1,0,0:0:0:0:
475,192,117776,1,0,0:0:0:0:
329,192,117855,1,0,0:0:0:50:kick.wav
402,192,117855,1,0,0:0:0:0:
36,192,117934,1,0,0:0:0:50:kick.wav
256,192,117934,1,0,0:0:0:0:
475,192,117934,1,0,0:0:0:0:
109,192,118013,1,0,0:0:0:50:kick.wav
182,192,118013,1,0,0:0:0:0:
329,192,118092,1,0,0:0:0:50:kick.wav
402,192,118092,1,0,0:0:0:0:
475,192,118092,1,0,0:0:0:0:
36,192,118250,1,0,0:0:0:50:kick.wav
109,192,118250,1,0,0:0:0:0:
256,192,118250,1,0,0:0:0:0:
329,192,118407,1,0,0:0:0:50:kick.wav
475,192,118407,1,0,0:0:0:0:
256,192,118460,1,0,0:0:0:0:
182,192,118513,1,0,0:0:0:0:
109,192,118565,1,0,0:0:0:0:
329,192,118618,1,0,0:0:0:0:
402,192,118671,1,0,0:0:0:0:
36,192,118723,1,0,0:0:0:50:kick.wav
256,192,118723,1,0,0:0:0:0:
475,192,118723,1,0,0:0:0:0:
109,192,118802,1,0,0:0:0:50:kick.wav
182,192,118802,1,0,0:0:0:0:
36,192,118881,1,0,0:0:0:50:kick.wav
329,192,118881,1,0,0:0:0:0:
402,192,118881,1,0,0:0:0:0:
182,192,118960,1,0,0:0:0:50:kick.wav
256,192,118960,1,0,0:0:0:0:
36,192,119039,1,0,0:0:0:50:kick.wav
109,192,119039,1,0,0:0:0:0:
475,192,119039,1,0,0:0:0:0:
329,192,119197,1,0,0:0:0:50:kick.wav
402,192,119197,1,0,0:0:0:0:
109,192,119276,1,0,0:0:0:50:kick.wav
182,192,119276,1,0,0:0:0:0:
109,192,119434,1,0,0:0:0:50:kick.wav
182,192,119434,1,0,0:0:0:0:
329,192,119513,1,0,0:0:0:50:kick.wav
402,192,119513,1,0,0:0:0:0:
36,192,119671,1,0,0:0:0:50:kick.wav
256,192,119671,1,0,0:0:0:0:
475,192,119671,1,0,0:0:0:0:
109,192,119828,1,0,0:0:0:50:kick.wav
329,192,119828,1,0,0:0:0:0:
475,192,119828,1,0,0:0:0:0:
36,192,119986,1,0,0:0:0:50:kick.wav
182,192,119986,1,0,0:0:0:0:
475,192,119986,1,0,0:0:0:0:
256,192,120065,1,0,0:0:0:50:kick.wav
329,192,120065,1,0,0:0:0:0:
109,192,120144,1,0,0:0:0:50:kick.wav
402,192,120144,1,0,0:0:0:0:
475,192,120144,1,0,0:0:0:0:
182,192,120223,1,0,0:0:0:50:kick.wav
256,192,120223,1,0,0:0:0:0:
36,192,120302,1,0,0:0:0:50:kick.wav
329,192,120302,1,0,0:0:0:0:
402,192,120302,1,0,0:0:0:0:
109,192,120381,1,0,0:0:0:50:kick.wav
182,192,120381,1,0,0:0:0:0:
36,192,120460,1,0,0:0:0:50:kick.wav
256,192,120460,1,0,0:0:0:0:
475,192,120460,1,0,0:0:0:0:
329,192,120539,1,0,0:0:0:50:kick.wav
402,192,120539,1,0,0:0:0:0:
36,192,120618,1,0,0:0:0:50:kick.wav
109,192,120618,1,0,0:0:0:0:
182,192,120618,1,0,0:0:0:0:
329,192,120776,1,0,0:0:0:50:kick.wav
402,192,120776,1,0,0:0:0:0:
475,192,120776,1,0,0:0:0:0:
36,192,120934,1,0,0:0:0:50:kick.wav
109,192,120934,1,0,0:0:0:0:
182,192,120934,1,0,0:0:0:0:
256,192,121250,1,0,0:0:0:50:kick.wav
402,192,121250,1,0,0:0:0:0:
475,192,121250,1,0,0:0:0:0:
36,192,121328,1,0,0:0:0:50:kick.wav
182,192,121328,1,0,0:0:0:0:
329,192,121407,1,0,0:0:0:50:kick.wav
402,192,121407,1,0,0:0:0:0:
475,192,121407,1,0,0:0:0:0:
109,192,121486,1,0,0:0:0:50:kick.wav
256,192,121486,1,0,0:0:0:0:
36,192,121565,1,0,0:0:0:50:kick.wav
182,192,121565,1,0,0:0:0:0:
402,192,121565,1,0,0:0:0:0:
475,192,121565,1,0,0:0:0:0:
256,192,121723,1,0,0:0:0:0:
36,192,121881,1,0,0:0:0:50:kick.wav
182,192,121881,1,0,0:0:0:0:
475,192,121881,1,0,0:0:0:0:
329,192,121960,1,0,0:0:0:50:kick.wav
402,192,121960,1,0,0:0:0:0:
36,192,122039,1,0,0:0:0:50:kick.wav
109,192,122039,1,0,0:0:0:0:
256,192,122039,1,0,0:0:0:0:
402,192,122118,1,0,0:0:0:50:kick.wav
475,192,122118,1,0,0:0:0:0:
36,192,122197,1,0,0:0:0:50:kick.wav
182,192,122197,1,0,0:0:0:0:
329,192,122197,1,0,0:0:0:0:
256,192,122276,1,0,0:0:0:0:
475,192,122276,1,0,0:0:0:0:
109,192,122355,1,0,0:0:0:0:
329,192,122355,1,0,0:0:0:0:
182,192,122434,1,0,0:0:0:0:
402,192,122434,1,0,0:0:0:0:
36,192,122513,1,0,0:0:0:50:kick.wav
256,192,122513,1,0,0:0:0:0:
475,192,122513,1,0,0:0:0:0:
109,192,122592,1,0,0:0:0:50:kick.wav
329,192,122592,1,0,0:0:0:0:
182,192,122671,1,0,0:0:0:50:kick.wav
402,192,122671,1,0,0:0:0:0:
475,192,122671,1,0,0:0:0:0:
109,192,122750,1,0,0:0:0:50:kick.wav
256,192,122750,1,0,0:0:0:0:
36,192,122828,1,0,0:0:0:50:kick.wav
329,192,122828,1,0,0:0:0:0:
402,192,122828,1,0,0:0:0:0:
256,192,122907,1,0,0:0:0:50:kick.wav
475,192,122907,1,0,0:0:0:0:
36,192,122986,1,0,0:0:0:50:kick.wav
109,192,122986,1,0,0:0:0:0:
182,192,122986,1,0,0:0:0:0:
402,192,123065,1,0,0:0:0:50:kick.wav
475,192,123065,1,0,0:0:0:0:
36,192,123144,1,0,0:0:0:50:kick.wav
109,192,123144,1,0,0:0:0:0:
256,192,123144,1,0,0:0:0:0:
329,192,123223,1,0,0:0:0:50:kick.wav
475,192,123223,1,0,0:0:0:0:
36,192,123302,1,0,0:0:0:50:kick.wav
109,192,123302,1,0,0:0:0:0:
182,192,123302,1,0,0:0:0:0:
256,192,123381,1,0,0:0:0:50:kick.wav
402,192,123381,1,0,0:0:0:0:
36,192,123460,1,0,0:0:0:50:kick.wav
109,192,123460,1,0,0:0:0:0:
475,192,123460,1,0,0:0:0:0:
182,192,123539,1,0,0:0:0:50:kick.wav
329,192,123539,1,0,0:0:0:0:
36,192,123618,1,0,0:0:0:50:kick.wav
402,192,123618,1,0,0:0:0:0:
475,192,123618,1,0,0:0:0:0:
109,192,123697,1,0,0:0:0:50:kick.wav
256,192,123697,1,0,0:0:0:0:
36,192,123776,1,0,0:0:0:50:kick.wav
329,192,123776,1,0,0:0:0:0:
402,192,123776,1,0,0:0:0:0:
475,192,123776,1,0,0:0:0:0:
329,192,124092,1,0,0:0:0:0:
402,192,124092,1,0,0:0:0:0:
36,192,124407,1,0,0:0:0:0:
182,192,124407,1,0,0:0:0:0:
36,192,124565,1,0,0:0:0:0:
182,192,124565,1,0,0:0:0:0:
329,192,124881,1,0,0:0:0:0:
402,192,124881,1,0,0:0:0:0:
36,192,125039,1,0,0:0:0:0:
256,192,125039,1,0,0:0:0:0:
109,192,125197,1,0,0:0:0:0:
256,192,125197,1,0,0:0:0:0:
182,192,125355,1,0,0:0:0:0:
402,192,125355,1,0,0:0:0:0:
256,192,125513,1,0,0:0:0:0:
402,192,125513,1,0,0:0:0:0:
329,192,125671,1,0,0:0:0:0:
475,192,125671,1,0,0:0:0:0:
36,192,125828,1,0,0:0:0:0:
182,192,125828,1,0,0:0:0:0:
256,192,125986,1,0,0:0:0:0:
329,192,126065,1,0,0:0:0:0:
402,192,126144,1,0,0:0:0:0:
256,192,126223,1,0,0:0:0:0:
36,192,126302,1,0,0:0:0:50:kick.wav
109,192,126302,1,0,0:0:0:50:cymbal.wav
402,192,126302,1,0,0:0:0:0:
475,192,126302,1,0,0:0:0:0:
329,192,126381,1,0,0:0:0:0:
36,192,126460,1,0,0:0:0:50:kick.wav
256,192,126460,1,0,0:0:0:0:
402,192,126460,1,0,0:0:0:0:
182,192,126539,1,0,0:0:0:0:
36,192,126618,1,0,0:0:0:50:kick.wav
109,192,126618,1,0,0:0:0:0:
329,192,126618,1,0,0:0:0:0:
402,192,126697,1,0,0:0:0:0:
256,192,126776,1,0,0:0:0:50:kick.wav
475,192,126776,1,0,0:0:0:0:
36,192,126855,1,0,0:0:0:0:
182,192,126855,1,0,0:0:0:0:
329,192,126934,1,0,0:0:0:50:kick.wav
402,192,126934,1,0,0:0:0:0:
475,192,126934,1,0,0:0:0:0:
109,192,127013,1,0,0:0:0:0:
256,192,127013,1,0,0:0:0:0:
402,192,127092,1,0,0:0:0:50:kick.wav
475,192,127092,1,0,0:0:0:0:
182,192,127171,1,0,0:0:0:0:
329,192,127171,1,0,0:0:0:0:
36,192,127250,1,0,0:0:0:50:kick.wav
109,192,127250,1,0,0:0:0:0:
475,192,127250,1,0,0:0:0:0:
256,192,127328,1,0,0:0:0:0:
402,192,127328,1,0,0:0:0:0:
36,192,127407,1,0,0:0:0:50:kick.wav
109,192,127407,1,0,0:0:0:0:
182,192,127407,1,0,0:0:0:0:
329,192,127486,1,0,0:0:0:0:
475,192,127486,1,0,0:0:0:0:
36,192,127565,1,0,0:0:0:50:kick.wav
109,192,127565,1,0,0:0:0:0:
256,192,127565,1,0,0:0:0:0:
182,192,127644,1,0,0:0:0:0:
36,192,127723,1,0,0:0:0:50:kick.wav
109,192,127723,1,0,0:0:0:0:
329,192,127723,1,0,0:0:0:0:
402,192,127802,1,0,0:0:0:0:
109,192,127881,1,0,0:0:0:50:kick.wav
256,192,127881,1,0,0:0:0:0:
475,192,127881,1,0,0:0:0:0:
329,192,127960,1,0,0:0:0:0:
36,192,128039,1,0,0:0:0:50:kick.wav
182,192,128039,1,0,0:0:0:0:
402,192,128039,1,0,0:0:0:0:
256,192,128118,1,0,0:0:0:0:
475,192,128118,1,0,0:0:0:0:
36,192,128197,1,0,0:0:0:50:kick.wav
109,192,128197,1,0,0:0:0:0:
329,192,128197,1,0,0:0:0:0:
402,192,128276,1,0,0:0:0:0:
475,192,128276,1,0,0:0:0:0:
182,192,128355,1,0,0:0:0:50:kick.wav
256,192,128355,1,0,0:0:0:0:
329,192,128355,1,0,0:0:0:0:
36,192,128434,1,0,0:0:0:0:
109,192,128434,1,0,0:0:0:0:
256,192,128513,1,0,0:0:0:50:kick.wav
402,192,128513,1,0,0:0:0:0:
475,192,128513,1,0,0:0:0:0:
109,192,128592,1,0,0:0:0:0:
182,192,128592,1,0,0:0:0:0:
36,192,128671,1,0,0:0:0:50:kick.wav
329,192,128671,1,0,0:0:0:0:
475,192,128671,1,0,0:0:0:0:
256,192,128750,1,0,0:0:0:0:
36,192,128828,1,0,0:0:0:50:kick.wav
109,192,128828,1,0,0:0:0:0:
182,192,128828,1,0,0:0:0:0:
329,192,128907,1,0,0:0:0:0:
475,192,128907,1,0,0:0:0:0:
36,192,128986,1,0,0:0:0:0:
109,192,128986,1,0,0:0:0:0:
256,192,129065,1,0,0:0:0:0:
402,192,129065,1,0,0:0:0:0:
36,192,129144,1,0,0:0:0:50:kick.wav
182,192,129144,1,0,0:0:0:0:
475,192,129144,1,0,0:0:0:0:
402,192,129197,1,0,0:0:0:0:
329,192,129250,1,0,0:0:0:0:
256,192,129302,1,0,0:0:0:50:kick.wav
182,192,129355,1,0,0:0:0:0:
109,192,129407,1,0,0:0:0:0:
36,192,129460,1,0,0:0:0:0:
329,192,129460,1,0,0:0:0:0:
475,192,129460,1,0,0:0:0:0:
182,192,129539,1,0,0:0:0:0:
256,192,129539,1,0,0:0:0:0:
109,192,129618,1,0,0:0:0:0:
402,192,129618,1,0,0:0:0:0:
256,192,129697,1,0,0:0:0:0:
329,192,129697,1,0,0:0:0:0:
36,192,129776,1,0,0:0:0:0:
182,192,129776,1,0,0:0:0:0:
329,192,129855,1,0,0:0:0:0:
402,192,129855,1,0,0:0:0:0:
109,192,129934,1,0,0:0:0:0:
256,192,129934,1,0,0:0:0:0:
402,192,130013,1,0,0:0:0:0:
475,192,130013,1,0,0:0:0:0:
36,192,130092,1,0,0:0:0:50:kick.wav
182,192,130092,1,0,0:0:0:50:cymbal.wav
329,192,130092,1,0,0:0:0:0:
256,192,130250,1,0,0:0:0:50:kick.wav
402,192,130250,1,0,0:0:0:0:
475,192,130250,1,0,0:0:0:0:
182,192,130407,1,0,0:0:0:50:kick.wav
329,192,130407,1,0,0:0:0:0:
402,192,130407,1,0,0:0:0:0:
109,192,130565,1,0,0:0:0:50:kick.wav
256,192,130565,1,0,0:0:0:0:
329,192,130565,1,0,0:0:0:0:
36,192,130723,1,0,0:0:0:50:kick.wav
182,192,130723,1,0,0:0:0:0:
475,192,130723,1,0,0:0:0:0:
36,192,130881,1,0,0:0:0:50:kick.wav
256,192,130881,1,0,0:0:0:0:
402,192,130881,1,0,0:0:0:0:
109,192,131039,1,0,0:0:0:50:kick.wav
329,192,131039,1,0,0:0:0:0:
475,192,131039,1,0,0:0:0:0:
182,192,131197,1,0,0:0:0:50:kick.wav
402,192,131197,1,0,0:0:0:0:
475,192,131197,1,0,0:0:0:0:
36,192,131355,1,0,0:0:0:50:kick.wav
109,192,131355,1,0,0:0:0:50:cymbal.wav
256,192,131355,1,0,0:0:0:0:
329,192,131434,1,0,0:0:0:0:
475,192,131434,1,0,0:0:0:0:
36,192,131513,1,0,0:0:0:50:kick.wav
109,192,131513,1,0,0:0:0:0:
182,192,131513,1,0,0:0:0:0:
256,192,131592,1,0,0:0:0:0:
402,192,131592,1,0,0:0:0:0:
36,192,131671,1,0,0:0:0:50:kick.wav
109,192,131671,1,0,0:0:0:0:
475,192,131671,1,0,0:0:0:0:
329,192,131750,1,0,0:0:0:0:
182,192,131828,1,0,0:0:0:50:kick.wav
402,192,131828,1,0,0:0:0:0:
475,192,131828,1,0,0:0:0:0:
256,192,131907,1,0,0:0:0:0:
36,192,131986,1,0,0:0:0:50:kick.wav
109,192,131986,1,0,0:0:0:0:
329,192,131986,1,0,0:0:0:0:
182,192,132065,1,0,0:0:0:0:
402,192,132065,1,0,0:0:0:0:
36,192,132144,1,0,0:0:0:50:kick.wav
256,192,132144,1,0,0:0:0:0:
475,192,132144,1,0,0:0:0:0:
109,192,132223,1,0,0:0:0:0:
329,192,132223,1,0,0:0:0:0:
182,192,132302,1,0,0:0:0:50:kick.wav
402,192,132302,1,0,0:0:0:0:
475,192,132302,1,0,0:0:0:0:
36,192,132381,1,0,0:0:0:0:
256,192,132381,1,0,0:0:0:0:
329,192,132460,1,0,0:0:0:50:kick.wav
402,192,132460,1,0,0:0:0:0:
475,192,132460,1,0,0:0:0:0:
36,192,132539,1,0,0:0:0:0:
109,192,132539,1,0,0:0:0:0:
256,192,132618,1,0,0:0:0:50:kick.wav
402,192,132618,1,0,0:0:0:50:cymbal.wav
475,192,132618,1,0,0:0:0:0:
109,192,132697,1,0,0:0:0:0:
182,192,132697,1,0,0:0:0:0:
36,192,132776,1,0,0:0:0:50:kick.wav
329,192,132776,1,0,0:0:0:0:
475,192,132776,1,0,0:0:0:0:
182,192,132855,1,0,0:0:0:0:
256,192,132855,1,0,0:0:0:0:
109,192,132934,1,0,0:0:0:50:kick.wav
402,192,132934,1,0,0:0:0:0:
475,192,132934,1,0,0:0:0:0:
36,192,133013,1,0,0:0:0:0:
182,192,133092,1,0,0:0:0:50:kick.wav
329,192,133092,1,0,0:0:0:0:
475,192,133092,1,0,0:0:0:0:
109,192,133171,1,0,0:0:0:0:
256,192,133250,1,0,0:0:0:50:kick.wav
402,192,133250,1,0,0:0:0:0:
475,192,133250,1,0,0:0:0:0:
36,192,133328,1,0,0:0:0:0:
182,192,133328,1,0,0:0:0:0:
109,192,133407,1,0,0:0:0:50:kick.wav
329,192,133407,1,0,0:0:0:0:
475,192,133407,1,0,0:0:0:0:
36,192,133486,1,0,0:0:0:0:
256,192,133486,1,0,0:0:0:0:
182,192,133565,1,0,0:0:0:50:kick.wav
402,192,133565,1,0,0:0:0:0:
475,192,133565,1,0,0:0:0:0:
109,192,133644,1,0,0:0:0:0:
329,192,133644,1,0,0:0:0:0:
256,192,133723,1,0,0:0:0:50:kick.wav
402,192,133723,1,0,0:0:0:0:
475,192,133723,1,0,0:0:0:0:
36,192,133802,1,0,0:0:0:0:
182,192,133802,1,0,0:0:0:0:
329,192,133881,1,0,0:0:0:50:kick.wav
402,192,133881,1,0,0:0:0:0:
475,192,133881,1,0,0:0:0:0:
36,192,133960,1,0,0:0:0:50:kick.wav
182,192,133960,1,0,0:0:0:0:
256,192,134039,1,0,0:0:0:50:kick.wav
475,192,134039,1,0,0:0:0:0:
109,192,134118,1,0,0:0:0:50:kick.wav
329,192,134118,1,0,0:0:0:0:
182,192,134197,1,0,0:0:0:50:kick.wav
402,192,134197,1,0,0:0:0:0:
475,192,134197,1,0,0:0:0:0:
36,192,134276,1,0,0:0:0:50:kick.wav
256,192,134276,1,0,0:0:0:0:
329,192,134355,1,0,0:0:0:50:kick.wav
475,192,134355,1,0,0:0:0:0:
109,192,134434,1,0,0:0:0:50:kick.wav
182,192,134434,1,0,0:0:0:0:
256,192,134513,1,0,0:0:0:50:kick.wav
402,192,134513,1,0,0:0:0:0:
475,192,134513,1,0,0:0:0:0:
36,192,134592,1,0,0:0:0:50:kick.wav
109,192,134592,1,0,0:0:0:0:
182,192,134671,1,0,0:0:0:50:kick.wav
329,192,134671,1,0,0:0:0:0:
402,192,134750,1,0,0:0:0:50:kick.wav
475,192,134750,1,0,0:0:0:0:
36,192,134828,1,0,0:0:0:50:kick.wav
109,192,134828,1,0,0:0:0:0:
256,192,134828,1,0,0:0:0:0:
329,192,134907,1,0,0:0:0:50:kick.wav
475,192,134907,1,0,0:0:0:0:
109,192,134986,1,0,0:0:0:50:kick.wav
182,192,134986,1,0,0:0:0:0:
256,192,135065,1,0,0:0:0:50:kick.wav
402,192,135065,1,0,0:0:0:0:
36,192,135144,1,0,0:0:0:50:kick.wav
109,192,135144,1,0,0:0:0:50:cymbal.wav
329,192,135144,1,0,0:0:0:0:
475,192,135144,1,0,0:0:0:0:
36,192,135460,1,0,0:0:0:0:
109,192,135513,1,0,0:0:0:0:
182,192,135565,1,0,0:0:0:0:
256,192,135618,1,0,0:0:0:0:
329,192,135671,1,0,0:0:0:0:
402,192,135723,1,0,0:0:0:0:
36,192,135776,1,0,0:0:0:50:kick.wav
109,192,135776,1,0,0:0:0:50:cymbal.wav
182,192,135776,1,0,0:0:0:0:
475,192,135776,1,0,0:0:0:0:
109,192,136092,1,0,0:0:0:50:kick.wav
182,192,136092,1,0,0:0:0:50:cymbal.wav
329,192,136092,1,0,0:0:0:0:
402,192,136092,1,0,0:0:0:0:
36,192,136407,1,0,0:0:0:50:kick.wav
182,192,136407,1,0,0:0:0:50:cymbal.wav
329,192,136407,1,0,0:0:0:0:
475,192,136407,1,0,0:0:0:0:
256,192,136407,1,0,0:0:0:0:
