osu file format v14

[General]
AudioFilename: audio.mp3
AudioLeadIn: 0
PreviewTime: 38691
Countdown: 0
SampleSet: None
StackLeniency: 0.7
Mode: 1
LetterboxInBreaks: 0
WidescreenStoryboard: 1

[Editor]
DistanceSpacing: 1
BeatDivisor: 4
GridSize: 32
TimelineZoom: 1.2

[Metadata]
Title:Ultra Happy Miracle Bazoooooka!!
TitleUnicode:Ultra Happy Miracle Bazoooooka!!
Artist:Hino Isuka + Umeboshi Chazuke
ArtistUnicode:翡乃イスカ + 梅干茶漬け
Creator:RedBall
Version:Oni
Source:BMS
Tags:bofu 2017 happiness bomber
BeatmapID:1560982
BeatmapSetID:739840

[Difficulty]
HPDrainRate:5
CircleSize:2
OverallDifficulty:5
ApproachRate:5
SliderMultiplier:1.4
SliderTickRate:1

[Events]
//Background and Video events
0,0,"BOMBER.png",0,0
//Break Periods
//Storyboard Layer 0 (Background)
//Storyboard Layer 1 (Fail)
//Storyboard Layer 2 (Pass)
//Storyboard Layer 3 (Foreground)
//Storyboard Sound Samples

[TimingPoints]
291,300,4,1,0,75,1,0
591,300,4,1,0,75,1,0
7791,-100,4,1,0,80,0,0
8391,-100,4,1,0,85,0,0
14091,-101.010101010101,4,1,0,85,0,0
14166,-102.040816326531,4,1,0,85,0,0
14241,-103.092783505155,4,1,0,85,0,0
14391,-105.263157894737,4,1,0,85,0,0
14691,-111.111111111111,4,1,0,85,0,0
14991,-100,4,1,0,85,0,0
18591,-100,4,1,0,40,0,0
18741,-100,4,1,0,50,0,0
18891,-100,4,1,0,55,0,0
19041,-100,4,1,0,55,0,0
19191,-100,4,1,0,60,0,0
19341,-100,4,1,0,65,0,0
19491,-100,4,1,0,70,0,0
19791,-100,4,1,0,85,0,0
38991,-100,4,1,0,90,0,1
58191,-100,4,1,0,85,0,0
66591,-100,4,1,0,75,0,0
67341,-100,4,1,0,85,0,0
67791,-100,4,1,0,90,0,1
72291,-100,4,1,0,80,0,0
72591,-100,4,1,0,90,0,1
76191,-100,4,1,0,70,0,0
76491,-100,4,1,0,65,0,0
76791,-100,4,1,0,60,0,0
77091,-100,4,1,0,55,0,0
77391,-100,4,1,0,50,0,0
77691,-100,4,1,0,40,0,0
78741,-100,4,1,0,45,0,0
78891,-100,4,1,0,50,0,0
79041,-100,4,1,0,55,0,0
79191,-100,4,1,0,60,0,0
79341,-100,4,1,0,70,0,0
79491,-100,4,1,0,75,0,0
79641,-101.010101010101,4,1,0,75,0,0
79716,-102.040816326531,4,1,0,75,0,0
79791,-103.092783505155,4,1,0,75,0,0
88491,-100,4,1,0,60,0,0
88641,-100,4,1,0,65,0,0
88791,-100,4,1,0,70,0,0
89391,-102.040816326531,4,1,0,75,0,0
91791,-101.010101010101,4,1,0,80,0,0
94191,-100,4,1,0,80,0,0
101391,-100,4,1,0,95,0,1
118191,-100,4,1,0,95,0,0
120141,-100,4,1,0,70,0,0
120591,-100,4,1,0,90,0,0

[HitObjects]
256,192,291,5,0,0:0:0:0:
256,192,366,1,0,0:0:0:0:
256,192,441,1,0,0:0:0:0:
256,192,591,1,8,0:0:0:0:
256,192,741,1,0,0:0:0:0:
256,192,891,1,8,0:0:0:0:
256,192,1041,1,0,0:0:0:0:
256,192,1341,1,0,0:0:0:0:
256,192,1416,1,0,0:0:0:0:
256,192,1491,1,0,0:0:0:0:
256,192,1641,1,8,0:0:0:0:
256,192,1941,1,0,0:0:0:0:
256,192,2016,1,8,0:0:0:0:
256,192,2091,1,0,0:0:0:0:
256,192,2241,1,0,0:0:0:0:
256,192,2391,1,8,0:0:0:0:
256,192,2541,1,0,0:0:0:0:
256,192,2691,1,8,0:0:0:0:
256,192,2841,1,0,0:0:0:0:
256,192,2991,1,8,0:0:0:0:
256,192,3141,1,8,0:0:0:0:
256,192,3291,1,0,0:0:0:0:
256,192,3441,1,8,0:0:0:0:
256,192,3741,1,0,0:0:0:0:
256,192,3816,1,8,0:0:0:0:
256,192,3891,1,8,0:0:0:0:
256,192,4041,1,8,0:0:0:0:
256,192,4341,1,8,0:0:0:0:
256,192,4416,1,0,0:0:0:0:
256,192,4491,1,8,0:0:0:0:
256,192,4641,1,0,0:0:0:0:
256,192,4791,1,8,0:0:0:0:
256,192,4941,1,0,0:0:0:0:
256,192,5091,1,8,0:0:0:0:
256,192,5241,1,8,0:0:0:0:
256,192,5391,1,0,0:0:0:0:
256,192,5541,1,0,0:0:0:0:
256,192,5616,1,0,0:0:0:0:
256,192,5691,1,0,0:0:0:0:
256,192,5841,1,8,0:0:0:0:
256,192,5991,1,0,0:0:0:0:
256,192,6066,1,0,0:0:0:0:
256,192,6141,1,8,0:0:0:0:
256,192,6291,1,8,0:0:0:0:
256,192,6441,1,8,0:0:0:0:
256,192,6516,1,8,0:0:0:0:
256,192,6591,1,0,0:0:0:0:
256,192,6741,1,0,0:0:0:0:
256,192,6891,1,8,0:0:0:0:
256,192,7191,1,8,0:0:0:0:
256,192,7341,1,8,0:0:0:0:
256,192,7491,1,0,0:0:0:0:
256,192,7566,1,0,0:0:0:0:
256,192,7641,1,8,0:0:0:0:
256,192,7791,1,8,0:0:0:0:
256,192,7941,1,0,0:0:0:0:
256,192,8016,1,0,0:0:0:0:
256,192,8091,1,0,0:0:0:0:
256,192,8241,1,8,0:0:0:0:
256,192,8391,1,0,0:0:0:0:
256,192,8466,1,0,0:0:0:0:
256,192,8541,1,0,0:0:0:0:
256,192,8691,1,8,0:0:0:0:
256,192,8841,1,4,0:0:0:0:
256,192,9141,1,4,0:0:0:0:
256,192,9291,1,4,0:0:0:0:
256,192,9441,1,4,0:0:0:0:
256,192,9591,1,4,0:0:0:0:
256,192,9891,1,8,0:0:0:0:
256,192,9966,1,8,0:0:0:0:
256,192,10041,1,8,0:0:0:0:
256,192,10116,1,8,0:0:0:0:
256,192,10191,1,0,0:0:0:0:
256,192,10491,1,0,0:0:0:0:
256,192,10791,1,8,0:0:0:0:
256,192,10941,1,0,0:0:0:0:
256,192,11016,1,0,0:0:0:0:
256,192,11166,1,0,0:0:0:0:
256,192,11241,1,8,0:0:0:0:
256,192,11391,1,0,0:0:0:0:
256,192,11541,1,0,0:0:0:0:
256,192,11691,1,8,0:0:0:0:
256,192,11841,1,0,0:0:0:0:
256,192,11991,1,8,0:0:0:0:
256,192,12141,1,0,0:0:0:0:
256,192,12216,1,0,0:0:0:0:
256,192,12441,1,8,0:0:0:0:
256,192,12516,1,8,0:0:0:0:
256,192,12591,1,0,0:0:0:0:
256,192,12891,1,0,0:0:0:0:
256,192,13191,1,8,0:0:0:0:
256,192,13341,1,0,0:0:0:0:
256,192,13416,1,0,0:0:0:0:
256,192,13566,1,0,0:0:0:0:
256,192,13641,1,8,0:0:0:0:
256,192,13791,1,0,0:0:0:0:
256,192,13941,1,8,0:0:0:0:
256,192,14016,1,8,0:0:0:0:
256,192,14091,1,0,0:0:0:0:
256,192,14241,1,0,0:0:0:0:
256,192,14391,1,0,0:0:0:0:
256,192,14691,1,0,0:0:0:0:
256,192,14991,1,12,0:0:0:0:
256,192,15141,1,0,0:0:0:0:
256,192,15216,1,0,0:0:0:0:
256,192,15291,1,8,0:0:0:0:
256,192,15441,1,0,0:0:0:0:
256,192,15516,1,0,0:0:0:0:
256,192,15591,1,8,0:0:0:0:
256,192,15741,1,0,0:0:0:0:
256,192,15816,1,0,0:0:0:0:
256,192,15891,1,8,0:0:0:0:
256,192,16041,1,0,0:0:0:0:
256,192,16191,1,8,0:0:0:0:
256,192,16341,1,8,0:0:0:0:
256,192,16491,1,8,0:0:0:0:
256,192,16641,1,8,0:0:0:0:
256,192,16791,1,8,0:0:0:0:
256,192,16866,1,8,0:0:0:0:
256,192,16941,1,8,0:0:0:0:
256,192,17091,1,8,0:0:0:0:
256,192,17241,1,8,0:0:0:0:
256,192,17391,1,0,0:0:0:0:
256,192,17466,1,0,0:0:0:0:
256,192,17541,1,8,0:0:0:0:
256,192,17691,1,8,0:0:0:0:
256,192,17841,1,8,0:0:0:0:
256,192,17991,1,4,0:0:0:0:
256,192,18216,1,4,0:0:0:0:
256,192,18441,1,12,0:0:0:0:
256,192,18591,1,4,0:0:0:0:
256,192,18741,1,8,0:0:0:0:
256,192,18891,1,8,0:0:0:0:
256,192,19041,1,8,0:0:0:0:
256,192,19191,1,8,0:0:0:0:
256,192,19341,1,8,0:0:0:0:
256,192,19491,1,0,0:0:0:0:
256,192,20091,1,12,0:0:0:0:
256,192,20391,1,0,0:0:0:0:
256,192,20541,1,0,0:0:0:0:
256,192,20616,1,0,0:0:0:0:
256,192,20691,1,8,0:0:0:0:
256,192,20841,1,0,0:0:0:0:
256,192,20991,1,8,0:0:0:0:
256,192,21066,1,8,0:0:0:0:
256,192,21141,1,0,0:0:0:0:
256,192,21291,1,8,0:0:0:0:
256,192,21591,1,4,0:0:0:0:
256,192,21816,1,4,0:0:0:0:
256,192,22041,1,12,0:0:0:0:
256,192,22191,1,0,0:0:0:0:
256,192,22341,1,8,0:0:0:0:
256,192,22416,1,8,0:0:0:0:
256,192,22491,1,0,0:0:0:0:
256,192,22641,1,0,0:0:0:0:
256,192,22791,1,0,0:0:0:0:
256,192,22866,1,0,0:0:0:0:
256,192,22941,1,0,0:0:0:0:
256,192,23091,1,8,0:0:0:0:
256,192,23391,1,8,0:0:0:0:
256,192,23466,1,8,0:0:0:0:
256,192,23541,1,8,0:0:0:0:
256,192,23691,1,8,0:0:0:0:
256,192,23841,1,0,0:0:0:0:
256,192,23991,1,0,0:0:0:0:
256,192,24141,1,0,0:0:0:0:
256,192,24291,1,8,0:0:0:0:
256,192,24591,1,0,0:0:0:0:
256,192,24741,1,0,0:0:0:0:
256,192,24816,1,0,0:0:0:0:
256,192,24891,1,8,0:0:0:0:
256,192,25041,1,0,0:0:0:0:
256,192,25191,1,8,0:0:0:0:
256,192,25266,1,0,0:0:0:0:
256,192,25341,1,8,0:0:0:0:
256,192,25491,1,8,0:0:0:0:
256,192,25791,1,8,0:0:0:0:
256,192,25941,1,0,0:0:0:0:
256,192,26016,1,0,0:0:0:0:
256,192,26091,1,8,0:0:0:0:
256,192,26241,1,0,0:0:0:0:
256,192,26316,1,0,0:0:0:0:
256,192,26391,1,8,0:0:0:0:
256,192,26541,1,0,0:0:0:0:
256,192,26616,1,0,0:0:0:0:
256,192,26691,1,8,0:0:0:0:
256,192,26841,1,0,0:0:0:0:
256,192,26991,1,12,0:0:0:0:
256,192,27291,1,8,0:0:0:0:
256,192,27441,1,0,0:0:0:0:
256,192,27591,1,8,0:0:0:0:
256,192,27741,1,0,0:0:0:0:
256,192,27816,1,0,0:0:0:0:
256,192,27966,1,0,0:0:0:0:
256,192,28041,1,8,0:0:0:0:
256,192,28191,1,0,0:0:0:0:
256,192,28341,1,0,0:0:0:0:
256,192,28491,1,8,0:0:0:0:
256,192,28641,1,0,0:0:0:0:
256,192,28791,1,8,0:0:0:0:
256,192,28941,1,0,0:0:0:0:
256,192,29016,1,8,0:0:0:0:
256,192,29091,1,0,0:0:0:0:
256,192,29241,1,0,0:0:0:0:
256,192,29391,1,8,0:0:0:0:
256,192,29691,1,0,0:0:0:0:
256,192,29766,1,0,0:0:0:0:
256,192,29841,1,0,0:0:0:0:
256,192,29991,1,12,0:0:0:0:
256,192,30216,1,12,0:0:0:0:
256,192,30441,1,12,0:0:0:0:
256,192,30591,1,0,0:0:0:0:
256,192,30741,1,0,0:0:0:0:
256,192,30816,1,0,0:0:0:0:
256,192,30891,1,8,0:0:0:0:
256,192,31041,1,0,0:0:0:0:
256,192,31191,1,8,0:0:0:0:
256,192,31266,1,8,0:0:0:0:
256,192,31341,1,8,0:0:0:0:
256,192,31491,1,8,0:0:0:0:
256,192,31791,1,8,0:0:0:0:
256,192,31941,1,0,0:0:0:0:
256,192,32016,1,0,0:0:0:0:
256,192,32091,1,8,0:0:0:0:
256,192,32241,1,0,0:0:0:0:
256,192,32391,1,0,0:0:0:0:
256,192,32466,1,0,0:0:0:0:
256,192,32541,1,8,0:0:0:0:
256,192,32616,1,8,0:0:0:0:
256,192,32691,1,0,0:0:0:0:
256,192,32991,1,0,0:0:0:0:
256,192,33141,1,8,0:0:0:0:
256,192,33216,1,8,0:0:0:0:
256,192,33291,1,0,0:0:0:0:
256,192,33441,1,0,0:0:0:0:
256,192,33591,1,0,0:0:0:0:
256,192,33891,1,0,0:0:0:0:
256,192,34191,1,4,0:0:0:0:
256,192,34491,1,0,0:0:0:0:
256,192,34566,1,0,0:0:0:0:
256,192,34641,1,0,0:0:0:0:
256,192,34791,1,12,0:0:0:0:
256,192,35091,1,8,0:0:0:0:
256,192,35166,1,8,0:0:0:0:
256,192,35241,1,8,0:0:0:0:
256,192,35391,1,0,0:0:0:0:
256,192,35541,1,0,0:0:0:0:
256,192,35616,1,0,0:0:0:0:
256,192,35691,1,8,0:0:0:0:
256,192,35766,1,8,0:0:0:0:
256,192,35841,1,0,0:0:0:0:
256,192,35991,1,8,0:0:0:0:
256,192,36141,1,0,0:0:0:0:
256,192,36291,1,0,0:0:0:0:
256,192,36591,2,0,L|416:160,1,140
256,192,37191,1,12,0:0:0:0:
256,192,37416,1,12,0:0:0:0:
256,192,37641,1,12,0:0:0:0:
256,192,37791,1,4,0:0:0:0:
256,192,38091,1,8,0:0:0:0:
256,192,38166,1,8,0:0:0:0:
256,192,38241,1,0,0:0:0:0:
256,192,38391,1,0,0:0:0:0:
256,192,38541,1,0,0:0:0:0:
256,192,38691,1,8,0:0:0:0:
256,192,38991,1,8,0:0:0:0:
256,192,39291,1,8,0:0:0:0:
256,192,39441,1,0,0:0:0:0:
256,192,39591,1,8,0:0:0:0:
256,192,39741,1,0,0:0:0:0:
256,192,39816,1,0,0:0:0:0:
256,192,39966,1,0,0:0:0:0:
256,192,40041,1,8,0:0:0:0:
256,192,40191,1,0,0:0:0:0:
256,192,40341,1,0,0:0:0:0:
256,192,40416,1,0,0:0:0:0:
256,192,40491,1,0,0:0:0:0:
256,192,40641,1,8,0:0:0:0:
256,192,40791,1,0,0:0:0:0:
256,192,40941,1,0,0:0:0:0:
256,192,41091,1,8,0:0:0:0:
256,192,41241,1,0,0:0:0:0:
256,192,41391,1,8,0:0:0:0:
256,192,41691,1,8,0:0:0:0:
256,192,41841,1,0,0:0:0:0:
256,192,41991,1,8,0:0:0:0:
256,192,42141,1,0,0:0:0:0:
256,192,42216,1,0,0:0:0:0:
256,192,42366,1,0,0:0:0:0:
256,192,42441,1,8,0:0:0:0:
256,192,42591,1,0,0:0:0:0:
256,192,42741,1,8,0:0:0:0:
256,192,42816,1,0,0:0:0:0:
256,192,42891,1,8,0:0:0:0:
256,192,43041,1,0,0:0:0:0:
256,192,43191,1,8,0:0:0:0:
256,192,43341,1,8,0:0:0:0:
256,192,43416,1,8,0:0:0:0:
256,192,43491,1,8,0:0:0:0:
256,192,43641,1,8,0:0:0:0:
256,192,43791,1,8,0:0:0:0:
256,192,44091,1,8,0:0:0:0:
256,192,44241,1,0,0:0:0:0:
256,192,44391,1,8,0:0:0:0:
256,192,44541,1,0,0:0:0:0:
256,192,44616,1,0,0:0:0:0:
256,192,44766,1,0,0:0:0:0:
256,192,44841,1,8,0:0:0:0:
256,192,44991,1,0,0:0:0:0:
256,192,45141,1,0,0:0:0:0:
256,192,45216,1,0,0:0:0:0:
256,192,45291,1,0,0:0:0:0:
256,192,45441,1,8,0:0:0:0:
256,192,45591,1,0,0:0:0:0:
256,192,45741,1,8,0:0:0:0:
256,192,45891,1,0,0:0:0:0:
256,192,46041,1,0,0:0:0:0:
256,192,46191,1,8,0:0:0:0:
256,192,46491,1,8,0:0:0:0:
256,192,46641,1,0,0:0:0:0:
256,192,46791,1,8,0:0:0:0:
256,192,46941,1,0,0:0:0:0:
256,192,47016,1,0,0:0:0:0:
256,192,47166,1,8,0:0:0:0:
256,192,47241,1,8,0:0:0:0:
256,192,47391,1,4,0:0:0:0:
256,192,47541,1,8,0:0:0:0:
256,192,47616,1,0,0:0:0:0:
256,192,47691,1,8,0:0:0:0:
256,192,47841,1,0,0:0:0:0:
256,192,47991,1,12,0:0:0:0:
256,192,48216,1,12,0:0:0:0:
256,192,48441,1,12,0:0:0:0:
256,192,48591,1,8,0:0:0:0:
256,192,48891,1,8,0:0:0:0:
256,192,49041,1,0,0:0:0:0:
256,192,49191,1,8,0:0:0:0:
256,192,49341,1,0,0:0:0:0:
256,192,49416,1,0,0:0:0:0:
256,192,49566,1,0,0:0:0:0:
256,192,49641,1,8,0:0:0:0:
256,192,49791,1,0,0:0:0:0:
256,192,49941,1,0,0:0:0:0:
256,192,50016,1,0,0:0:0:0:
256,192,50091,1,0,0:0:0:0:
256,192,50241,1,8,0:0:0:0:
256,192,50391,1,0,0:0:0:0:
256,192,50541,1,0,0:0:0:0:
256,192,50691,1,8,0:0:0:0:
256,192,50841,1,0,0:0:0:0:
256,192,50991,1,8,0:0:0:0:
256,192,51291,1,8,0:0:0:0:
256,192,51441,1,0,0:0:0:0:
256,192,51591,1,8,0:0:0:0:
256,192,51741,1,0,0:0:0:0:
256,192,51816,1,0,0:0:0:0:
256,192,51966,1,8,0:0:0:0:
256,192,52041,1,8,0:0:0:0:
256,192,52191,1,0,0:0:0:0:
256,192,52341,1,8,0:0:0:0:
256,192,52416,1,8,0:0:0:0:
256,192,52491,1,0,0:0:0:0:
256,192,52641,1,8,0:0:0:0:
256,192,52791,1,0,0:0:0:0:
256,192,52941,1,0,0:0:0:0:
256,192,53091,1,8,0:0:0:0:
256,192,53241,1,0,0:0:0:0:
256,192,53391,1,8,0:0:0:0:
256,192,53541,1,0,0:0:0:0:
256,192,53616,1,0,0:0:0:0:
256,192,53766,1,0,0:0:0:0:
256,192,53841,1,0,0:0:0:0:
256,192,53991,1,0,0:0:0:0:
256,192,54066,1,0,0:0:0:0:
256,192,54141,1,0,0:0:0:0:
256,192,54216,1,0,0:0:0:0:
256,192,54291,1,8,0:0:0:0:
256,192,54591,1,8,0:0:0:0:
256,192,54741,1,8,0:0:0:0:
256,192,54816,1,8,0:0:0:0:
256,192,54966,1,0,0:0:0:0:
256,192,55041,1,0,0:0:0:0:
256,192,55191,1,8,0:0:0:0:
256,192,55266,1,8,0:0:0:0:
256,192,55341,1,8,0:0:0:0:
256,192,55416,1,8,0:0:0:0:
256,192,55491,1,0,0:0:0:0:
256,192,55791,1,0,0:0:0:0:
256,192,55941,1,0,0:0:0:0:
256,192,56016,1,0,0:0:0:0:
256,192,56091,1,8,0:0:0:0:
256,192,56241,1,0,0:0:0:0:
256,192,56316,1,0,0:0:0:0:
256,192,56391,1,8,0:0:0:0:
256,192,56541,1,0,0:0:0:0:
256,192,56616,1,0,0:0:0:0:
256,192,56691,1,8,0:0:0:0:
256,192,56841,1,12,0:0:0:0:
256,192,57141,1,12,0:0:0:0:
256,192,57291,1,12,0:0:0:0:
256,192,57441,1,4,0:0:0:0:
256,192,57591,1,12,0:0:0:0:
256,192,57741,1,0,0:0:0:0:
256,192,57816,1,0,0:0:0:0:
256,192,57891,1,8,0:0:0:0:
256,192,58191,1,0,0:0:0:0:
256,192,58266,1,0,0:0:0:0:
256,192,58341,1,8,0:0:0:0:
256,192,58416,1,0,0:0:0:0:
256,192,58491,1,8,0:0:0:0:
256,192,58791,1,8,0:0:0:0:
256,192,58866,1,8,0:0:0:0:
256,192,58941,1,0,0:0:0:0:
256,192,59016,1,0,0:0:0:0:
256,192,59091,1,8,0:0:0:0:
256,192,59391,1,8,0:0:0:0:
256,192,59541,1,0,0:0:0:0:
256,192,59691,1,0,0:0:0:0:
256,192,59766,1,8,0:0:0:0:
256,192,59841,1,8,0:0:0:0:
256,192,59991,1,8,0:0:0:0:
256,192,60141,1,0,0:0:0:0:
256,192,60216,1,0,0:0:0:0:
256,192,60291,1,0,0:0:0:0:
256,192,60591,1,8,0:0:0:0:
256,192,60666,1,8,0:0:0:0:
256,192,60741,1,0,0:0:0:0:
256,192,60891,1,8,0:0:0:0:
256,192,60966,1,8,0:0:0:0:
256,192,61041,1,0,0:0:0:0:
256,192,61191,1,8,0:0:0:0:
256,192,61266,1,8,0:0:0:0:
256,192,61341,1,0,0:0:0:0:
256,192,61416,1,0,0:0:0:0:
256,192,61491,1,0,0:0:0:0:
256,192,61641,1,0,0:0:0:0:
256,192,61791,1,0,0:0:0:0:
256,192,62091,1,8,0:0:0:0:
256,192,62241,1,0,0:0:0:0:
256,192,62391,1,8,0:0:0:0:
256,192,62541,1,8,0:0:0:0:
256,192,62691,1,4,0:0:0:0:
256,192,62991,1,0,0:0:0:0:
256,192,63066,1,0,0:0:0:0:
256,192,63141,1,8,0:0:0:0:
256,192,63216,1,8,0:0:0:0:
256,192,63291,1,0,0:0:0:0:
256,192,63591,1,8,0:0:0:0:
256,192,63666,1,0,0:0:0:0:
256,192,63741,1,8,0:0:0:0:
256,192,63816,1,8,0:0:0:0:
256,192,63891,1,0,0:0:0:0:
256,192,64191,1,8,0:0:0:0:
256,192,64341,1,0,0:0:0:0:
256,192,64491,1,8,0:0:0:0:
256,192,64566,1,0,0:0:0:0:
256,192,64641,1,8,0:0:0:0:
256,192,64791,1,8,0:0:0:0:
256,192,64941,1,0,0:0:0:0:
256,192,65091,1,8,0:0:0:0:
256,192,65166,1,8,0:0:0:0:
256,192,65241,1,0,0:0:0:0:
256,192,65391,1,8,0:0:0:0:
256,192,65691,1,8,0:0:0:0:
256,192,65991,1,12,0:0:0:0:
256,192,66141,1,12,0:0:0:0:
256,192,66291,1,12,0:0:0:0:
256,192,66441,1,12,0:0:0:0:
256,192,66591,1,0,0:0:0:0:
256,192,67341,1,0,0:0:0:0:
256,192,67416,1,0,0:0:0:0:
256,192,67491,1,8,0:0:0:0:
256,192,67791,1,0,0:0:0:0:
256,192,67941,1,8,0:0:0:0:
256,192,68016,1,8,0:0:0:0:
256,192,68091,1,0,0:0:0:0:
256,192,68241,1,8,0:0:0:0:
256,192,68391,1,0,0:0:0:0:
256,192,68466,1,0,0:0:0:0:
256,192,68541,1,8,0:0:0:0:
256,192,68691,1,0,0:0:0:0:
256,192,68841,1,8,0:0:0:0:
256,192,68916,1,8,0:0:0:0:
256,192,68991,1,8,0:0:0:0:
256,192,69141,1,0,0:0:0:0:
256,192,69291,1,8,0:0:0:0:
256,192,69441,1,8,0:0:0:0:
256,192,69591,1,8,0:0:0:0:
256,192,69666,1,0,0:0:0:0:
256,192,69741,1,0,0:0:0:0:
256,192,69891,1,8,0:0:0:0:
256,192,70191,1,8,0:0:0:0:
256,192,70266,1,8,0:0:0:0:
256,192,70341,1,0,0:0:0:0:
256,192,70491,1,8,0:0:0:0:
256,192,70566,1,8,0:0:0:0:
256,192,70641,1,0,0:0:0:0:
256,192,70791,1,8,0:0:0:0:
256,192,70866,1,8,0:0:0:0:
256,192,70941,1,0,0:0:0:0:
256,192,71016,1,0,0:0:0:0:
256,192,71091,1,0,0:0:0:0:
256,192,71241,1,0,0:0:0:0:
256,192,71391,1,0,0:0:0:0:
256,192,71691,1,8,0:0:0:0:
256,192,71841,1,0,0:0:0:0:
256,192,71991,1,8,0:0:0:0:
256,192,72141,1,8,0:0:0:0:
256,192,72291,1,8,0:0:0:0:
256,192,72366,1,8,0:0:0:0:
256,192,72441,1,0,0:0:0:0:
256,192,72591,1,0,0:0:0:0:
256,192,72741,1,0,0:0:0:0:
256,192,72816,1,0,0:0:0:0:
256,192,72891,1,8,0:0:0:0:
256,192,73041,1,0,0:0:0:0:
256,192,73191,1,8,0:0:0:0:
256,192,73341,1,8,0:0:0:0:
256,192,73416,1,8,0:0:0:0:
256,192,73491,1,0,0:0:0:0:
256,192,73641,1,8,0:0:0:0:
256,192,73791,1,8,0:0:0:0:
256,192,73866,1,8,0:0:0:0:
256,192,73941,1,0,0:0:0:0:
256,192,74091,1,8,0:0:0:0:
256,192,74166,1,8,0:0:0:0:
256,192,74241,1,0,0:0:0:0:
256,192,74316,1,0,0:0:0:0:
256,192,74391,1,8,0:0:0:0:
256,192,74541,1,8,0:0:0:0:
256,192,74691,1,8,0:0:0:0:
256,192,74841,1,8,0:0:0:0:
256,192,74991,1,8,0:0:0:0:
256,192,75066,1,8,0:0:0:0:
256,192,75141,1,0,0:0:0:0:
256,192,75291,1,8,0:0:0:0:
256,192,75366,1,8,0:0:0:0:
256,192,75441,1,0,0:0:0:0:
256,192,75591,1,8,0:0:0:0:
256,192,75741,1,8,0:0:0:0:
256,192,75816,1,8,0:0:0:0:
256,192,75891,1,8,0:0:0:0:
256,192,76041,1,8,0:0:0:0:
256,192,76191,2,0,L|416:192,3,140
256,192,77391,12,0,78291,0:0:0:0:
256,192,78591,5,8,0:0:0:0:
256,192,79041,1,8,0:0:0:0:
256,192,79116,1,8,0:0:0:0:
256,192,79191,1,8,0:0:0:0:
256,192,79341,1,8,0:0:0:0:
256,192,79491,1,0,0:0:0:0:
256,192,79566,1,0,0:0:0:0:
256,192,79641,1,0,0:0:0:0:
256,192,79716,1,0,0:0:0:0:
256,192,79791,1,8,0:0:0:0:
256,192,80091,1,8,0:0:0:0:
256,192,80241,1,0,0:0:0:0:
256,192,80391,1,8,0:0:0:0:
256,192,80541,1,0,0:0:0:0:
256,192,80616,1,0,0:0:0:0:
256,192,80766,1,0,0:0:0:0:
256,192,80841,1,8,0:0:0:0:
256,192,80991,1,0,0:0:0:0:
256,192,81141,1,0,0:0:0:0:
256,192,81291,1,8,0:0:0:0:
256,192,81591,1,0,0:0:0:0:
256,192,81741,1,0,0:0:0:0:
256,192,81891,1,8,0:0:0:0:
256,192,82041,1,0,0:0:0:0:
256,192,82191,1,8,0:0:0:0:
256,192,82491,1,8,0:0:0:0:
256,192,82641,1,0,0:0:0:0:
256,192,82791,1,8,0:0:0:0:
256,192,82941,1,0,0:0:0:0:
256,192,83016,1,0,0:0:0:0:
256,192,83166,1,0,0:0:0:0:
256,192,83241,1,8,0:0:0:0:
256,192,83391,1,0,0:0:0:0:
256,192,83541,1,8,0:0:0:0:
256,192,83691,1,0,0:0:0:0:
256,192,83991,1,0,0:0:0:0:
256,192,84141,1,8,0:0:0:0:
256,192,84291,1,8,0:0:0:0:
256,192,84441,1,0,0:0:0:0:
256,192,84591,1,8,0:0:0:0:
256,192,84891,1,8,0:0:0:0:
256,192,85041,1,0,0:0:0:0:
256,192,85191,1,8,0:0:0:0:
256,192,85341,1,0,0:0:0:0:
256,192,85416,1,0,0:0:0:0:
256,192,85566,1,0,0:0:0:0:
256,192,85641,1,8,0:0:0:0:
256,192,85791,1,0,0:0:0:0:
256,192,85941,1,0,0:0:0:0:
256,192,86091,1,8,0:0:0:0:
256,192,86391,1,8,0:0:0:0:
256,192,86541,1,8,0:0:0:0:
256,192,86691,1,0,0:0:0:0:
256,192,86841,1,8,0:0:0:0:
256,192,86991,1,4,0:0:0:0:
256,192,88491,12,0,89091,0:0:0:0:
256,192,89391,5,8,0:0:0:0:
256,192,89541,1,0,0:0:0:0:
256,192,89691,1,8,0:0:0:0:
256,192,89841,1,0,0:0:0:0:
256,192,89991,1,8,0:0:0:0:
256,192,90141,1,0,0:0:0:0:
256,192,90216,1,0,0:0:0:0:
256,192,90366,1,0,0:0:0:0:
256,192,90441,1,8,0:0:0:0:
256,192,90591,1,0,0:0:0:0:
256,192,90741,1,0,0:0:0:0:
256,192,90891,1,8,0:0:0:0:
256,192,91191,1,0,0:0:0:0:
256,192,91341,1,0,0:0:0:0:
256,192,91491,1,8,0:0:0:0:
256,192,91641,1,0,0:0:0:0:
256,192,91791,1,8,0:0:0:0:
256,192,92091,1,8,0:0:0:0:
256,192,92241,1,0,0:0:0:0:
256,192,92391,1,8,0:0:0:0:
256,192,92541,1,0,0:0:0:0:
256,192,92616,1,0,0:0:0:0:
256,192,92766,1,8,0:0:0:0:
256,192,92841,1,8,0:0:0:0:
256,192,92991,1,0,0:0:0:0:
256,192,93141,1,8,0:0:0:0:
256,192,93291,1,8,0:0:0:0:
256,192,93591,1,8,0:0:0:0:
256,192,93741,1,8,0:0:0:0:
256,192,93891,1,0,0:0:0:0:
256,192,94041,1,0,0:0:0:0:
256,192,94191,1,8,0:0:0:0:
256,192,94341,1,0,0:0:0:0:
256,192,94416,1,0,0:0:0:0:
256,192,94566,1,0,0:0:0:0:
256,192,94641,1,0,0:0:0:0:
256,192,94791,1,0,0:0:0:0:
256,192,94866,1,0,0:0:0:0:
256,192,94941,1,8,0:0:0:0:
256,192,95016,1,8,0:0:0:0:
256,192,95091,1,0,0:0:0:0:
256,192,95391,1,8,0:0:0:0:
256,192,95541,1,8,0:0:0:0:
256,192,95616,1,8,0:0:0:0:
256,192,95766,1,0,0:0:0:0:
256,192,95841,1,0,0:0:0:0:
256,192,95991,1,8,0:0:0:0:
256,192,96066,1,8,0:0:0:0:
256,192,96141,1,0,0:0:0:0:
256,192,96216,1,0,0:0:0:0:
256,192,96291,1,8,0:0:0:0:
256,192,96591,1,0,0:0:0:0:
256,192,96741,1,0,0:0:0:0:
256,192,96816,1,0,0:0:0:0:
256,192,96891,1,8,0:0:0:0:
256,192,97041,1,0,0:0:0:0:
256,192,97116,1,0,0:0:0:0:
256,192,97191,1,8,0:0:0:0:
256,192,97341,1,0,0:0:0:0:
256,192,97416,1,0,0:0:0:0:
256,192,97491,1,8,0:0:0:0:
256,192,97641,1,8,0:0:0:0:
256,192,97791,1,4,0:0:0:0:
256,192,98691,1,0,0:0:0:0:
256,192,98766,1,0,0:0:0:0:
256,192,98841,1,8,0:0:0:0:
256,192,98991,1,12,0:0:0:0:
256,192,99291,1,4,0:0:0:0:
256,192,99591,1,12,0:0:0:0:
256,192,99816,1,4,0:0:0:0:
256,192,100041,1,12,0:0:0:0:
256,192,100341,1,0,0:0:0:0:
256,192,100416,1,0,0:0:0:0:
256,192,100491,1,0,0:0:0:0:
256,192,100641,1,8,0:0:0:0:
256,192,100791,1,0,0:0:0:0:
256,192,100941,1,0,0:0:0:0:
256,192,101091,1,12,0:0:0:0:
256,192,101391,1,8,0:0:0:0:
256,192,101691,1,8,0:0:0:0:
256,192,101841,1,0,0:0:0:0:
256,192,101991,1,8,0:0:0:0:
256,192,102141,1,0,0:0:0:0:
256,192,102216,1,0,0:0:0:0:
256,192,102366,1,0,0:0:0:0:
256,192,102441,1,8,0:0:0:0:
256,192,102591,1,0,0:0:0:0:
256,192,102741,1,8,0:0:0:0:
256,192,102816,1,0,0:0:0:0:
256,192,102891,1,8,0:0:0:0:
256,192,103041,1,0,0:0:0:0:
256,192,103191,1,8,0:0:0:0:
256,192,103341,1,8,0:0:0:0:
256,192,103416,1,8,0:0:0:0:
256,192,103491,1,0,0:0:0:0:
256,192,103641,1,0,0:0:0:0:
256,192,103791,1,8,0:0:0:0:
256,192,104091,1,8,0:0:0:0:
256,192,104241,1,0,0:0:0:0:
256,192,104391,1,8,0:0:0:0:
256,192,104541,1,0,0:0:0:0:
256,192,104616,1,0,0:0:0:0:
256,192,104766,1,0,0:0:0:0:
256,192,104841,1,8,0:0:0:0:
256,192,104991,1,0,0:0:0:0:
256,192,105141,1,0,0:0:0:0:
256,192,105216,1,0,0:0:0:0:
256,192,105291,1,0,0:0:0:0:
256,192,105441,1,8,0:0:0:0:
256,192,105591,1,0,0:0:0:0:
256,192,105741,1,0,0:0:0:0:
256,192,105891,1,8,0:0:0:0:
256,192,106041,1,0,0:0:0:0:
256,192,106191,1,8,0:0:0:0:
256,192,106491,1,8,0:0:0:0:
256,192,106641,1,0,0:0:0:0:
256,192,106791,1,8,0:0:0:0:
256,192,106941,1,0,0:0:0:0:
256,192,107016,1,0,0:0:0:0:
256,192,107166,1,8,0:0:0:0:
256,192,107241,1,8,0:0:0:0:
256,192,107391,1,4,0:0:0:0:
256,192,107541,1,8,0:0:0:0:
256,192,107616,1,0,0:0:0:0:
256,192,107691,1,8,0:0:0:0:
256,192,107841,1,0,0:0:0:0:
256,192,107991,1,12,0:0:0:0:
256,192,108216,1,12,0:0:0:0:
256,192,108441,1,12,0:0:0:0:
256,192,108591,1,8,0:0:0:0:
256,192,108891,1,8,0:0:0:0:
256,192,109041,1,0,0:0:0:0:
256,192,109191,1,8,0:0:0:0:
256,192,109341,1,0,0:0:0:0:
256,192,109416,1,0,0:0:0:0:
256,192,109566,1,0,0:0:0:0:
256,192,109641,1,8,0:0:0:0:
256,192,109791,1,0,0:0:0:0:
256,192,109941,1,8,0:0:0:0:
256,192,110016,1,8,0:0:0:0:
256,192,110091,1,0,0:0:0:0:
256,192,110241,1,8,0:0:0:0:
256,192,110391,1,0,0:0:0:0:
256,192,110541,1,0,0:0:0:0:
256,192,110691,1,8,0:0:0:0:
256,192,110766,1,8,0:0:0:0:
256,192,110841,1,0,0:0:0:0:
256,192,110991,1,12,0:0:0:0:
256,192,111141,1,12,0:0:0:0:
256,192,111291,1,12,0:0:0:0:
256,192,111441,1,12,0:0:0:0:
256,192,111591,1,12,0:0:0:0:
256,192,111741,1,12,0:0:0:0:
256,192,111891,1,4,0:0:0:0:
256,192,112041,1,12,0:0:0:0:
256,192,112341,1,0,0:0:0:0:
256,192,112416,1,0,0:0:0:0:
256,192,112491,1,8,0:0:0:0:
256,192,112641,1,0,0:0:0:0:
256,192,112791,1,8,0:0:0:0:
256,192,112866,1,8,0:0:0:0:
256,192,112941,1,0,0:0:0:0:
256,192,113016,1,0,0:0:0:0:
256,192,113091,1,8,0:0:0:0:
256,192,113241,1,0,0:0:0:0:
256,192,113391,1,8,0:0:0:0:
256,192,113541,1,0,0:0:0:0:
256,192,113616,1,0,0:0:0:0:
256,192,113766,1,0,0:0:0:0:
256,192,113841,1,0,0:0:0:0:
256,192,113991,1,0,0:0:0:0:
256,192,114066,1,0,0:0:0:0:
256,192,114141,1,0,0:0:0:0:
256,192,114216,1,0,0:0:0:0:
256,192,114291,1,8,0:0:0:0:
256,192,114591,1,8,0:0:0:0:
256,192,114741,1,0,0:0:0:0:
256,192,114816,1,0,0:0:0:0:
256,192,114966,1,8,0:0:0:0:
256,192,115041,1,8,0:0:0:0:
256,192,115191,1,8,0:0:0:0:
256,192,115266,1,8,0:0:0:0:
256,192,115341,1,8,0:0:0:0:
256,192,115416,1,8,0:0:0:0:
256,192,115491,1,0,0:0:0:0:
256,192,115791,1,8,0:0:0:0:
256,192,115941,1,0,0:0:0:0:
256,192,116016,1,0,0:0:0:0:
256,192,116091,1,8,0:0:0:0:
256,192,116241,1,0,0:0:0:0:
256,192,116316,1,0,0:0:0:0:
256,192,116391,1,8,0:0:0:0:
256,192,116541,1,0,0:0:0:0:
256,192,116616,1,0,0:0:0:0:
256,192,116691,1,8,0:0:0:0:
256,192,116841,1,12,0:0:0:0:
256,192,117141,1,4,0:0:0:0:
256,192,117291,1,4,0:0:0:0:
256,192,117441,1,12,0:0:0:0:
256,192,117591,1,4,0:0:0:0:
256,192,117741,1,0,0:0:0:0:
256,192,117816,1,0,0:0:0:0:
256,192,117891,1,8,0:0:0:0:
256,192,118191,1,12,0:0:0:0:
256,192,118341,1,4,0:0:0:0:
256,192,118491,1,12,0:0:0:0:
256,192,118791,1,4,0:0:0:0:
256,192,118941,1,4,0:0:0:0:
256,192,119091,1,4,0:0:0:0:
256,192,119241,1,12,0:0:0:0:
256,192,119541,1,12,0:0:0:0:
256,192,119691,1,12,0:0:0:0:
256,192,119841,1,4,0:0:0:0:
256,192,119991,1,12,0:0:0:0:
256,192,120141,1,0,0:0:0:0:
256,192,120216,1,0,0:0:0:0:
256,192,120291,1,8,0:0:0:0:
256,192,120591,1,4,0:0:0:0:
