osu file format v14

[General]
AudioFilename: audio.mp3
AudioLeadIn: 0
PreviewTime: 38691
Countdown: 0
SampleSet: Soft
StackLeniency: 0.7
Mode: 3
LetterboxInBreaks: 0
SpecialStyle: 0
WidescreenStoryboard: 0

[Editor]
DistanceSpacing: 1
BeatDivisor: 4
GridSize: 32
TimelineZoom: 2.4

[Metadata]
Title:Ultra Happy Miracle Bazoooooka!!
TitleUnicode:Ultra Happy Miracle Bazoooooka!!
Artist:Hino Isuka + Umeboshi Chazuke
ArtistUnicode:翡乃イスカ + 梅干茶漬け
Creator:RedBall
Version:4K Ha44iness!!
Source:BMS
Tags:bofu 2017 happiness bomber
BeatmapID:1560974
BeatmapSetID:739840

[Difficulty]
HPDrainRate:8
CircleSize:4
OverallDifficulty:8
ApproachRate:5
SliderMultiplier:1.4
SliderTickRate:1

[Events]
//Background and Video events
0,0,"BOMBER.png",0,0
//Break Periods
//Storyboard Layer 0 (Background)
//Storyboard Layer 1 (Fail)
//Storyboard Layer 2 (Pass)
//Storyboard Layer 3 (Foreground)
//Storyboard Sound Samples

[TimingPoints]
291,300,4,2,1,30,1,0
591,300,4,2,1,30,1,0
8841,-66.6666666666667,4,2,1,30,0,0
8916,-200,4,2,1,30,0,0
9141,-66.6666666666667,4,2,1,30,0,0
9178,-200,4,2,1,30,0,0
9291,-66.6666666666667,4,2,1,30,0,0
9328,-200,4,2,1,30,0,0
9441,-66.6666666666667,4,2,1,30,0,0
9478,-200,4,2,1,30,0,0
9591,-66.6666666666667,4,2,1,30,0,0
9666,-200,4,2,1,30,0,0
9741,-200,4,2,1,30,0,0
9816,-133.333333333333,4,2,1,30,0,0
9891,-100,4,2,1,30,0,0
13941,-66.6666666666667,4,2,1,30,0,0
13966,-200,4,2,1,30,0,0
13991,-66.6666666666667,4,2,1,30,0,0
14016,-200,4,2,1,30,0,0
14041,-66.6666666666667,4,2,1,30,0,0
14066,-200,4,2,1,30,0,0
14091,-66.6666666666667,4,2,1,30,0,0
14128,-200,4,2,1,30,0,0
14166,-66.6666666666667,4,2,1,30,0,0
14203,-200,4,2,1,30,0,0
14241,-66.6666666666667,4,2,1,30,0,0
14278,-200,4,2,1,30,0,0
14316,-66.6666666666667,4,2,1,30,0,0
14353,-200,4,2,1,30,0,0
14391,-80,4,2,1,30,0,0
14428,-133.333333333333,4,2,1,30,0,0
14541,-80,4,2,1,30,0,0
14578,-133.333333333333,4,2,1,30,0,0
14691,-80,4,2,1,30,0,0
14728,-133.333333333333,4,2,1,30,0,0
14841,-80,4,2,1,30,0,0
14878,-133.333333333333,4,2,1,30,0,0
14991,-100,4,2,1,30,0,0
17991,-76.9230769230769,4,2,1,30,0,0
18103,-142.857142857143,4,2,1,30,0,0
18216,-76.9230769230769,4,2,1,30,0,0
18328,-142.857142857143,4,2,1,30,0,0
18441,-76.9230769230769,4,2,1,30,0,0
18516,-142.857142857143,4,2,1,30,0,0
18591,-100,4,2,1,30,0,0
19491,-66.6666666666667,4,2,1,30,0,0
19566,-200,4,2,1,30,0,0
19641,-100,4,2,1,30,0,0
29991,-76.9230769230769,4,2,1,30,0,0
30103,-142.857142857143,4,2,1,30,0,0
30216,-76.9230769230769,4,2,1,30,0,0
30328,-142.857142857143,4,2,1,30,0,0
30441,-76.9230769230769,4,2,1,30,0,0
30516,-142.857142857143,4,2,1,30,0,0
30591,-100,4,2,1,30,0,0
33141,-66.6666666666667,4,2,1,30,0,0
33166,-200,4,2,1,30,0,0
33191,-66.6666666666667,4,2,1,30,0,0
33216,-200,4,2,1,30,0,0
33241,-66.6666666666667,4,2,1,30,0,0
33266,-200,4,2,1,30,0,0
33291,-66.6666666666667,4,2,1,30,0,0
33328,-200,4,2,1,30,0,0
33366,-66.6666666666667,4,2,1,30,0,0
33403,-200,4,2,1,30,0,0
33441,-66.6666666666667,4,2,1,30,0,0
33478,-200,4,2,1,30,0,0
33516,-66.6666666666667,4,2,1,30,0,0
33553,-200,4,2,1,30,0,0
33591,-80,4,2,1,30,0,0
33628,-133.333333333333,4,2,1,30,0,0
33741,-80,4,2,1,30,0,0
33778,-133.333333333333,4,2,1,30,0,0
33816,-80,4,2,1,30,0,0
33853,-133.333333333333,4,2,1,30,0,0
33891,-80,4,2,1,30,0,0
33928,-133.333333333333,4,2,1,30,0,0
34041,-80,4,2,1,30,0,0
34078,-133.333333333333,4,2,1,30,0,0
34191,-100,4,2,1,30,0,0
37191,-76.9230769230769,4,2,1,30,0,0
37303,-142.857142857143,4,2,1,30,0,0
37416,-76.9230769230769,4,2,1,30,0,0
37528,-142.857142857143,4,2,1,30,0,0
37641,-76.9230769230769,4,2,1,30,0,0
37716,-142.857142857143,4,2,1,30,0,0
37791,-100,4,2,1,30,0,0
38691,-66.6666666666667,4,2,1,30,0,0
38916,-200,4,2,1,30,0,0
38991,-100,4,2,1,30,0,1
58191,-100,4,2,1,30,0,0
67791,-100,4,2,1,30,0,1
76191,-100,4,2,1,30,0,0
101391,-100,4,2,1,30,0,1
118191,-100,4,2,1,30,0,0

[HitObjects]
320,192,291,5,0,0:0:0:0:
64,192,366,1,0,0:0:0:0:
192,192,441,1,0,0:0:0:0:
320,192,516,1,0,0:0:0:0:
64,192,591,1,0,0:0:0:0:
448,192,591,1,0,0:0:0:0:
192,192,591,1,0,0:0:0:0:
192,192,741,1,0,0:0:0:0:
320,192,741,1,0,0:0:0:0:
64,192,891,1,0,0:0:0:0:
448,192,891,1,0,0:0:0:0:
64,192,1041,1,0,0:0:0:0:
320,192,1041,1,0,0:0:0:0:
320,192,1341,1,0,0:0:0:0:
448,192,1341,1,0,0:0:0:0:
64,192,1416,1,0,0:0:0:0:
192,192,1416,1,0,0:0:0:0:
320,192,1491,1,0,0:0:0:0:
448,192,1491,1,0,0:0:0:0:
64,192,1641,1,0,0:0:0:0:
192,192,1641,1,0,0:0:0:0:
448,192,1641,1,0,0:0:0:0:
64,192,1941,1,0,0:0:0:0:
448,192,1941,1,0,0:0:0:0:
192,192,2016,1,0,0:0:0:0:
320,192,2016,1,0,0:0:0:0:
64,192,2091,1,0,0:0:0:0:
448,192,2091,1,0,0:0:0:0:
192,192,2241,1,0,0:0:0:0:
448,192,2241,1,0,0:0:0:0:
64,192,2391,1,0,0:0:0:0:
192,192,2391,1,0,0:0:0:0:
320,192,2391,1,0,0:0:0:0:
64,192,2541,1,0,0:0:0:0:
320,192,2541,1,0,0:0:0:0:
64,192,2691,1,0,0:0:0:0:
192,192,2691,1,0,0:0:0:0:
448,192,2691,1,0,0:0:0:0:
192,192,2841,1,0,0:0:0:0:
320,192,2841,1,0,0:0:0:0:
64,192,2991,1,0,0:0:0:0:
320,192,2991,1,0,0:0:0:0:
448,192,2991,1,0,0:0:0:0:
64,192,3141,1,0,0:0:0:0:
192,192,3141,1,0,0:0:0:0:
320,192,3291,1,0,0:0:0:0:
448,192,3291,1,0,0:0:0:0:
64,192,3441,1,0,0:0:0:0:
448,192,3441,1,0,0:0:0:0:
320,192,3741,1,0,0:0:0:0:
64,192,3741,1,0,0:0:0:0:
448,192,3816,1,0,0:0:0:0:
192,192,3816,1,0,0:0:0:0:
320,192,3891,1,0,0:0:0:0:
64,192,3891,1,0,0:0:0:0:
64,192,4041,1,0,0:0:0:0:
320,192,4041,1,0,0:0:0:0:
448,192,4041,1,0,0:0:0:0:
448,192,4341,1,0,0:0:0:0:
192,192,4341,1,0,0:0:0:0:
64,192,4416,1,0,0:0:0:0:
320,192,4416,1,0,0:0:0:0:
192,192,4491,1,0,0:0:0:0:
448,192,4491,1,0,0:0:0:0:
192,192,4641,1,0,0:0:0:0:
320,192,4641,1,0,0:0:0:0:
64,192,4791,1,0,0:0:0:0:
320,192,4791,1,0,0:0:0:0:
448,192,4791,128,0,5091:0:0:0:0:
192,192,4941,1,0,0:0:0:0:
64,192,4941,1,0,0:0:0:0:
64,192,5091,128,0,5391:0:0:0:0:
320,192,5091,1,0,0:0:0:0:
448,192,5241,1,0,0:0:0:0:
320,192,5241,1,0,0:0:0:0:
192,192,5391,1,0,0:0:0:0:
448,192,5391,1,0,0:0:0:0:
64,192,5541,1,0,0:0:0:0:
448,192,5616,1,0,0:0:0:0:
192,192,5691,1,0,0:0:0:0:
320,192,5691,1,0,0:0:0:0:
64,192,5766,1,0,0:0:0:0:
320,192,5841,1,0,0:0:0:0:
448,192,5916,1,0,0:0:0:0:
64,192,5991,1,0,0:0:0:0:
192,192,5991,1,0,0:0:0:0:
320,192,6041,1,0,0:0:0:0:
448,192,6091,1,0,0:0:0:0:
192,192,6141,1,0,0:0:0:0:
320,192,6216,1,0,0:0:0:0:
448,192,6291,1,0,0:0:0:0:
64,192,6291,128,0,6441:0:0:0:0:
448,192,6441,1,0,0:0:0:0:
320,192,6491,1,0,0:0:0:0:
192,192,6541,1,0,0:0:0:0:
64,192,6591,1,0,0:0:0:0:
448,192,6591,1,0,0:0:0:0:
192,192,6666,1,0,0:0:0:0:
320,192,6741,1,0,0:0:0:0:
64,192,6816,1,0,0:0:0:0:
192,192,6891,1,0,0:0:0:0:
448,192,6891,1,0,0:0:0:0:
320,192,6966,1,0,0:0:0:0:
64,192,7041,1,0,0:0:0:0:
192,192,7116,1,0,0:0:0:0:
64,192,7191,1,0,0:0:0:0:
448,192,7191,1,0,0:0:0:0:
320,192,7266,1,0,0:0:0:0:
64,192,7341,1,0,0:0:0:0:
192,192,7341,1,0,0:0:0:0:
320,192,7416,1,0,0:0:0:0:
64,192,7491,1,0,0:0:0:0:
448,192,7491,1,0,0:0:0:0:
192,192,7566,1,0,0:0:0:0:
320,192,7641,1,0,0:0:0:0:
448,192,7641,1,0,0:0:0:0:
192,192,7716,1,0,0:0:0:0:
64,192,7791,1,0,0:0:0:0:
320,192,7791,1,0,0:0:0:0:
448,192,7791,1,0,0:0:0:0:
192,192,7866,1,0,0:0:0:0:
64,192,7941,1,0,0:0:0:0:
320,192,7941,1,0,0:0:0:0:
448,192,8016,1,0,0:0:0:0:
64,192,8091,1,0,0:0:0:0:
320,192,8091,1,0,0:0:0:0:
192,192,8091,1,0,0:0:0:0:
64,192,8241,1,0,0:0:0:0:
448,192,8241,1,0,0:0:0:0:
192,192,8241,1,0,0:0:0:0:
320,192,8316,1,0,0:0:0:0:
192,192,8391,1,0,0:0:0:0:
448,192,8391,1,0,0:0:0:0:
64,192,8466,1,0,0:0:0:0:
192,192,8541,1,0,0:0:0:0:
448,192,8541,1,0,0:0:0:0:
320,192,8541,1,0,0:0:0:0:
64,192,8691,1,0,0:0:0:0:
320,192,8691,1,0,0:0:0:0:
448,192,8691,1,0,0:0:0:0:
64,192,8841,1,0,0:0:0:0:
192,192,8841,1,0,0:0:0:0:
320,192,8841,1,0,0:0:0:0:
448,192,8841,1,0,0:0:0:0:
64,192,9141,1,0,0:0:0:0:
192,192,9141,1,0,0:0:0:0:
320,192,9141,1,0,0:0:0:0:
448,192,9141,1,0,0:0:0:0:
64,192,9291,1,0,0:0:0:0:
192,192,9291,1,0,0:0:0:0:
320,192,9291,1,0,0:0:0:0:
448,192,9291,1,0,0:0:0:0:
64,192,9441,1,0,0:0:0:0:
192,192,9441,1,0,0:0:0:0:
320,192,9441,1,0,0:0:0:0:
448,192,9441,1,0,0:0:0:0:
64,192,9591,1,0,0:0:0:0:
192,192,9591,1,0,0:0:0:0:
320,192,9591,1,0,0:0:0:0:
448,192,9591,1,0,0:0:0:0:
448,192,9891,1,0,0:0:0:0:
320,192,9928,1,0,0:0:0:0:
192,192,9966,1,0,0:0:0:0:
64,192,10003,1,0,0:0:0:0:
448,192,10041,1,0,0:0:0:0:
320,192,10078,1,0,0:0:0:0:
192,192,10116,1,0,0:0:0:0:
64,192,10153,1,0,0:0:0:0:
320,192,10191,1,0,0:0:0:0:
448,192,10191,1,0,0:0:0:0:
64,192,10341,1,0,0:0:0:0:
192,192,10416,1,0,0:0:0:0:
320,192,10491,1,0,0:0:0:0:
448,192,10491,1,0,0:0:0:0:
192,192,10566,1,0,0:0:0:0:
64,192,10641,1,0,0:0:0:0:
320,192,10716,1,0,0:0:0:0:
64,192,10791,1,0,0:0:0:0:
448,192,10791,1,0,0:0:0:0:
192,192,10866,1,0,0:0:0:0:
320,192,10941,1,0,0:0:0:0:
64,192,11016,1,0,0:0:0:0:
448,192,11016,1,0,0:0:0:0:
320,192,11091,1,0,0:0:0:0:
192,192,11166,1,0,0:0:0:0:
64,192,11241,1,0,0:0:0:0:
448,192,11241,1,0,0:0:0:0:
192,192,11316,1,0,0:0:0:0:
448,192,11391,1,0,0:0:0:0:
320,192,11391,1,0,0:0:0:0:
64,192,11466,1,0,0:0:0:0:
320,192,11541,1,0,0:0:0:0:
448,192,11541,1,0,0:0:0:0:
64,192,11616,1,0,0:0:0:0:
448,192,11691,1,0,0:0:0:0:
192,192,11691,1,0,0:0:0:0:
320,192,11766,1,0,0:0:0:0:
192,192,11841,1,0,0:0:0:0:
64,192,11841,1,0,0:0:0:0:
64,192,11991,1,0,0:0:0:0:
448,192,11991,1,0,0:0:0:0:
192,192,12066,1,0,0:0:0:0:
320,192,12141,1,0,0:0:0:0:
192,192,12216,1,0,0:0:0:0:
64,192,12216,1,0,0:0:0:0:
448,192,12291,1,0,0:0:0:0:
320,192,12291,1,0,0:0:0:0:
192,192,12366,1,0,0:0:0:0:
64,192,12441,1,0,0:0:0:0:
448,192,12441,1,0,0:0:0:0:
320,192,12516,1,0,0:0:0:0:
192,192,12516,1,0,0:0:0:0:
448,192,12591,1,0,0:0:0:0:
64,192,12591,1,0,0:0:0:0:
320,192,12666,1,0,0:0:0:0:
192,192,12741,1,0,0:0:0:0:
320,192,12816,1,0,0:0:0:0:
64,192,12891,1,0,0:0:0:0:
448,192,12891,1,0,0:0:0:0:
192,192,12966,1,0,0:0:0:0:
320,192,13041,1,0,0:0:0:0:
448,192,13116,1,0,0:0:0:0:
64,192,13191,1,0,0:0:0:0:
192,192,13191,1,0,0:0:0:0:
448,192,13266,1,0,0:0:0:0:
320,192,13341,1,0,0:0:0:0:
448,192,13416,1,0,0:0:0:0:
64,192,13416,1,0,0:0:0:0:
192,192,13491,1,0,0:0:0:0:
320,192,13566,1,0,0:0:0:0:
64,192,13641,1,0,0:0:0:0:
448,192,13641,1,0,0:0:0:0:
192,192,13716,1,0,0:0:0:0:
64,192,13791,1,0,0:0:0:0:
320,192,13791,1,0,0:0:0:0:
320,192,13941,1,0,0:0:0:0:
448,192,13941,1,0,0:0:0:0:
64,192,13991,1,0,0:0:0:0:
192,192,13991,1,0,0:0:0:0:
320,192,14041,1,0,0:0:0:0:
64,192,14091,1,0,0:0:0:0:
64,192,14166,1,0,0:0:0:0:
448,192,14241,1,0,0:0:0:0:
320,192,14241,1,0,0:0:0:0:
192,192,14316,1,0,0:0:0:0:
64,192,14316,1,0,0:0:0:0:
320,192,14391,1,0,0:0:0:0:
448,192,14391,1,0,0:0:0:0:
320,192,14541,1,0,0:0:0:0:
64,192,14541,1,0,0:0:0:0:
192,192,14691,1,0,0:0:0:0:
448,192,14691,1,0,0:0:0:0:
320,192,14841,1,0,0:0:0:0:
192,192,14841,1,0,0:0:0:0:
448,192,14991,1,0,0:0:0:0:
320,192,14991,1,0,0:0:0:0:
64,192,14991,1,0,0:0:0:0:
192,192,15141,1,0,0:0:0:0:
320,192,15216,1,0,0:0:0:0:
64,192,15291,1,0,0:0:0:0:
448,192,15291,1,0,0:0:0:0:
192,192,15291,1,0,0:0:0:0:
320,192,15441,1,0,0:0:0:0:
192,192,15516,1,0,0:0:0:0:
64,192,15591,1,0,0:0:0:0:
320,192,15591,1,0,0:0:0:0:
448,192,15591,1,0,0:0:0:0:
192,192,15741,1,0,0:0:0:0:
320,192,15816,1,0,0:0:0:0:
64,192,15891,1,0,0:0:0:0:
192,192,15891,1,0,0:0:0:0:
448,192,15891,1,0,0:0:0:0:
320,192,16041,1,0,0:0:0:0:
448,192,16041,1,0,0:0:0:0:
192,192,16116,1,0,0:0:0:0:
64,192,16191,1,0,0:0:0:0:
320,192,16191,1,0,0:0:0:0:
448,192,16191,1,0,0:0:0:0:
192,192,16266,1,0,0:0:0:0:
64,192,16341,1,0,0:0:0:0:
320,192,16341,1,0,0:0:0:0:
448,192,16416,1,0,0:0:0:0:
192,192,16491,1,0,0:0:0:0:
320,192,16491,1,0,0:0:0:0:
64,192,16566,1,0,0:0:0:0:
192,192,16641,1,0,0:0:0:0:
448,192,16641,1,0,0:0:0:0:
320,192,16716,1,0,0:0:0:0:
64,192,16791,1,0,0:0:0:0:
448,192,16791,1,0,0:0:0:0:
192,192,16866,1,0,0:0:0:0:
320,192,16941,1,0,0:0:0:0:
64,192,16941,1,0,0:0:0:0:
448,192,17016,1,0,0:0:0:0:
64,192,17091,1,0,0:0:0:0:
192,192,17091,1,0,0:0:0:0:
320,192,17166,1,0,0:0:0:0:
448,192,17166,1,0,0:0:0:0:
192,192,17241,1,0,0:0:0:0:
320,192,17316,1,0,0:0:0:0:
448,192,17316,1,0,0:0:0:0:
64,192,17391,1,0,0:0:0:0:
192,192,17391,1,0,0:0:0:0:
448,192,17466,1,0,0:0:0:0:
64,192,17541,1,0,0:0:0:0:
320,192,17541,1,0,0:0:0:0:
192,192,17616,1,0,0:0:0:0:
320,192,17691,1,0,0:0:0:0:
448,192,17691,1,0,0:0:0:0:
64,192,17766,1,0,0:0:0:0:
192,192,17766,1,0,0:0:0:0:
320,192,17841,1,0,0:0:0:0:
448,192,17841,1,0,0:0:0:0:
64,192,17916,1,0,0:0:0:0:
192,192,17916,1,0,0:0:0:0:
320,192,17991,1,0,0:0:0:0:
448,192,17991,1,0,0:0:0:0:
64,192,17991,1,0,0:0:0:0:
64,192,18216,1,0,0:0:0:0:
192,192,18216,1,0,0:0:0:0:
448,192,18216,1,0,0:0:0:0:
64,192,18441,1,0,0:0:0:0:
192,192,18441,1,0,0:0:0:0:
320,192,18441,1,0,0:0:0:0:
64,192,18591,1,0,0:0:0:0:
320,192,18591,1,0,0:0:0:0:
448,192,18591,1,0,0:0:0:0:
448,192,18741,1,0,0:0:0:0:
448,192,18891,1,0,0:0:0:0:
192,192,18891,1,0,0:0:0:0:
64,192,19041,1,0,0:0:0:0:
448,192,19041,1,0,0:0:0:0:
192,192,19116,1,0,0:0:0:0:
320,192,19191,1,0,0:0:0:0:
64,192,19191,1,0,0:0:0:0:
192,192,19266,1,0,0:0:0:0:
64,192,19341,1,0,0:0:0:0:
448,192,19341,1,0,0:0:0:0:
192,192,19491,128,0,19641:0:0:0:0:
448,192,19491,128,0,19641:0:0:0:0:
64,192,19491,128,0,19641:0:0:0:0:
320,192,19491,128,0,19641:0:0:0:0:
64,192,19791,1,0,0:0:0:0:
192,192,19828,1,0,0:0:0:0:
320,192,19866,1,0,0:0:0:0:
448,192,19903,1,0,0:0:0:0:
64,192,19941,1,0,0:0:0:0:
192,192,20016,1,0,0:0:0:0:
64,192,20091,1,0,0:0:0:0:
320,192,20091,1,0,0:0:0:0:
448,192,20091,1,0,0:0:0:0:
448,192,20166,1,0,0:0:0:0:
64,192,20241,1,0,0:0:0:0:
192,192,20316,1,0,0:0:0:0:
64,192,20391,1,0,0:0:0:0:
320,192,20391,1,0,0:0:0:0:
192,192,20466,1,0,0:0:0:0:
448,192,20541,1,0,0:0:0:0:
320,192,20541,1,0,0:0:0:0:
192,192,20616,1,0,0:0:0:0:
64,192,20691,1,0,0:0:0:0:
448,192,20691,1,0,0:0:0:0:
64,192,20766,1,0,0:0:0:0:
448,192,20766,1,0,0:0:0:0:
320,192,20841,1,0,0:0:0:0:
64,192,20916,1,0,0:0:0:0:
448,192,20991,1,0,0:0:0:0:
192,192,20991,1,0,0:0:0:0:
320,192,21041,1,0,0:0:0:0:
192,192,21091,1,0,0:0:0:0:
64,192,21141,1,0,0:0:0:0:
448,192,21141,1,0,0:0:0:0:
320,192,21216,1,0,0:0:0:0:
64,192,21291,1,0,0:0:0:0:
192,192,21291,1,0,0:0:0:0:
320,192,21366,1,0,0:0:0:0:
448,192,21366,1,0,0:0:0:0:
192,192,21441,1,0,0:0:0:0:
64,192,21441,1,0,0:0:0:0:
448,192,21516,1,0,0:0:0:0:
64,192,21591,1,0,0:0:0:0:
192,192,21591,1,0,0:0:0:0:
320,192,21609,1,0,0:0:0:0:
64,192,21816,1,0,0:0:0:0:
192,192,21816,1,0,0:0:0:0:
320,192,21834,1,0,0:0:0:0:
64,192,22041,1,0,0:0:0:0:
448,192,22041,1,0,0:0:0:0:
320,192,22059,1,0,0:0:0:0:
64,192,22191,1,0,0:0:0:0:
192,192,22191,1,0,0:0:0:0:
448,192,22191,1,0,0:0:0:0:
448,192,22341,1,0,0:0:0:0:
320,192,22416,1,0,0:0:0:0:
64,192,22491,1,0,0:0:0:0:
448,192,22491,1,0,0:0:0:0:
192,192,22566,1,0,0:0:0:0:
320,192,22641,1,0,0:0:0:0:
64,192,22641,1,0,0:0:0:0:
448,192,22716,1,0,0:0:0:0:
192,192,22791,1,0,0:0:0:0:
320,192,22791,1,0,0:0:0:0:
64,192,22866,1,0,0:0:0:0:
192,192,22941,1,0,0:0:0:0:
320,192,22941,1,0,0:0:0:0:
448,192,23016,1,0,0:0:0:0:
192,192,23091,1,0,0:0:0:0:
64,192,23091,1,0,0:0:0:0:
320,192,23166,1,0,0:0:0:0:
448,192,23166,1,0,0:0:0:0:
192,192,23241,1,0,0:0:0:0:
64,192,23241,1,0,0:0:0:0:
320,192,23316,1,0,0:0:0:0:
448,192,23316,1,0,0:0:0:0:
64,192,23391,1,0,0:0:0:0:
192,192,23391,1,0,0:0:0:0:
320,192,23466,1,0,0:0:0:0:
448,192,23541,1,0,0:0:0:0:
192,192,23541,1,0,0:0:0:0:
64,192,23616,1,0,0:0:0:0:
320,192,23691,1,0,0:0:0:0:
448,192,23691,1,0,0:0:0:0:
192,192,23766,1,0,0:0:0:0:
320,192,23841,1,0,0:0:0:0:
64,192,23841,1,0,0:0:0:0:
192,192,23916,1,0,0:0:0:0:
448,192,23916,1,0,0:0:0:0:
320,192,23991,1,0,0:0:0:0:
64,192,23991,1,0,0:0:0:0:
192,192,24141,1,0,0:0:0:0:
320,192,24141,1,0,0:0:0:0:
448,192,24291,1,0,0:0:0:0:
64,192,24291,1,0,0:0:0:0:
320,192,24291,1,0,0:0:0:0:
64,192,24441,1,0,0:0:0:0:
448,192,24516,1,0,0:0:0:0:
64,192,24591,1,0,0:0:0:0:
192,192,24591,1,0,0:0:0:0:
320,192,24591,1,0,0:0:0:0:
448,192,24666,1,0,0:0:0:0:
64,192,24741,1,0,0:0:0:0:
192,192,24741,1,0,0:0:0:0:
320,192,24816,1,0,0:0:0:0:
64,192,24891,1,0,0:0:0:0:
448,192,24891,1,0,0:0:0:0:
192,192,24966,1,0,0:0:0:0:
320,192,25041,1,0,0:0:0:0:
448,192,25041,1,0,0:0:0:0:
192,192,25116,1,0,0:0:0:0:
320,192,25191,1,0,0:0:0:0:
448,192,25191,1,0,0:0:0:0:
64,192,25266,1,0,0:0:0:0:
192,192,25341,1,0,0:0:0:0:
448,192,25341,1,0,0:0:0:0:
320,192,25416,1,0,0:0:0:0:
64,192,25491,1,0,0:0:0:0:
192,192,25491,1,0,0:0:0:0:
448,192,25566,1,0,0:0:0:0:
320,192,25641,1,0,0:0:0:0:
192,192,25716,1,0,0:0:0:0:
64,192,25791,1,0,0:0:0:0:
448,192,25791,1,0,0:0:0:0:
192,192,25866,1,0,0:0:0:0:
320,192,25941,1,0,0:0:0:0:
448,192,25941,1,0,0:0:0:0:
64,192,26016,1,0,0:0:0:0:
192,192,26016,1,0,0:0:0:0:
448,192,26091,1,0,0:0:0:0:
320,192,26166,1,0,0:0:0:0:
64,192,26241,1,0,0:0:0:0:
192,192,26241,1,0,0:0:0:0:
320,192,26316,1,0,0:0:0:0:
448,192,26316,1,0,0:0:0:0:
64,192,26391,1,0,0:0:0:0:
192,192,26466,1,0,0:0:0:0:
320,192,26541,1,0,0:0:0:0:
448,192,26541,1,0,0:0:0:0:
64,192,26616,1,0,0:0:0:0:
192,192,26616,1,0,0:0:0:0:
320,192,26691,1,0,0:0:0:0:
448,192,26691,1,0,0:0:0:0:
64,192,26766,1,0,0:0:0:0:
192,192,26766,1,0,0:0:0:0:
320,192,26841,1,0,0:0:0:0:
448,192,26841,1,0,0:0:0:0:
64,192,26916,1,0,0:0:0:0:
192,192,26916,1,0,0:0:0:0:
320,192,26991,1,0,0:0:0:0:
448,192,26991,1,0,0:0:0:0:
448,192,27291,1,0,0:0:0:0:
64,192,27441,1,0,0:0:0:0:
192,192,27441,1,0,0:0:0:0:
64,192,27591,1,0,0:0:0:0:
448,192,27591,1,0,0:0:0:0:
320,192,27591,1,0,0:0:0:0:
192,192,27741,1,0,0:0:0:0:
448,192,27816,1,0,0:0:0:0:
64,192,27891,1,0,0:0:0:0:
192,192,27891,1,0,0:0:0:0:
320,192,27966,1,0,0:0:0:0:
448,192,27966,1,0,0:0:0:0:
64,192,28041,1,0,0:0:0:0:
192,192,28041,1,0,0:0:0:0:
192,192,28191,1,0,0:0:0:0:
448,192,28191,1,0,0:0:0:0:
192,192,28341,1,0,0:0:0:0:
320,192,28341,1,0,0:0:0:0:
64,192,28491,1,0,0:0:0:0:
448,192,28491,1,0,0:0:0:0:
320,192,28566,1,0,0:0:0:0:
192,192,28641,1,0,0:0:0:0:
64,192,28641,1,0,0:0:0:0:
64,192,28791,1,0,0:0:0:0:
448,192,28791,1,0,0:0:0:0:
320,192,28791,1,0,0:0:0:0:
448,192,28941,1,0,0:0:0:0:
64,192,29016,1,0,0:0:0:0:
192,192,29091,1,0,0:0:0:0:
320,192,29091,1,0,0:0:0:0:
448,192,29166,1,0,0:0:0:0:
64,192,29166,1,0,0:0:0:0:
192,192,29241,1,0,0:0:0:0:
320,192,29241,1,0,0:0:0:0:
64,192,29391,128,0,29466:0:0:0:0:
192,192,29391,128,0,29466:0:0:0:0:
448,192,29391,128,0,29466:0:0:0:0:
448,192,29541,1,0,0:0:0:0:
320,192,29616,1,0,0:0:0:0:
64,192,29691,1,0,0:0:0:0:
448,192,29691,1,0,0:0:0:0:
192,192,29741,1,0,0:0:0:0:
320,192,29791,1,0,0:0:0:0:
64,192,29841,1,0,0:0:0:0:
192,192,29841,1,0,0:0:0:0:
320,192,29916,1,0,0:0:0:0:
448,192,29916,1,0,0:0:0:0:
64,192,29991,1,0,0:0:0:0:
192,192,29991,1,0,0:0:0:0:
64,192,30216,1,0,0:0:0:0:
192,192,30216,1,0,0:0:0:0:
448,192,30216,1,0,0:0:0:0:
64,192,30441,1,0,0:0:0:0:
192,192,30441,1,0,0:0:0:0:
448,192,30441,1,0,0:0:0:0:
64,192,30591,1,0,0:0:0:0:
320,192,30591,1,0,0:0:0:0:
448,192,30591,1,0,0:0:0:0:
192,192,30666,1,0,0:0:0:0:
64,192,30741,1,0,0:0:0:0:
320,192,30741,1,0,0:0:0:0:
448,192,30816,1,0,0:0:0:0:
64,192,30891,1,0,0:0:0:0:
192,192,30891,1,0,0:0:0:0:
320,192,30891,1,0,0:0:0:0:
448,192,30966,1,0,0:0:0:0:
64,192,31041,1,0,0:0:0:0:
192,192,31041,1,0,0:0:0:0:
320,192,31116,1,0,0:0:0:0:
64,192,31191,1,0,0:0:0:0:
192,192,31191,1,0,0:0:0:0:
448,192,31191,1,0,0:0:0:0:
320,192,31266,1,0,0:0:0:0:
64,192,31341,1,0,0:0:0:0:
448,192,31341,1,0,0:0:0:0:
64,192,31491,1,0,0:0:0:0:
320,192,31491,1,0,0:0:0:0:
448,192,31491,1,0,0:0:0:0:
192,192,31566,1,0,0:0:0:0:
64,192,31641,1,0,0:0:0:0:
448,192,31641,1,0,0:0:0:0:
64,192,31791,1,0,0:0:0:0:
192,192,31791,1,0,0:0:0:0:
320,192,31791,1,0,0:0:0:0:
448,192,31866,1,0,0:0:0:0:
192,192,31941,1,0,0:0:0:0:
320,192,31941,1,0,0:0:0:0:
64,192,32016,1,0,0:0:0:0:
192,192,32091,1,0,0:0:0:0:
320,192,32091,1,0,0:0:0:0:
448,192,32091,1,0,0:0:0:0:
64,192,32166,1,0,0:0:0:0:
192,192,32241,1,0,0:0:0:0:
448,192,32241,1,0,0:0:0:0:
320,192,32316,1,0,0:0:0:0:
64,192,32391,1,0,0:0:0:0:
192,192,32391,1,0,0:0:0:0:
448,192,32391,1,0,0:0:0:0:
320,192,32466,1,0,0:0:0:0:
64,192,32541,1,0,0:0:0:0:
448,192,32541,1,0,0:0:0:0:
192,192,32616,1,0,0:0:0:0:
64,192,32691,1,0,0:0:0:0:
320,192,32691,1,0,0:0:0:0:
448,192,32691,1,0,0:0:0:0:
192,192,32766,1,0,0:0:0:0:
320,192,32841,1,0,0:0:0:0:
448,192,32841,1,0,0:0:0:0:
64,192,32916,1,0,0:0:0:0:
320,192,32991,1,0,0:0:0:0:
448,192,32991,1,0,0:0:0:0:
192,192,32991,1,0,0:0:0:0:
64,192,33141,1,0,0:0:0:0:
192,192,33141,1,0,0:0:0:0:
320,192,33191,1,0,0:0:0:0:
448,192,33191,1,0,0:0:0:0:
192,192,33241,1,0,0:0:0:0:
448,192,33291,1,0,0:0:0:0:
448,192,33366,1,0,0:0:0:0:
64,192,33441,1,0,0:0:0:0:
192,192,33441,1,0,0:0:0:0:
320,192,33516,1,0,0:0:0:0:
448,192,33516,1,0,0:0:0:0:
64,192,33591,1,0,0:0:0:0:
192,192,33591,1,0,0:0:0:0:
320,192,33741,1,0,0:0:0:0:
64,192,33816,1,0,0:0:0:0:
192,192,33816,1,0,0:0:0:0:
320,192,33891,1,0,0:0:0:0:
448,192,33891,1,0,0:0:0:0:
192,192,34041,1,0,0:0:0:0:
320,192,34041,1,0,0:0:0:0:
64,192,34191,128,0,34391:0:0:0:0:
192,192,34191,128,0,34391:0:0:0:0:
448,192,34191,128,0,34391:0:0:0:0:
320,192,34491,1,0,0:0:0:0:
448,192,34491,1,0,0:0:0:0:
64,192,34566,1,0,0:0:0:0:
192,192,34566,1,0,0:0:0:0:
320,192,34641,1,0,0:0:0:0:
448,192,34641,1,0,0:0:0:0:
192,192,34716,1,0,0:0:0:0:
64,192,34716,1,0,0:0:0:0:
448,192,34791,1,0,0:0:0:0:
320,192,34791,1,0,0:0:0:0:
448,192,34866,1,0,0:0:0:0:
320,192,34866,1,0,0:0:0:0:
192,192,34941,1,0,0:0:0:0:
320,192,35016,1,0,0:0:0:0:
192,192,35091,1,0,0:0:0:0:
64,192,35091,1,0,0:0:0:0:
320,192,35166,1,0,0:0:0:0:
448,192,35166,1,0,0:0:0:0:
64,192,35241,1,0,0:0:0:0:
192,192,35241,1,0,0:0:0:0:
448,192,35316,1,0,0:0:0:0:
64,192,35391,1,0,0:0:0:0:
192,192,35391,1,0,0:0:0:0:
320,192,35391,1,0,0:0:0:0:
192,192,35541,1,0,0:0:0:0:
192,192,35616,1,0,0:0:0:0:
64,192,35691,1,0,0:0:0:0:
320,192,35691,1,0,0:0:0:0:
448,192,35691,1,0,0:0:0:0:
192,192,35766,1,0,0:0:0:0:
448,192,35841,1,0,0:0:0:0:
320,192,35841,1,0,0:0:0:0:
64,192,35916,1,0,0:0:0:0:
192,192,35991,1,0,0:0:0:0:
448,192,35991,1,0,0:0:0:0:
320,192,35991,1,0,0:0:0:0:
448,192,36066,1,0,0:0:0:0:
64,192,36141,1,0,0:0:0:0:
192,192,36141,1,0,0:0:0:0:
320,192,36216,1,0,0:0:0:0:
64,192,36291,1,0,0:0:0:0:
192,192,36291,1,0,0:0:0:0:
448,192,36291,1,0,0:0:0:0:
320,192,36366,1,0,0:0:0:0:
448,192,36441,1,0,0:0:0:0:
192,192,36441,1,0,0:0:0:0:
64,192,36591,1,0,0:0:0:0:
192,192,36591,1,0,0:0:0:0:
320,192,36591,1,0,0:0:0:0:
448,192,36666,1,0,0:0:0:0:
320,192,36741,1,0,0:0:0:0:
64,192,36741,1,0,0:0:0:0:
192,192,36816,1,0,0:0:0:0:
320,192,36891,1,0,0:0:0:0:
448,192,36891,1,0,0:0:0:0:
64,192,36966,1,0,0:0:0:0:
192,192,36966,1,0,0:0:0:0:
320,192,37041,1,0,0:0:0:0:
448,192,37041,1,0,0:0:0:0:
64,192,37116,1,0,0:0:0:0:
192,192,37116,1,0,0:0:0:0:
64,192,37191,1,0,0:0:0:0:
320,192,37191,1,0,0:0:0:0:
448,192,37191,1,0,0:0:0:0:
64,192,37416,1,0,0:0:0:0:
192,192,37416,1,0,0:0:0:0:
320,192,37416,1,0,0:0:0:0:
64,192,37641,1,0,0:0:0:0:
192,192,37641,1,0,0:0:0:0:
448,192,37641,1,0,0:0:0:0:
64,192,37791,1,0,0:0:0:0:
448,192,37791,1,0,0:0:0:0:
320,192,37941,1,0,0:0:0:0:
64,192,38016,1,0,0:0:0:0:
192,192,38091,1,0,0:0:0:0:
448,192,38091,1,0,0:0:0:0:
64,192,38166,1,0,0:0:0:0:
320,192,38241,1,0,0:0:0:0:
192,192,38316,1,0,0:0:0:0:
64,192,38391,1,0,0:0:0:0:
320,192,38391,1,0,0:0:0:0:
448,192,38466,1,0,0:0:0:0:
192,192,38541,1,0,0:0:0:0:
320,192,38616,1,0,0:0:0:0:
64,192,38691,1,0,0:0:0:0:
192,192,38691,1,0,0:0:0:0:
448,192,38691,1,0,0:0:0:0:
64,192,38991,1,0,0:0:0:0:
320,192,38991,1,0,0:0:0:0:
448,192,38991,1,0,0:0:0:0:
192,192,39141,1,0,0:0:0:0:
320,192,39141,1,0,0:0:0:0:
64,192,39291,1,0,0:0:0:0:
192,192,39291,1,0,0:0:0:0:
448,192,39291,1,0,0:0:0:0:
64,192,39441,1,0,0:0:0:0:
320,192,39441,1,0,0:0:0:0:
192,192,39591,1,0,0:0:0:0:
320,192,39591,1,0,0:0:0:0:
448,192,39591,1,0,0:0:0:0:
64,192,39741,1,0,0:0:0:0:
192,192,39741,1,0,0:0:0:0:
448,192,39816,1,0,0:0:0:0:
64,192,39891,1,0,0:0:0:0:
192,192,39891,1,0,0:0:0:0:
320,192,39891,1,0,0:0:0:0:
448,192,39966,1,0,0:0:0:0:
192,192,40041,1,0,0:0:0:0:
320,192,40041,1,0,0:0:0:0:
64,192,40191,1,0,0:0:0:0:
320,192,40191,1,0,0:0:0:0:
448,192,40191,1,0,0:0:0:0:
192,192,40341,1,0,0:0:0:0:
448,192,40341,1,0,0:0:0:0:
320,192,40416,1,0,0:0:0:0:
64,192,40491,1,0,0:0:0:0:
192,192,40491,1,0,0:0:0:0:
448,192,40491,1,0,0:0:0:0:
320,192,40566,1,0,0:0:0:0:
448,192,40641,1,0,0:0:0:0:
64,192,40641,1,0,0:0:0:0:
64,192,40791,1,0,0:0:0:0:
192,192,40791,1,0,0:0:0:0:
320,192,40791,1,0,0:0:0:0:
192,192,40941,1,0,0:0:0:0:
320,192,40941,1,0,0:0:0:0:
64,192,41091,1,0,0:0:0:0:
320,192,41091,1,0,0:0:0:0:
448,192,41091,1,0,0:0:0:0:
192,192,41241,1,0,0:0:0:0:
448,192,41241,1,0,0:0:0:0:
448,192,41391,1,0,0:0:0:0:
64,192,41391,1,0,0:0:0:0:
192,192,41391,1,0,0:0:0:0:
192,192,41541,1,0,0:0:0:0:
320,192,41541,1,0,0:0:0:0:
64,192,41691,1,0,0:0:0:0:
448,192,41691,1,0,0:0:0:0:
320,192,41691,1,0,0:0:0:0:
192,192,41841,1,0,0:0:0:0:
448,192,41841,1,0,0:0:0:0:
64,192,41991,1,0,0:0:0:0:
192,192,41991,1,0,0:0:0:0:
320,192,41991,1,0,0:0:0:0:
