osu file format v14

[General]
AudioFilename: akane&nana.mp3
AudioLeadIn: 0
PreviewTime: 318853
Countdown: 0
SampleSet: None
StackLeniency: 0.7
Mode: 0
LetterboxInBreaks: 1
WidescreenStoryboard: 1

[Editor]
Bookmarks: 112004,398453
DistanceSpacing: 1
BeatDivisor: 4
GridSize: 8
TimelineZoom: 1.7

[Metadata]
Title:Akane chan ga Nana san no Tairyoku Koujou ni Tsukiatte Ageru Kobeya
TitleUnicode:茜ちゃんが菜々さんの体力向上に付き合ってあげる小部屋
Artist:Hino Akane, Abe Nana
ArtistUnicode:日野茜, 安部菜々
Creator:HICCA
Version:MASTER
Source:Nico Nico Douga
Tags:アイドルマスター シンデレラガールズ the idolm@ster cinderella girls remix hicari
BeatmapID:1272386
BeatmapSetID:475843

[Difficulty]
HPDrainRate:6
CircleSize:4
OverallDifficulty:7.7
ApproachRate:9.3
SliderMultiplier:1.9
SliderTickRate:1

[Events]
//Background and Video events
0,0,"BG.jpg",0,0
//Break Periods
2,87326,91548
2,140657,145033
2,173908,186704
2,285125,288449
//Storyboard Layer 0 (Background)
//Storyboard Layer 1 (Fail)
//Storyboard Layer 2 (Pass)
//Storyboard Layer 3 (Foreground)
//Storyboard Sound Samples

[TimingPoints]
58,310.961388960871,4,2,1,60,1,0
1768,-100,4,2,1,5,0,0
5033,-125,4,2,1,10,0,0
5655,-125,4,2,1,18,0,0
6277,-125,4,2,1,26,0,0
6899,-125,4,2,1,34,0,0
7521,-125,4,2,1,42,0,0
8142,-125,4,2,1,47,0,0
8764,-125,4,2,1,52,0,0
9386,-125,4,2,1,56,0,0
10008,-125,4,2,1,60,0,0
14984,-100,4,1,1,65,0,0
34885,-100,4,1,1,65,0,0
44525,-83.3333333333333,4,1,1,65,0,0
44836,-100,4,1,1,65,0,0
54787,-90.9090909090909,4,1,1,70,0,1
68469,-90.9090909090909,4,1,1,70,0,0
69713,-90.9090909090909,4,1,1,70,0,1
84639,-142.857142857143,4,2,1,60,0,1
85883,-142.857142857143,4,1,1,65,0,1
86194,-117.647058823529,4,1,1,65,0,1
86505,-100,4,1,1,65,0,1
86816,-86.9565217391304,4,1,1,70,0,1
87127,-125,4,2,1,60,0,0
95834,-125,4,1,1,65,0,0
96145,-100,4,1,1,65,0,0
96456,-83.3333333333333,4,1,1,65,0,0
96689,-83.3333333333333,4,1,1,30,0,0
96766,-83.3333333333333,4,1,1,70,0,0
97077,-111.111111111111,4,1,1,65,0,0
108428,-111.111111111111,4,1,1,60,0,0
108583,-111.111111111111,4,1,1,55,0,0
108739,-111.111111111111,4,1,1,50,0,0
108894,-111.111111111111,4,1,1,45,0,0
109049,-111.111111111111,4,1,1,40,0,0
109205,-111.111111111111,4,1,1,35,0,0
109360,-111.111111111111,4,1,1,30,0,0
109516,-111.111111111111,4,1,1,5,0,0
110760,-111.111111111111,4,1,1,30,0,0
111071,-111.111111111111,4,1,1,40,0,0
111382,-111.111111111111,4,1,1,50,0,0
111693,-111.111111111111,4,1,1,60,0,0
112004,-100,4,1,1,65,0,0
121643,-66.6666666666667,4,1,1,65,0,0
121954,-100,4,1,1,65,0,0
132838,-200,4,2,1,40,0,0
133149,-100,4,1,1,65,0,0
134082,-200,4,2,1,40,0,0
134393,-100,4,1,1,65,0,0
136570,-200,4,2,1,40,0,0
136881,-100,4,1,1,65,0,0
137813,-200,4,2,1,40,0,0
138124,-100,4,1,1,65,0,0
140457,-100,4,1,1,5,0,0
140612,-100,4,1,1,60,0,0
145587,-200,4,1,1,40,0,0
146209,-133.333333333333,4,1,1,50,0,0
146831,-100,4,1,1,60,0,0
148075,-90.9090909090909,4,1,1,70,0,1
166733,-83.3333333333333,4,1,1,70,0,1
167044,-76.9230769230769,4,1,1,70,0,1
167666,-66.6666666666667,4,1,1,70,0,1
167977,-90.9090909090909,4,1,1,70,0,1
170464,430.623039768038,4,1,1,60,1,0
187258,-133.333333333333,4,1,1,60,0,0
194578,-117.647058823529,4,1,1,60,0,0
198454,-117.647058823529,4,1,1,50,0,0
198885,-117.647058823529,4,1,1,40,0,0
198992,-117.647058823529,4,1,1,35,0,0
199100,-117.647058823529,4,1,1,30,0,0
199208,-117.647058823529,4,1,1,25,0,0
199315,-117.647058823529,4,1,1,20,0,0
199746,-117.647058823529,4,1,1,60,0,0
201468,-100,4,1,1,60,0,0
214387,-83.3333333333333,4,1,1,60,0,0
215248,-100,4,1,1,60,0,0
230320,-200,4,1,1,30,0,0
230751,-100,4,1,1,60,0,0
232043,-200,4,1,1,30,0,0
232473,-100,4,1,1,60,0,0
235488,-200,4,1,1,30,0,0
235918,-100,4,1,1,60,0,0
237210,-200,4,1,1,30,0,0
237641,-100,4,1,1,60,0,0
242701,-100,4,1,1,20,0,0
242794,368.098159509202,4,1,1,30,1,0
260462,-100,4,1,1,50,0,0
272241,-100,4,1,1,45,0,0
281812,-100,4,1,1,50,0,0
282548,-100,4,1,1,55,0,0
283284,-100,4,1,1,60,0,0
289003,310.938827967911,4,1,1,60,1,0
289003,-200,4,1,1,40,0,0
289624,-133.333333333333,4,1,1,50,0,0
290246,-100,4,1,1,60,0,0
291490,-90.9090909090909,4,1,1,70,0,1
310146,-83.3333333333333,4,1,1,70,0,1
310457,-76.9230769230769,4,1,1,70,0,1
311079,-66.6666666666667,4,1,1,70,0,1
311390,-90.9090909090909,4,1,1,70,0,1
313878,-125,4,1,1,65,0,0
318542,-76.9230769230769,4,1,1,65,0,0
318853,-90.9090909090909,4,1,1,70,0,1
338753,-100,4,1,1,65,0,0
348392,-83.3333333333333,4,1,1,65,0,0
348703,-100,4,1,1,65,0,0
378553,-125,4,1,1,60,0,0
395965,-125,4,1,1,40,0,0
396276,-125,4,1,1,50,0,0
396587,-125,4,1,1,40,0,0
396898,-125,4,1,1,50,0,0
397209,-125,4,1,1,40,0,0
397831,-125,4,1,1,50,0,0
398142,-125,4,1,1,55,0,0
418353,-111.111111111111,4,1,1,65,0,0
438253,-100,4,1,1,65,0,1
460641,-111.111111111111,4,1,1,65,0,0
480541,-142.857142857143,4,1,1,65,0,0
505416,-100,4,1,1,65,0,0
555166,-90.9090909090909,4,1,1,65,0,1
594966,-100,4,1,1,65,0,0
669592,-90.9090909090909,4,1,1,65,0,1
704417,-100,4,1,1,65,0,0

[HitObjects]
256,192,1768,12,0,4100,0:0:0:0:
317,235,5033,6,0,L|315:159,1,76
387,197,5344,2,0,L|388:272,1,76,8|0,0:0|0:0,0:0:0:0:
253,209,5655,2,0,P|280:236|316:234,1,76
449,221,5966,2,0,P|422:194|386:196,1,76,8|0,0:0|0:0,0:0:0:0:
314,337,6277,6,0,L|215:323,1,75.0000028610231
58,294,6588,2,0,L|157:280,1,75.0000028610231,8|0,0:0|0:0,0:0:0:0:
282,232,6899,1,2,0:0:0:0:
164,163,7054,1,2,0:0:0:0:
185,292,7210,2,0,L|173:214,1,75.0000028610231,8|0,0:0|0:0,0:0:0:0:
104,70,7521,6,0,P|151:82|213:79,1,75.0000028610231
293,53,7832,1,8,0:0:0:0:
259,178,7987,1,0,0:0:0:0:
93,107,8142,6,0,P|138:112|188:133,1,75.0000028610231
264,210,8453,1,8,0:0:0:0:
330,73,8609,1,0,0:0:0:0:
171,104,8764,5,2,0:0:0:0:
192,236,8920,1,2,0:0:0:0:
321,145,9075,5,8,0:0:0:0:
126,177,9231,1,2,0:0:0:0:
261,323,9386,6,0,B|201:349|147:333|147:333|171:295,1,152,2|8,0:0|0:0,0:0:0:0:
339,190,10008,6,0,P|377:188|414:197,1,76
274,270,10319,1,8,0:0:0:0:
189,137,10475,1,0,0:0:0:0:
354,62,10630,6,0,P|322:98|282:117,1,76
126,76,10941,1,8,0:0:0:0:
94,228,11097,1,0,0:0:0:0:
189,137,11252,2,0,P|206:169|238:191,1,76
367,113,11563,5,10,0:0:0:0:
334,254,11719,1,2,0:0:0:0:
325,98,11874,1,2,0:0:0:0:
362,269,12030,1,2,0:0:0:0:
281,103,12185,2,0,P|231:150|225:171,1,76,8|0,0:0|0:0,0:0:0:0:
90,296,12496,6,0,L|182:281,1,76
247,231,12729,1,0,0:0:0:0:
235,210,12807,2,0,L|159:197,1,76,8|0,0:0|0:0,0:0:0:0:
256,337,13118,1,0,0:0:0:0:
422,296,13273,2,0,L|346:283,2,76,0|8|0,0:0|0:0|0:0,0:0:0:0:
277,210,13740,6,0,L|262:238,2,25.0000009536744
286,197,13895,2,0,B|301:174|301:174|363:207|438:173,1,152
371,73,14362,5,2,0:0:0:0:
141,73,14517,1,2,0:0:0:0:
308,73,14673,5,2,0:0:0:0:
204,73,14828,1,2,0:0:0:0:
322,230,14984,6,0,P|244:220|165:316,2,190,4|8|0,0:0|0:0|0:0,0:0:0:0:
270,317,15761,1,0,0:0:0:0:
168,159,15917,2,0,L|168:261,1,95,8|0,0:0|0:0,0:0:0:0:
70,66,16227,6,0,L|70:185,1,95
50,251,16461,1,0,0:0:0:0:
77,236,16538,2,0,P|124:232|167:253,1,95,8|0,0:0|0:0,0:0:0:0:
276,339,16849,1,0,0:0:0:0:
346,212,17005,1,0,0:0:0:0:
240,244,17160,2,0,P|159:233|127:196,1,95,8|0,0:0|0:0,0:0:0:0:
316,136,17471,6,0,L|418:164,1,95
202,65,17782,2,0,L|293:39,1,95,8|0,0:0|0:0,0:0:0:0:
184,177,18093,1,0,0:0:0:0:
94,156,18249,1,0,0:0:0:0:
158,95,18404,1,8,0:0:0:0:
208,262,18560,1,0,0:0:0:0:
38,221,18715,5,0,0:0:0:0:
184,177,18871,1,2,0:2:0:0:
120,244,19026,1,2,0:2:0:0:
94,156,19182,1,2,0:2:0:0:
208,262,19337,2,0,P|253:236|307:177,1,95,2|2,0:2|0:2,0:0:0:0:
411,343,19648,2,0,P|410:291|386:214,1,95,2|0,0:2|0:0,0:0:0:0:
376,164,19881,1,0,0:0:0:0:
351,141,19959,6,0,P|391:112|437:98,1,95
401,249,20270,2,0,L|296:228,1,95,8|0,0:0|0:0,0:0:0:0:
214,112,20581,1,0,0:0:0:0:
93,184,20736,1,0,0:0:0:0:
93,184,20814,1,0,0:0:0:0:
93,184,20892,1,8,0:0:0:0:
178,190,21047,1,0,0:0:0:0:
105,319,21203,6,0,L|198:337,1,95
298,326,21436,1,0,0:0:0:0:
275,302,21514,2,0,P|254:254|254:208,1,95,8|0,0:0|0:0,0:0:0:0:
163,106,21825,2,0,P|215:111|254:134,1,95
413,220,22136,2,0,P|371:241|324:246,1,95,8|0,0:0|0:0,0:0:0:0:
174,191,22447,6,0,B|161:259|189:335|189:335|201:316|233:305,2,190,0|8|0,0:0|0:0|0:0,0:0:0:0:
281,52,23224,1,0,0:0:0:0:
428,142,23380,1,8,0:0:0:0:
281,176,23535,1,0,0:0:0:0:
344,340,23691,5,0,0:0:0:0:
360,240,23846,1,2,0:3:0:0:
360,240,23924,1,2,0:3:0:0:
360,240,24002,1,2,0:3:0:0:
265,276,24157,1,0,0:0:0:0:
376,140,24312,5,0,0:0:0:0:
366,315,24468,1,2,0:3:0:0:
271,166,24623,1,2,0:3:0:0:
435,232,24779,1,0,0:0:0:0:
265,276,24934,6,0,P|209:281|132:171,2,190,4|8|0,0:0|0:0|0:0,0:0:0:0:
134,326,25712,1,0,0:0:0:0:
218,202,25867,2,0,L|313:202,1,95,8|0,0:0|0:0,0:0:0:0:
358,64,26178,6,0,L|263:64,1,95
168,92,26411,1,0,0:0:0:0:
151,63,26489,2,8,P|122:117|122:166,1,95,8|0,0:0|0:0,0:0:0:0:
256,100,26800,1,0,0:0:0:0:
393,149,26956,1,0,0:0:0:0:
238,215,27111,2,0,P|267:161|267:112,1,95,8|0,0:0|0:0,0:0:0:0:
336,265,27422,6,0,L|353:367,1,95
455,213,27733,2,0,L|470:119,1,95,8|0,0:0|0:0,0:0:0:0:
331,30,28044,1,0,0:0:0:0:
346,123,28200,1,0,0:0:0:0:
287,275,28355,1,8,0:0:0:0:
272,182,28510,1,0,0:0:0:0:
360,215,28666,5,0,0:0:0:0:
256,87,28821,1,2,0:2:0:0:
418,63,28977,1,2,0:2:0:0:
346,123,29132,1,2,0:2:0:0:
331,30,29288,1,2,0:2:0:0:
272,182,29443,1,2,0:2:0:0:
434,156,29599,1,2,0:2:0:0:
256,87,29754,1,2,0:2:0:0:
256,87,29832,1,0,0:0:0:0:
256,87,29910,6,0,P|183:126|134:127,1,95
49,206,30221,2,0,L|49:97,1,95,8|0,0:0|0:0,0:0:0:0:
106,277,30532,1,0,0:0:0:0:
141,197,30687,1,0,0:0:0:0:
141,197,30765,1,0,0:0:0:0:
141,197,30843,1,8,0:0:0:0:
179,342,30998,1,0,0:0:0:0:
231,171,31154,6,0,L|241:272,1,95
325,206,31387,1,0,0:0:0:0:
319,177,31465,2,0,L|309:82,1,95,8|0,0:0|0:0,0:0:0:0:
133,148,31776,2,0,L|227:139,1,95
419,197,32087,2,0,L|325:206,1,95,8|0,0:0|0:0,0:0:0:0:
164,324,32397,6,0,B|249:323|306:313|306:313|292:336|262:350,2,190,0|8|0,0:0|0:0|0:0,0:0:0:0:
55,226,33175,1,0,0:0:0:0:
199,279,33330,1,8,0:0:0:0:
111,137,33486,1,2,0:3:0:0:
111,137,33564,1,2,0:3:0:0:
111,137,33641,5,2,0:3:0:0:
115,290,33797,1,0,0:0:0:0:
222,159,33952,2,0,L|207:189,1,23.75
251,173,34030,2,0,L|244:204,1,23.75
284,175,34108,2,0,L|287:199,1,23.75
315,165,34186,2,0,L|331:189,1,23.75
338,140,34263,2,0,P|326:102|261:70,1,95
256,320,34574,5,4,0:3:0:0:
112,251,34885,6,0,P|133:222|162:144,1,95,6|0,0:3|0:0,0:0:0:0:
131,71,35196,1,8,0:0:0:0:
235,124,35352,1,2,0:3:0:0:
225,272,35507,1,2,0:3:0:0:
219,248,35585,2,0,L|200:182,1,47.5
339,177,35818,2,0,P|389:184|424:215,1,95,8|0,0:0|0:0,0:0:0:0:
374,322,36129,6,0,P|324:315|289:284,1,95,2|0,0:3|0:0,0:0:0:0:
288,375,36440,1,8,0:0:0:0:
358,249,36595,1,2,0:3:0:0:
193,267,36751,1,2,0:3:0:0:
205,284,36829,2,0,P|237:278|262:264,1,47.5
105,183,37062,1,8,0:0:0:0:
105,278,37217,1,0,0:0:0:0:
105,88,37373,6,0,P|56:105|17:136,1,95,2|0,0:3|0:0,0:0:0:0:
171,152,37684,1,8,0:0:0:0:
257,27,37839,1,2,0:3:0:0:
319,165,37995,1,2,0:3:0:0:
294,157,38073,2,0,P|263:161|241:175,1,47.5
174,70,38306,2,0,P|223:53|262:22,1,95,8|0,0:0|0:0,0:0:0:0:
418,88,38617,6,0,L|313:88,1,95,2|0,0:3|0:0,0:0:0:0:
236,195,38928,1,8,0:0:0:0:
333,289,39083,1,2,0:3:0:0:
363,150,39239,1,2,0:3:0:0:
382,174,39316,2,0,L|444:174,1,47.5
333,289,39550,1,8,0:0:0:0:
236,195,39705,1,0,0:0:0:0:
218,346,39861,6,0,P|269:332|331:336,1,95,2|0,0:3|0:0,0:0:0:0:
218,245,40172,1,8,0:0:0:0:
58,261,40327,1,2,0:3:0:0:
156,151,40482,1,2,0:3:0:0:
157,184,40560,2,0,L|109:208,1,47.5
90,352,40793,2,0,P|120:309|171:276,1,95,8|0,0:0|0:0,0:0:0:0:
328,287,41104,6,0,L|328:183,1,95,0|0,0:3|0:0,0:0:0:0:
350,51,41415,1,8,0:0:0:0:
420,177,41571,1,2,0:3:0:0:
267,128,41726,1,2,0:3:0:0:
244,149,41804,2,0,L|244:208,1,47.5
350,51,42037,2,0,L|350:146,1,95,8|0,0:0|0:0,0:0:0:0:
399,286,42348,6,0,P|368:265|278:250,1,95,2|0,0:3|0:0,0:0:0:0:
193,314,42659,1,8,0:0:0:0:
83,259,42815,1,2,0:3:0:0:
238,220,42970,1,2,0:3:0:0:
200,210,43048,2,0,P|196:176|168:140,1,47.5
193,314,43281,2,0,P|238:302|278:277,1,95,8|0,0:0|0:0,0:0:0:0:
161,124,43592,6,0,L|170:233,1,95,2|0,3:0|3:0,3:0:0:0:
360,151,43903,2,0,L|367:56,1,95,2|0,3:0|3:0,3:0:0:0:
207,143,44214,5,0,3:0:0:0:
399,140,44369,1,0,3:0:0:0:
308,309,44525,6,0,B|343:254|262:203|307:147,1,170.999994781494,4|0,3:0|3:0,3:0:0:0:
285,101,44836,6,0,P|225:118|200:176,1,95,6|0,0:3|0:0,0:0:0:0:
191,284,45147,1,8,0:0:0:0:
281,181,45302,1,2,0:3:0:0:
123,114,45458,1,2,0:3:0:0:
112,145,45536,1,0,0:0:0:0:
83,160,45613,1,0,0:0:0:0:
197,68,45769,2,0,P|245:77|288:104,1,95,8|0,0:0|0:0,0:0:0:0:
423,179,46080,6,0,P|375:170|332:143,1,95,2|0,0:3|0:0,0:0:0:0:
382,60,46391,1,8,0:0:0:0:
238,187,46546,1,2,0:3:0:0:
261,77,46702,1,2,0:3:0:0:
284,100,46779,1,0,0:0:0:0:
307,123,46857,1,0,0:0:0:0:
424,240,47013,1,8,0:0:0:0:
330,146,47168,1,0,0:0:0:0:
270,278,47324,6,0,L|270:375,1,95,2|0,0:3|0:0,0:0:0:0:
270,192,47635,1,8,0:0:0:0:
190,318,47790,1,2,0:3:0:0:
371,288,47946,1,2,0:3:0:0:
385,258,48023,1,0,0:0:0:0:
379,225,48101,1,0,0:0:0:0:
270,328,48257,2,0,L|270:215,1,95,8|0,0:0|0:0,0:0:0:0:
112,143,48567,6,0,P|146:181|162:236,1,95,2|0,0:3|0:0,0:0:0:0:
191,102,48878,1,8,0:0:0:0:
35,181,49034,1,2,0:3:0:0:
169,275,49189,1,2,0:3:0:0:
200,284,49267,1,0,0:0:0:0:
231,272,49345,1,0,0:0:0:0:
147,190,49500,1,8,0:0:0:0:
103,332,49656,2,0,L|167:344,1,47.5
238,366,49811,5,2,0:3:0:0:
399,332,49967,1,2,0:3:0:0:
238,366,50122,2,0,L|230:266,1,95,8|0,0:0|0:0,0:0:0:0:
421,299,50433,1,2,0:3:0:0:
230,271,50589,1,2,0:3:0:0:
421,299,50744,2,0,L|429:199,1,95,8|0,0:0|0:0,0:0:0:0:
326,50,51055,5,2,0:3:0:0:
326,50,51211,1,2,0:3:0:0:
348,211,51366,2,0,L|244:196,1,95,8|0,0:0|0:0,0:0:0:0:
326,50,51677,1,2,0:3:0:0:
430,178,51833,1,2,0:3:0:0:
254,197,51988,2,0,P|205:200|149:237,1,95,8|0,0:0|0:0,0:0:0:0:
65,329,52299,6,0,L|111:336,1,47.5,2|0,0:0|0:0,0:0:0:0:
219,283,52454,2,0,L|172:275,1,47.5,2|0,0:0|0:0,0:0:0:0:
54,175,52610,2,0,L|153:195,1,95,2|0,0:0|0:0,0:0:0:0:
298,179,52921,6,0,P|299:150|304:131,1,47.5,2|0,0:0|0:0,0:0:0:0:
429,236,53076,2,0,P|403:249|384:254,1,47.5,2|0,0:0|0:0,0:0:0:0:
413,95,53232,2,0,P|450:125|482:172,1,95,2|0,0:0|0:0,0:0:0:0:
405,323,53543,5,2,0:0:0:0:
259,299,53698,2,0,L|270:333,1,23.75
227,309,53776,2,0,L|221:337,1,23.75,0|0,0:0|0:0,0:0:0:0:
196,295,53854,2,0,L|176:322,1,23.75,0|0,0:0|0:0,0:0:0:0:
303,222,54009,1,2,0:0:0:0:
229,79,54165,6,0,L|252:51,1,23.75,2|0,0:0|0:0,0:0:0:0:
253,101,54243,2,0,L|280:91,1,23.75,0|0,0:0|0:0,0:0:0:0:
256,134,54321,2,0,L|289:136,1,23.75,0|0,0:0|0:0,0:0:0:0:
93,214,54476,6,0,L|57:205,1,23.75,0|0,0:0|0:0,0:0:0:0:
99,180,54554,2,0,L|77:160,1,23.75,0|0,0:0|0:0,0:0:0:0:
127,160,54632,2,0,L|112:128,1,23.75,0|0,0:0|0:0,0:0:0:0:
303,222,54787,6,0,L|411:235,2,104.500003189087,4|0|8,0:0|0:0|0:0,0:0:0:0:
219,311,55253,2,0,L|115:323,1,104.500003189087,2|0,0:3|0:0,0:0:0:0:
28,155,55564,2,0,P|89:217|143:125,1,209.000006378174,2|0,0:3|0:0,0:0:0:0:
158,50,55953,1,0,0:0:0:0:
188,70,56031,6,0,P|244:70|302:108,1,104.500003189087,2|2,0:3|0:3,0:0:0:0:
215,177,56342,1,8,0:0:0:0:
385,189,56497,1,0,0:0:0:0:
274,317,56652,1,2,0:3:0:0:
285,148,56808,1,2,0:3:0:0:
414,258,56963,1,8,0:0:0:0:
314,217,57119,1,0,0:0:0:0:
355,118,57274,5,2,0:3:0:0:
244,246,57430,1,0,0:0:0:0:
244,246,57508,1,0,0:0:0:0:
244,246,57585,2,0,P|249:185|230:136,1,104.500003189087,8|0,0:0|0:0,0:0:0:0:
123,84,57896,1,0,0:0:0:0:
167,207,58052,2,0,P|152:256|158:308,1,104.500003189087,0|8,0:0|0:0,0:0:0:0:
37,243,58363,1,2,0:3:0:0:
162,139,58518,5,2,0:3:0:0:
195,270,58674,1,0,0:0:0:0:
131,217,58829,1,8,0:0:0:0:
320,166,58985,2,0,P|382:177|404:221,2,104.500003189087,2|0|0,0:3|0:0|0:0,0:0:0:0:
269,239,59373,1,0,0:0:0:0:
266,273,59451,2,0,L|215:114,1,156.750004783631,8|0,0:0|0:0,0:0:0:0:
199,52,59762,5,2,0:2:0:0:
293,122,59918,1,2,0:2:0:0:
203,65,60073,1,8,0:0:0:0:
155,157,60229,1,2,0:2:0:0:
207,78,60384,1,2,0:2:0:0:
95,65,60539,1,2,0:2:0:0:
211,91,60695,1,8,0:0:0:0:
303,23,60850,2,0,P|337:73|379:104,1,104.500003189087,2|0,0:2|0:0,0:0:0:0:
491,211,61161,6,0,P|441:246|393:245,1,104.500003189087,0|8,0:0|0:0,0:0:0:0:
297,259,61395,1,2,0:3:0:0:
320,230,61472,2,0,L|320:344,1,104.500003189087,2|0,0:3|0:0,0:0:0:0:
374,161,61783,1,0,0:0:0:0:
242,215,61939,1,8,0:0:0:0:
355,301,62094,1,0,0:0:0:0:
422,141,62250,6,0,L|374:160,1,52.2500015945435,2|0,0:0|0:0,0:0:0:0:
101,87,62483,2,0,L|149:106,1,52.2500015945435,2|0,0:0|0:0,0:0:0:0:
210,277,62716,1,2,0:0:0:0:
226,293,62794,1,0,0:0:0:0:
245,300,62872,6,0,L|227:348,1,52.2500015945435,2|0,0:0|0:0,0:0:0:0:
150,107,63105,2,0,L|168:59,1,52.2500015945435,2|0,0:0|0:0,0:0:0:0:
373,160,63338,2,0,L|441:176,1,52.2500015945435,2|0,0:0|0:0,0:0:0:0:
448,220,63494,5,2,0:3:0:0:
402,53,63649,2,0,L|289:35,1,104.500003189087,2|8,0:3|0:0,0:0:0:0:
69,174,63960,2,0,L|182:156,1,104.500003189087,2|0,0:3|0:0,0:0:0:0:
118,71,64271,1,0,0:0:0:0:
149,201,64427,1,8,0:0:0:0:
181,332,64582,1,0,0:0:0:0:
317,233,64737,5,2,0:2:0:0:
185,216,64893,1,2,0:2:0:0:
317,215,65048,1,8,0:0:0:0:
360,324,65204,1,2,0:2:0:0:
317,197,65359,1,2,0:2:0:0:
448,216,65515,1,2,0:2:0:0:
317,179,65670,1,8,0:0:0:0:
279,324,65826,2,0,P|233:296|163:294,1,104.500003189087,2|0,0:2|0:0,0:0:0:0:
48,241,66137,5,2,0:3:0:0:
217,204,66292,1,8,0:0:0:0:
126,195,66448,1,0,0:0:0:0:
164,113,66603,1,2,0:3:0:0:
146,286,66759,1,2,0:3:0:0:
59,135,66914,1,8,0:0:0:0:
126,195,67070,1,2,0:3:0:0:
204,35,67225,6,0,L|343:35,1,104.500003189087,2|0,0:3|0:0,0:0:0:0:
441,179,67536,2,0,L|336:179,1,104.500003189087,8|0,0:0|0:0,0:0:0:0:
205,273,67847,1,2,0:3:0:0:
161,121,68003,2,0,L|265:121,1,104.500003189087,2|8,0:3|0:0,0:0:0:0:
359,275,68314,2,0,L|254:275,1,104.500003189087
126,243,68624,5,2,0:2:0:0:
118,235,68780,1,2,0:2:0:0:
113,225,68935,1,2,0:2:0:0:
111,214,69091,1,2,0:2:0:0:
112,203,69246,1,2,0:2:0:0:
115,193,69402,1,2,0:2:0:0:
120,184,69557,1,2,0:2:0:0:
259,179,69713,5,0,0:0:0:0:
315,71,69868,1,0,0:0:0:0:
380,173,70024,1,10,0:1:0:0:
277,139,70179,5,0,0:0:0:0:
380,73,70334,1,0,0:0:0:0:
385,194,70490,1,2,0:0:0:0:
311,121,70646,5,8,0:0:0:0:
433,115,70801,1,0,0:0:0:0:
377,222,70957,1,2,0:0:0:0:
380,73,71112,5,0,0:0:0:0:
187,97,71268,1,8,0:0:0:0:
280,39,71423,1,0,0:0:0:0:
241,188,71579,1,0,0:0:0:0:
94,155,71734,1,0,0:0:0:0:
249,157,71890,1,8,0:0:0:0:
102,124,72045,1,0,0:0:0:0:
233,219,72201,5,0,0:0:0:0:
110,251,72356,1,0,0:0:0:0:
200,342,72512,1,10,0:0:0:0:
211,177,72667,5,0,0:0:0:0:
120,266,72822,1,0,0:0:0:0:
243,300,72978,1,2,0:0:0:0:
174,153,73133,5,8,0:0:0:0:
140,275,73288,1,0,0:0:0:0:
264,243,73444,1,2,0:0:0:0:
333,352,73599,5,0,0:0:0:0:
388,211,73755,1,8,0:0:0:0:
264,243,73911,1,0,0:0:0:0:
319,102,74066,1,0,0:0:0:0:
333,258,74222,1,0,0:0:0:0:
316,66,74377,1,8,0:0:0:0:
330,222,74533,1,0,0:0:0:0:
319,102,74688,5,0,0:0:0:0:
244,209,74844,1,0,0:0:0:0:
188,90,74999,1,10,0:0:0:0:
292,134,75155,5,0,0:0:0:0:
161,194,75311,1,0,0:0:0:0:
173,50,75466,1,2,0:0:0:0:
254,153,75621,5,8,0:0:0:0:
310,273,75777,1,0,0:0:0:0:
385,165,75932,1,2,0:0:0:0:
212,148,76088,5,0,0:0:0:0:
329,230,76244,1,8,0:0:0:0:
341,85,76399,1,2,0:2:0:0:
246,224,76554,5,2,0:2:0:0:
390,302,76709,1,0,0:0:0:0:
296,315,76865,1,8,0:0:0:0:
405,198,77020,1,0,0:0:0:0:
246,224,77176,5,0,0:0:0:0:
87,250,77331,1,0,0:0:0:0:
169,322,77487,1,8,0:0:0:0:
156,171,77642,2,0,P|177:217|176:284,2,104.500003189087
223,73,78109,1,8,0:0:0:0:
48,101,78264,1,0,0:0:0:0:
156,171,78420,5,0,0:0:0:0:
313,131,78575,1,2,0:2:0:0:
208,158,78731,5,8,0:0:0:0:
365,118,78886,1,2,0:2:0:0:
260,145,79042,5,0,0:0:0:0:
417,105,79197,1,2,0:2:0:0:
208,158,79353,5,8,0:0:0:0:
365,118,79508,2,0,P|388:176|360:203,1,104.500003189087,2|0,0:2|0:0,0:0:0:0:
209,74,79819,6,0,P|181:115|207:157,1,104.500003189087,0|8,0:0|0:0,0:0:0:0:
268,235,80052,1,0,0:0:0:0:
297,250,80130,2,0,L|188:262,1,104.500003189087
54,211,80441,2,0,L|130:203,2,52.2500015945435,0|0|8,0:0|0:0|0:0,0:0:0:0:
256,338,80752,2,0,L|204:343,1,52.2500015945435
177,292,80907,5,0,0:0:0:0:
347,247,81063,1,2,0:2:0:0:
177,201,81218,1,8,0:0:0:0:
334,292,81374,1,2,0:2:0:0:
164,247,81529,1,0,0:0:0:0:
334,201,81685,1,2,0:2:0:0:
256,338,81840,1,8,0:0:0:0:
256,156,81996,1,2,0:2:0:0:
256,246,82151,5,0,0:0:0:0:
432,181,82307,2,0,P|405:253|403:299,1,104.500003189087,2|8,0:2|0:0,0:0:0:0:
334,110,82618,1,0,0:0:0:0:
339,216,82773,1,2,0:2:0:0:
174,171,82929,1,0,0:0:0:0:
241,254,83084,1,8,0:0:0:0:
231,82,83240,1,0,0:0:0:0:
270,190,83395,5,0,0:0:0:0:
258,326,83551,5,8,0:0:0:0:
169,276,83862,5,8,0:0:0:0:
353,231,84173,5,8,0:0:0:0:
123,115,84484,5,8,0:0:0:0:
399,74,84639,6,0,B|431:96|431:96|367:127|389:172,1,132.999995941162,4|8,0:0|0:0,0:0:0:0:
396,252,85261,1,0,0:0:0:0:
335,314,85416,1,0,0:0:0:0:
259,265,85572,2,0,P|228:254|162:257,1,99.7499969558717,8|0,0:0|0:0,0:0:0:0:
134,311,85883,6,0,L|122:218,1,66.4999979705811,2|0,3:0|3:0,3:0:0:0:
246,173,86194,2,0,L|236:253,1,80.750001540184,2|0,3:0|3:0,3:0:0:0:
111,140,86505,2,0,L|98:34,1,95,2|0,3:0|3:0,3:0:0:0:
301,71,86816,6,0,B|313:123|334:175|334:175|372:130|403:84,1,218.500004167557,6|4,0:0|0:0,0:0:0:0:
301,71,92102,6,0,L|317:191,1,114,2|0,0:0|0:0,0:0:0:0:
331,213,92413,2,0,P|299:219|250:204,1,76,2|2,0:0|0:0,0:0:0:0:
190,176,92646,1,0,0:0:0:0:
177,196,92724,2,0,L|192:294,2,76,2|0|2,0:0|0:0|0:0,0:0:0:0:
283,308,93190,1,2,0:0:0:0:
384,258,93346,6,0,L|405:128,1,114,2|0,0:0|0:0,0:0:0:0:
359,107,93657,2,0,L|371:191,1,76,2|2,0:0|0:0,0:0:0:0:
252,129,93968,2,0,L|262:53,1,76,2|0,0:0|0:0,0:0:0:0:
135,88,94279,1,2,0:0:0:0:
158,188,94434,1,2,0:0:0:0:
105,280,94590,6,0,P|131:319|181:314,1,76,2|0,0:0|0:0,0:0:0:0:
263,305,94901,2,0,P|237:266|187:271,1,76,2|2,0:0|0:0,0:0:0:0:
187,264,95134,1,0,0:0:0:0:
267,171,95289,1,0,0:0:0:0:
294,172,95367,1,0,0:0:0:0:
263,305,95523,1,2,0:0:0:0:
396,270,95678,1,2,0:0:0:0:
368,120,95834,6,0,L|261:99,1,76,2|0,3:0|3:0,3:0:0:0:
187,264,96145,2,0,L|310:239,1,95,2|0,3:0|3:0,3:0:0:0:
156,84,96456,6,0,B|156:48|124:36|88:56|84:88|120:128|120:128|120:152|100:168,1,170.999994781494,2|0,3:0|0:0,3:0:0:0:
100,184,96766,1,6,0:0:0:0:
71,358,97077,6,0,P|153:346|213:304,1,128.249996086121,2|0,0:2|0:0,0:0:0:0:
233,254,97388,2,0,L|250:339,1,85.4999973907472,8|2,0:0|0:2,0:0:0:0:
259,366,97622,1,0,0:0:0:0:
384,243,97777,1,0,0:0:0:0:
374,271,97855,1,0,0:0:0:0:
256,174,98010,1,8,0:0:0:0:
324,328,98166,1,2,0:2:0:0:
480,248,98321,6,0,P|445:196|392:154,1,128.249996086121,2|0,0:2|0:0,0:0:0:0:
366,145,98632,1,8,0:0:0:0:
180,151,98788,2,0,L|87:137,1,85.4999973907472,2|2,0:2|0:2,0:0:0:0:
118,227,99021,1,0,0:0:0:0:
148,243,99099,2,0,L|266:258,1,85.4999973907472,0|8,0:0|0:0,0:0:0:0:
65,132,99410,1,2,0:2:0:0:
203,45,99565,5,2,0:2:0:0:
210,208,99721,1,0,0:0:0:0:
157,129,99876,1,8,0:0:0:0:
316,64,100032,1,2,0:2:0:0:
310,93,100109,1,0,0:0:0:0:
216,237,100266,1,0,0:0:0:0:
210,208,100343,1,0,0:0:0:0:
338,157,100498,1,8,0:0:0:0:
157,129,100654,1,2,0:2:0:0:
64,275,100809,6,0,L|167:301,1,85.4999973907472,2|0,0:3|0:0,0:0:0:0:
414,313,101120,2,0,L|331:292,1,85.4999973907472,2|0,0:3|0:0,0:0:0:0:
246,299,101353,1,0,0:0:0:0:
243,266,101431,2,0,L|160:245,1,85.4999973907472,2|0,0:3|0:0,0:0:0:0:
430,173,101742,2,0,L|347:193,1,85.4999973907472,6|0,0:0|0:0,0:0:0:0:
335,27,102053,6,0,B|244:121,1,128.249996086121,2|0,0:2|0:0,0:0:0:0:
189,174,102364,2,0,P|212:151|263:147,1,85.4999973907472,8|2,0:0|0:2,0:0:0:0:
289,160,102597,1,0,0:0:0:0:
329,286,102752,1,0,0:0:0:0:
302,272,102830,1,0,0:0:0:0:
457,205,102986,1,8,0:0:0:0:
355,96,103141,1,2,0:2:0:0:
359,265,103297,6,0,P|327:204|273:145,1,128.249996086121,2|0,0:2|0:0,0:0:0:0:
271,134,103608,1,8,0:0:0:0:
99,190,103763,2,0,L|99:277,1,85.4999973907472,2|2,0:2|0:2,0:0:0:0:
205,254,103996,1,0,0:0:0:0:
237,231,104074,2,0,L|237:316,1,85.4999973907472,0|8,0:0|0:0,0:0:0:0:
212,108,104385,1,2,0:2:0:0:
205,254,104541,5,2,0:2:0:0:
331,191,104696,1,0,0:0:0:0:
471,220,104852,1,8,0:0:0:0:
290,269,105007,1,2,0:2:0:0:
290,269,105085,1,0,0:0:0:0:
411,155,105241,1,0,0:0:0:0:
411,155,105319,1,0,0:0:0:0:
246,176,105474,1,8,0:0:0:0:
391,256,105629,1,2,0:2:0:0:
321,106,105785,5,2,0:3:0:0:
290,269,105940,2,0,L|306:300,1,21.3749993476868,2|0,0:3|0:0,0:0:0:0:
263,283,106018,2,0,L|265:312,1,21.3749993476868,2|0,0:3|0:0,0:0:0:0:
233,279,106095,2,0,L|226:305,1,21.3749993476868,2|0,0:3|0:0,0:0:0:0:
331,191,106251,1,0,0:0:0:0:
236,91,106406,6,0,L|257:160,1,42.7499986953736,2|0,0:3|0:0,0:0:0:0:
134,227,106562,2,0,L|142:180,1,42.7499986953736
282,133,106717,2,0,L|280:197,1,42.7499986953736,2|0,0:3|0:0,0:0:0:0:
92,181,106873,2,0,L|120:148,1,42.7499986953736
169,93,107028,5,0,0:0:0:0:
310,263,107184,1,2,0:3:0:0:
310,263,107495,5,2,0:3:0:0:
343,141,107650,1,0,0:0:0:0:
174,267,107806,1,2,0:3:0:0:
174,267,108117,5,2,0:3:0:0:
207,139,108272,5,0,0:2:0:0:
295,120,108428,1,2,0:2:0:0:
188,51,108583,5,0,0:2:0:0:
276,32,108739,1,2,0:2:0:0:
207,139,108894,5,0,0:2:0:0:
335,172,109049,1,2,0:2:0:0:
174,267,109205,5,0,0:2:0:0:
302,300,109360,1,2,0:2:0:0:
256,192,109516,12,0,110449,0:0:0:0:
347,132,110760,6,2,L|361:199,3,42.7499986953736,2|2|2|2,0:2|0:2|0:2|0:2,0:2:0:0:
215,256,111071,2,2,L|223:214,3,42.7499986953736,2|2|2|2,0:2|0:2|0:2|0:2,0:2:0:0:
264,205,111382,5,2,0:3:0:0:
290,172,111460,1,2,0:3:0:0:
289,129,111538,1,2,0:3:0:0:
262,97,111615,1,2,0:3:0:0:
219,90,111693,1,2,0:3:0:0:
183,111,111771,1,2,0:3:0:0:
168,153,111849,1,2,0:3:0:0:
184,193,111926,1,2,0:3:0:0:
222,214,112004,6,0,P|224:278|203:303,1,95,4|0,0:0|0:0,0:0:0:0:
72,236,112315,2,0,P|48:195|56:149,1,95,4|0,0:0|0:0,0:0:0:0:
107,65,112548,1,0,0:0:0:0:
124,90,112626,2,0,L|235:90,1,95
366,24,112936,2,0,L|255:24,1,95
325,173,113247,5,0,0:0:0:0:
467,121,113403,1,0,0:0:0:0:
424,220,113558,1,0,0:0:0:0:
226,126,113714,1,0,0:0:0:0:
226,126,113792,1,0,0:0:0:0:
226,126,113869,2,0,P|182:172|152:187,1,95
261,219,114180,1,0,0:0:0:0:
144,106,114336,1,0,0:0:0:0:
98,254,114491,5,0,0:0:0:0:
229,335,114647,1,0,0:0:0:0:
339,220,114802,2,0,L|299:129,1,95
441,190,115113,1,0,0:0:0:0:
308,281,115269,1,0,0:0:0:0:
194,159,115424,2,0,L|254:61,1,95
298,146,115657,1,0,0:0:0:0:
287,177,115735,6,0,P|297:221|353:185,1,95
421,112,116046,2,0,P|411:68|355:104,1,95
298,146,116279,1,0,0:0:0:0:
287,177,116357,2,0,P|241:175|189:156,1,95
70,64,116668,6,0,P|29:120|38:189,1,142.5
70,238,116979,5,0,0:0:0:0:
142,162,117134,1,0,0:0:0:0:
144,318,117290,1,0,0:0:0:0:
241,191,117445,1,0,0:0:0:0:
241,191,117523,1,0,0:0:0:0:
241,191,117601,2,0,L|253:304,1,95
459,243,117912,2,0,L|448:337,1,95
338,167,118223,6,0,L|327:72,1,95
241,191,118534,1,0,0:0:0:0:
347,275,118689,1,0,0:0:0:0:
420,85,118845,2,0,P|377:85|311:65,1,95
223,48,119078,1,0,0:0:0:0:
185,54,119156,2,0,P|159:107|157:157,1,95
256,276,119467,5,0,0:0:0:0:
279,121,119622,1,0,0:0:0:0:
400,218,119778,1,0,0:0:0:0:
222,192,119933,1,0,0:0:0:0:
367,134,120089,2,0,L|470:146,1,95
335,295,120400,2,0,L|238:315,1,95
310,205,120633,1,0,0:0:0:0:
345,197,120711,6,0,P|396:210|420:250,1,95
302,354,121021,1,0,0:0:0:0:
221,169,121177,1,0,0:0:0:0:
286,250,121332,2,0,P|244:301|185:272,1,142.5
220,168,121643,6,0,P|213:141|161:139,1,71.2500027179719
285,249,121954,6,0,P|331:261|377:252,1,95
225,354,122265,2,0,L|125:336,1,95
212,248,122499,1,0,0:0:0:0:
247,267,122576,2,0,L|272:153,1,95
357,16,122887,2,0,L|377:108,1,95
413,281,123198,5,0,0:0:0:0:
296,195,123354,1,0,0:0:0:0:
433,136,123509,2,0,L|345:177,1,95
243,183,123742,1,0,0:0:0:0:
212,169,123820,2,0,P|203:129|212:72,1,95
346,176,124131,1,0,0:0:0:0:
296,41,124287,1,0,0:0:0:0:
474,145,124442,6,0,P|423:157|362:156,1,95
212,169,124753,1,0,0:0:0:0:
296,41,124908,1,0,0:0:0:0:
97,60,125064,2,0,P|83:106|91:169,1,95
156,312,125375,1,0,0:0:0:0:
212,169,125530,1,0,0:0:0:0:
212,169,125608,1,0,0:0:0:0:
212,169,125686,6,0,P|169:180|171:224,1,95
296,293,125997,2,0,P|338:281|336:237,1,95
243,187,126230,1,0,0:0:0:0:
212,169,126308,2,0,P|269:161|313:147,1,95
442,64,126619,6,0,P|483:120|474:189,1,142.5
442,238,126930,5,0,0:0:0:0:
410,142,127085,1,0,0:0:0:0:
279,33,127241,1,0,0:0:0:0:
311,129,127396,1,0,0:0:0:0:
311,129,127474,1,0,0:0:0:0:
311,129,127552,2,0,P|256:127|186:141,1,95
60,219,127863,1,0,0:0:0:0:
91,131,128018,1,0,0:0:0:0:
174,189,128174,5,0,0:0:0:0:
118,349,128329,1,0,0:0:0:0:
60,219,128485,2,0,P|71:165|125:103,1,95
181,72,128718,1,0,0:0:0:0:
199,101,128796,2,0,L|293:101,1,95
60,219,129106,2,0,L|155:219,1,95
199,330,129417,5,0,0:0:0:0:
306,281,129573,2,0,P|324:333|308:381,2,95
226,215,129962,1,0,0:0:0:0:
206,190,130039,2,0,L|326:168,1,95
402,233,130273,1,0,0:0:0:0:
399,263,130350,2,0,L|305:280,1,95
212,319,130584,1,0,0:0:0:0:
212,319,130661,5,0,0:0:0:0:
334,329,130817,1,0,0:0:0:0:
344,207,130972,1,0,0:0:0:0:
221,197,131128,1,0,0:0:0:0:
271,349,131283,5,0,0:0:0:0:
420,300,131439,1,0,0:0:0:0:
373,148,131594,1,0,0:0:0:0:
221,197,131750,2,0,L|152:218,1,47.5
120,253,131905,6,0,P|100:183|172:124,1,142.5
194,86,132216,2,0,L|96:75,1,95
31,156,132449,1,0,0:0:0:0:
55,178,132527,2,0,L|153:167,1,95
395,53,132838,6,0,B|398:74|393:92|393:92|395:106|412:119,1,71.25,4|0,0:0|0:0,0:0:0:0:
426,138,133149,6,0,P|390:165|291:148,1,142.5
248,95,133460,2,0,L|273:212,1,95
240,275,133693,1,0,0:0:0:0:
240,275,133771,1,0,0:0:0:0:
364,292,133926,1,0,0:0:0:0:
117,331,134082,6,0,B|114:310|119:292|119:292|117:278|100:265,1,71.25,4|0,0:0|0:0,0:0:0:0:
78,249,134393,5,0,0:0:0:0:
94,106,134548,1,0,0:0:0:0:
226,193,134704,5,0,0:0:0:0:
86,177,134859,1,0,0:0:0:0:
243,51,135015,5,0,0:0:0:0:
226,193,135170,1,0,0:0:0:0:
94,106,135326,5,0,0:0:0:0:
234,121,135481,1,0,0:0:0:0:
78,249,135637,6,0,P|134:249|195:265,1,95
286,372,135948,5,0,0:0:0:0:
121,337,136104,1,0,0:0:0:0:
274,277,136259,1,0,0:0:0:0:
172,256,136414,1,0,0:0:0:0:
444,321,136570,6,0,B|428:312|428:312|401:332|401:332|383:324,1,71.25,4|0,0:0|0:0,0:0:0:0:
358,315,136881,6,0,P|289:295|182:316,1,142.5
181,362,137191,2,0,P|136:327|120:278,1,95
138,200,137425,1,0,0:0:0:0:
138,200,137502,1,0,0:0:0:0:
45,299,137658,1,0,0:0:0:0:
68,63,137813,6,0,B|84:72|84:72|111:52|111:52|129:60,1,71.25,4|0,0:0|0:0,0:0:0:0:
159,82,138124,6,0,P|200:31|278:36,1,142.5
353,68,138435,2,0,L|259:81,1,95
286,164,138669,1,0,0:0:0:0:
311,191,138746,2,0,L|217:204,1,95
395,305,139057,2,0,L|301:318,1,95
256,192,139368,12,0,140457,0:0:0:0:
187,241,145587,6,0,L|185:298,1,47.5
192,66,145898,2,0,L|190:123,1,47.5
40,182,146209,6,0,L|133:158,1,71.2500027179719
344,107,146520,2,0,L|251:131,1,71.2500027179719
261,302,146831,5,0,0:0:0:0:
376,168,146987,1,0,0:0:0:0:
204,208,147142,1,0,0:0:0:0:
367,277,147298,1,0,0:0:0:0:
296,215,147453,5,0,0:0:0:0:
291,193,147531,1,0,0:0:0:0:
285,169,147609,1,0,0:0:0:0:
281,147,147686,1,0,0:0:0:0:
276,125,147764,2,0,P|223:86|147:137,1,142.5
131,164,148075,5,0,0:0:0:0:
196,310,148231,1,0,0:0:0:0:
29,288,148386,2,0,P|67:258|129:251,1,104.500003189087
225,269,148619,1,0,0:0:0:0:
257,293,148697,2,0,L|257:186,1,104.500003189087
219,43,149008,1,0,0:0:0:0:
118,168,149163,1,0,0:0:0:0:
219,43,149319,5,0,0:0:0:0:
321,155,149474,1,0,0:0:0:0:
166,187,149630,2,0,L|32:175,1,104.500003189087
167,302,149941,1,0,0:0:0:0:
167,302,150019,1,0,0:0:0:0:
167,302,150096,1,0,0:0:0:0:
278,258,150252,1,0,0:0:0:0:
376,320,150407,1,0,0:0:0:0:
435,215,150563,5,0,0:0:0:0:
278,258,150718,1,0,0:0:0:0:
307,93,150874,2,0,P|361:79|426:92,1,104.500003189087
364,179,151107,1,0,0:0:0:0:
333,197,151185,2,0,P|280:179|243:136,1,104.500003189087
162,62,151496,1,0,0:0:0:0:
160,220,151651,1,0,0:0:0:0:
257,83,151807,5,0,0:0:0:0:
76,82,151962,1,0,0:0:0:0:
265,185,152118,2,0,P|324:167|370:182,1,104.500003189087
453,75,152429,1,0,0:0:0:0:
427,70,152506,1,0,0:0:0:0:
401,65,152584,1,0,0:0:0:0:
375,60,152662,1,0,0:0:0:0:
349,56,152740,1,0,0:0:0:0:
320,246,152895,1,0,0:0:0:0:
257,83,153051,6,0,P|193:67|164:90,1,104.500003189087
83,247,153361,2,0,P|147:263|176:240,1,104.500003189087
76,82,153672,1,0,0:0:0:0:
14,167,153828,1,0,0:0:0:0:
214,144,153983,6,0,L|108:159,1,104.500003189087
214,312,154294,5,0,0:0:0:0:
377,275,154450,1,0,0:0:0:0:
305,122,154605,5,0,0:0:0:0:
306,334,154761,1,0,0:0:0:0:
173,226,154916,5,0,0:0:0:0:
377,275,155072,1,0,0:0:0:0:
214,144,155227,5,0,0:0:0:0:
214,312,155383,1,0,0:0:0:0:
377,181,155538,5,0,0:0:0:0:
264,250,155694,1,0,0:0:0:0:
417,181,155849,1,0,0:0:0:0:
224,250,156005,1,0,0:0:0:0:
397,215,156160,2,0,P|425:261|424:319,1,104.500003189087
244,216,156471,2,0,P|216:170|217:112,1,104.500003189087
243,25,156704,1,0,0:0:0:0:
270,42,156782,6,0,L|380:67,1,104.500003189087
92,100,157093,1,0,0:0:0:0:
241,136,157248,1,0,0:0:0:0:
148,213,157404,5,0,0:0:0:0:
152,249,157482,1,0,0:0:0:0:
169,280,157559,1,0,0:0:0:0:
197,302,157637,1,0,0:0:0:0:
230,315,157715,5,0,0:0:0:0:
267,316,157793,1,0,0:0:0:0:
300,302,157870,1,0,0:0:0:0:
321,273,157948,1,0,0:0:0:0:
334,238,158026,5,0,0:0:0:0:
179,203,158181,1,0,0:0:0:0:
205,57,158337,2,0,L|298:39,1,95
398,50,158570,1,0,0:0:0:0:
375,74,158648,2,0,P|354:122|354:168,1,95
378,355,158959,1,0,0:0:0:0:
416,262,159114,1,0,0:0:0:0:
221,234,159270,5,0,0:0:0:0:
354,178,159425,1,0,0:0:0:0:
201,269,159581,2,0,P|169:227|211:193,1,104.500003189087
285,339,159892,1,0,0:0:0:0:
285,339,159969,1,0,0:0:0:0:
285,339,160047,1,0,0:0:0:0:
341,194,160203,1,0,0:0:0:0:
207,108,160358,1,0,0:0:0:0:
357,43,160514,5,0,0:0:0:0:
328,211,160669,1,0,0:0:0:0:
495,203,160825,2,0,P|425:191|374:211,1,104.500003189087
315,268,161058,1,0,0:0:0:0:
287,294,161135,2,0,L|170:268,1,104.500003189087
87,126,161446,1,0,0:0:0:0:
80,300,161602,1,0,0:0:0:0:
189,163,161757,5,0,0:0:0:0:
20,212,161913,1,0,0:0:0:0:
184,271,162068,2,0,L|287:294,1,104.500003189087
114,215,162379,1,0,0:0:0:0:
114,215,162457,1,0,0:0:0:0:
114,215,162535,1,0,0:0:0:0:
190,354,162690,1,0,0:0:0:0:
255,210,162846,1,0,0:0:0:0:
117,123,163001,6,0,P|162:89|207:114,1,104.500003189087
310,261,163312,2,0,P|265:295|220:270,1,104.500003189087
389,194,163623,1,0,0:0:0:0:
410,303,163779,1,0,0:0:0:0:
225,277,163934,6,0,L|224:159,1,104.500003189087
143,321,164245,5,0,0:0:0:0:
328,293,164401,1,0,0:0:0:0:
101,269,164556,5,0,0:0:0:0:
274,335,164712,1,0,0:0:0:0:
91,201,164867,5,0,0:0:0:0:
207,345,165023,1,0,0:0:0:0:
115,137,165178,5,0,0:0:0:0:
143,321,165333,1,0,0:0:0:0:
328,293,165489,5,0,0:0:0:0:
259,199,165644,1,0,0:0:0:0:
259,199,165722,1,0,0:0:0:0:
259,199,165800,1,0,0:0:0:0:
374,186,165955,1,0,0:0:0:0:
234,290,166111,5,0,0:0:0:0:
418,269,166266,1,0,0:0:0:0:
308,120,166422,2,0,L|322:254,1,104.500003189087
181,360,166733,6,0,L|193:242,1,113.999996520996
81,55,167044,6,0,L|94:185,1,123.499994346619
231,299,167355,5,0,0:0:0:0:
271,295,167432,1,0,0:0:0:0:
303,271,167510,1,0,0:0:0:0:
323,236,167588,1,0,0:0:0:0:
337,179,167666,6,0,B|367:146|384:84|341:54|311:58|287:78|275:99|288:130|317:136|334:117|340:104|331:79|314:96,1,213.750008153916
171,115,167977,5,0,0:0:0:0:
147,228,168132,1,0,0:0:0:0:
280,130,168288,1,0,0:0:0:0:
304,17,168443,1,0,0:0:0:0:
171,115,168599,5,0,0:0:0:0:
264,256,168754,1,0,0:0:0:0:
389,145,168910,1,0,0:0:0:0:
264,256,169065,1,0,0:0:0:0:
103,196,169220,6,0,P|103:251|143:273,1,104.500003189087
281,130,169531,2,0,P|281:75|241:53,1,104.500003189087
164,33,169765,1,0,0:0:0:0:
164,33,169842,5,0,0:0:0:0:
103,196,169998,1,0,0:0:0:0:
348,33,170153,1,0,0:0:0:0:
409,196,170309,1,0,0:0:0:0:
204,160,187258,5,0,0:0:0:0:
254,236,187473,1,0,0:0:0:0:
334,193,187688,2,0,P|384:208|402:279,1,106.875004076958
406,293,188119,1,0,0:0:0:0:
476,146,188334,1,0,0:0:0:0:
333,96,188550,1,0,0:0:0:0:
333,96,188657,1,0,0:0:0:0:
333,96,188765,1,0,0:0:0:0:
334,264,188980,2,0,L|334:161,1,71.2500027179719
204,53,189411,6,0,L|204:172,1,106.875004076958
204,199,189842,1,0,0:0:0:0:
253,332,190057,1,0,0:0:0:0:
150,306,190272,1,0,0:0:0:0:
150,306,190380,1,0,0:0:0:0:
310,241,190595,1,0,0:0:0:0:
310,241,190703,2,0,P|352:237|392:227,1,71.2500027179719
253,332,191133,6,0,P|211:328|149:306,1,106.875004076958
113,285,191564,1,0,0:0:0:0:
140,142,191779,1,0,0:0:0:0:
67,205,191995,1,0,0:0:0:0:
67,205,192102,1,0,0:0:0:0:
67,205,192210,1,0,0:0:0:0:
213,79,192425,2,0,L|213:160,1,71.2500027179719
23,108,192856,6,0,P|41:165|91:228,1,106.875004076958
96,230,193287,1,0,0:0:0:0:
178,110,193502,1,0,0:0:0:0:
287,185,193717,1,0,0:0:0:0:
287,185,193825,1,0,0:0:0:0:
380,89,194040,1,0,0:0:0:0:
380,89,194148,2,0,P|413:97|452:124,1,71.2500027179719
451,266,194578,6,0,L|349:266,1,80.750001540184
201,360,195009,2,0,L|281:360,1,80.750001540184
320,278,195332,1,0,0:0:0:0:
310,258,195440,2,0,P|266:247|237:271,1,80.750001540184
162,189,195870,2,0,P|123:212|119:249,1,80.750001540184
298,184,196301,6,0,L|256:109,1,80.750001540184
198,44,196624,1,0,0:0:0:0:
177,71,196732,2,0,P|144:84|81:80,1,80.750001540184
273,142,197162,2,0,P|277:107|313:54,1,80.750001540184
162,189,197593,2,0,P|190:210|217:267,1,80.750001540184
232,327,197916,1,0,0:0:0:0:
254,343,198023,5,0,0:0:0:0:
282,345,198131,1,0,0:0:0:0:
308,334,198239,1,0,0:0:0:0:
328,315,198346,1,0,0:0:0:0:
338,284,198454,5,0,0:0:0:0:
333,251,198562,1,0,0:0:0:0:
313,225,198669,1,0,0:0:0:0:
286,206,198777,1,0,0:0:0:0:
269,173,198885,5,0,0:0:0:0:
271,132,198992,1,0,0:0:0:0:
301,105,199100,1,0,0:0:0:0:
341,105,199208,1,0,0:0:0:0:
379,117,199315,6,0,P|403:112|436:89,2,40.375000770092
258,49,199746,5,0,0:0:0:0:
204,129,200176,5,0,0:0:0:0:
107,141,200607,6,0,B|94:150|79:168|75:192|75:192|78:179|78:179|71:206|71:223|76:245,1,121.125002310276
154,292,201038,5,0,0:0:0:0:
262,277,201468,6,0,L|281:333,1,47.5
422,225,201684,2,0,L|435:171,1,47.5
281,79,201899,2,0,L|300:209,1,95
191,323,202330,2,0,L|133:323,1,47.5
294,173,202545,2,0,L|358:173,1,47.5
374,62,202760,1,0,0:0:0:0:
153,97,202976,1,0,0:0:0:0:
338,242,203191,6,0,P|273:320|176:316,1,190
219,149,203837,1,0,0:0:0:0:
413,274,204052,2,0,P|423:224|413:166,1,95
390,91,204375,1,0,0:0:0:0:
390,91,204483,1,0,0:0:0:0:
271,263,204698,1,0,0:0:0:0:
118,145,204913,6,0,L|127:201,1,47.5
206,356,205129,2,0,L|197:300,1,47.5
18,209,205344,2,0,L|40:332,1,95
143,65,205775,2,0,L|98:79,1,47.5
221,192,205990,2,0,L|266:178,1,47.5
372,109,206205,1,0,0:0:0:0:
292,305,206421,1,0,0:0:0:0:
372,109,206636,6,0,P|325:40|213:93,1,190
388,231,207282,1,0,0:0:0:0:
156,156,207497,2,0,P|227:185|255:210,1,95
314,265,207820,1,0,0:0:0:0:
314,231,207928,2,0,P|324:190|375:148,1,95
457,327,208358,6,0,L|394:344,1,47.5
277,254,208574,2,0,L|231:241,1,47.5
103,328,208789,2,0,L|10:348,1,95
235,363,209220,2,0,L|236:301,1,47.5
60,273,209435,2,0,L|61:211,1,47.5
178,90,209650,1,0,0:0:0:0:
233,230,209866,1,0,0:0:0:0:
86,81,210081,6,0,P|151:16|242:30,1,190
140,230,210727,1,0,0:0:0:0:
86,81,210942,2,0,P|124:30|176:10,1,95
263,48,211265,1,0,0:0:0:0:
263,48,211373,1,0,0:0:0:0:
334,185,211588,1,0,0:0:0:0:
178,90,211803,5,0,0:0:0:0:
103,328,212126,1,0,0:0:0:0:
103,328,212234,1,0,0:0:0:0:
37,168,212449,1,0,0:0:0:0:
239,282,212665,2,0,P|246:321|317:361,1,95
238,137,213095,2,0,P|205:114|126:136,1,95
150,233,213418,1,0,0:0:0:0:
171,255,213526,6,0,B|256:297|256:297|341:253,1,190
256,127,214172,1,0,0:0:0:0:
93,261,214387,6,0,B|76:238|76:238|78:182|78:182|62:157,1,113.999996520996
449,157,214818,6,0,B|433:182|433:182|435:238|435:238|419:261,1,113.999996520996
253,122,215248,6,0,L|273:178,1,47.5
129,262,215464,2,0,L|113:217,1,47.5
332,239,215679,2,0,L|312:368,1,95
470,156,216110,6,0,L|419:140,1,47.5
290,77,216325,2,0,L|244:91,1,47.5
180,186,216540,1,0,0:0:0:0:
70,38,216755,1,0,0:0:0:0:
66,263,216971,6,0,P|129:280|166:163,1,190
88,147,217617,1,0,0:0:0:0:
193,15,217832,2,0,P|234:57|244:111,1,95
233,177,218155,1,0,0:0:0:0:
233,177,218263,1,0,0:0:0:0:
88,147,218478,1,0,0:0:0:0:
140,326,218693,6,0,L|135:249,1,47.5
161,77,218909,2,0,L|164:124,1,47.5
45,286,219124,2,0,P|90:293|152:266,1,95
361,305,219555,2,0,L|318:284,1,47.5
277,129,219770,2,0,L|316:102,1,47.5
471,144,219985,1,0,0:0:0:0:
229,213,220200,1,0,0:0:0:0:
454,285,220416,6,0,P|411:232|471:143,1,190
334,90,221062,1,0,0:0:0:0:
342,281,221277,2,0,L|223:291,1,95
299,162,221600,1,0,0:0:0:0:
325,162,221708,2,0,L|419:169,1,95
351,339,222138,6,0,L|404:332,1,47.5
231,230,222354,2,0,L|284:223,1,47.5
140,326,222569,2,0,L|4:309,1,95
100,118,223000,2,0,L|95:70,1,47.5
231,230,223215,2,0,L|192:257,1,47.5
263,61,223430,1,0,0:0:0:0:
394,173,223645,1,0,0:0:0:0:
145,211,223861,6,0,P|207:142|307:192,1,190
188,54,224507,1,0,0:0:0:0:
231,230,224722,2,0,P|270:257|318:247,1,95
394,173,225045,1,0,0:0:0:0:
394,173,225153,1,0,0:0:0:0:
428,318,225368,1,0,0:0:0:0:
290,166,225583,5,0,0:0:0:0:
256,274,225799,1,0,0:0:0:0:
164,176,226014,1,0,0:0:0:0:
312,84,226229,1,0,0:0:0:0:
341,303,226444,2,0,P|257:264|172:300,1,190
256,353,227090,1,0,0:0:0:0:
434,291,227306,5,0,0:0:0:0:
445,162,227521,2,0,L|386:159,1,47.5
317,65,227736,5,0,0:0:0:0:
331,252,227952,1,0,0:0:0:0:
195,335,228167,5,0,0:0:0:0:
216,122,228382,1,0,0:0:0:0:
51,32,228598,5,0,0:0:0:0:
75,311,228813,1,0,0:0:0:0:
77,296,228921,1,0,0:0:0:0:
78,280,229028,6,0,P|168:306|255:270,1,190
155,130,229674,1,0,0:0:0:0:
18,223,229889,2,0,P|7:191|23:113,1,95
256,25,230320,6,0,B|248:49|248:49|263:71|263:71|255:88,1,71.25
266,120,230751,6,0,P|209:121|202:10,1,190
147,182,231397,1,0,0:0:0:0:
406,218,231612,1,0,0:0:0:0:
321,110,231827,1,0,0:0:0:0:
256,359,232043,6,0,B|264:335|264:335|249:313|249:313|256:295,1,71.25
257,252,232473,5,0,0:0:0:0:
388,286,232689,1,0,0:0:0:0:
422,155,232904,1,0,0:0:0:0:
291,121,233119,1,0,0:0:0:0:
309,333,233334,5,0,0:0:0:0:
97,351,233550,1,0,0:0:0:0:
79,139,233765,1,0,0:0:0:0:
291,121,233980,1,0,0:0:0:0:
216,348,234196,5,0,0:0:0:0:
405,197,234411,1,0,0:0:0:0:
206,253,234627,1,0,0:0:0:0:
335,91,234842,1,0,0:0:0:0:
326,297,235058,1,0,0:0:0:0:
212,124,235273,1,0,0:0:0:0:
466,191,235488,6,0,B|440:209|440:209|418:190|402:197,1,71.25
361,156,235918,6,0,P|314:139|273:249,1,190
387,264,236564,1,0,0:0:0:0:
247,361,236779,2,0,P|202:376|157:361,1,95
29,217,237102,1,0,0:0:0:0:
46,193,237210,6,0,B|72:175|72:175|94:194|110:187,1,71.25
174,232,237641,6,0,P|161:181|159:109,1,95
222,21,238071,1,0,0:0:0:0:
322,210,238287,1,0,0:0:0:0:
297,223,238394,1,0,0:0:0:0:
268,225,238502,2,0,P|221:224|149:238,1,95
228,315,238933,2,0,L|217:129,1,142.5
214,68,239363,5,0,0:0:0:0:
387,32,239578,1,0,0:0:0:0:
313,214,239794,5,0,0:0:0:0:
102,164,240009,1,0,0:0:0:0:
208,341,240224,5,0,0:0:0:0:
208,341,240332,1,0,0:0:0:0:
208,341,240440,1,0,0:0:0:0:
256,106,240655,1,0,0:0:0:0:
304,341,240870,1,0,0:0:0:0:
423,228,241086,5,0,0:0:0:0:
320,88,241301,1,0,0:0:0:0:
343,78,241373,1,0,0:0:0:0:
368,76,241445,1,0,0:0:0:0:
391,85,241516,1,0,0:0:0:0:
325,240,241732,1,0,0:0:0:0:
184,134,241947,5,0,0:0:0:0:
144,318,242162,1,0,0:0:0:0:
38,67,242378,2,0,B|55:99|55:99|27:170|27:170|41:196,1,142.5
52,221,242794,1,0,0:0:0:0:
256,192,242978,12,0,247211,0:0:0:0:
192,299,248683,5,0,0:0:0:0:
213,309,248775,1,0,0:0:0:0:
235,315,248867,1,0,0:0:0:0:
258,317,248959,1,0,0:0:0:0:
281,312,249051,1,0,0:0:0:0:
303,304,249143,1,0,0:0:0:0:
320,287,249235,1,0,0:0:0:0:
332,266,249327,1,0,0:0:0:0:
336,242,249419,5,0,0:0:0:0:
338,218,249511,1,0,0:0:0:0:
333,194,249603,1,0,0:0:0:0:
320,173,249695,1,0,0:0:0:0:
300,158,249787,1,0,0:0:0:0:
276,152,249879,1,0,0:0:0:0:
252,155,249971,1,0,0:0:0:0:
232,167,250063,1,0,0:0:0:0:
218,186,250155,5,0,0:0:0:0:
200,201,250247,1,0,0:0:0:0:
178,211,250340,1,0,0:0:0:0:
154,211,250432,1,0,0:0:0:0:
130,206,250524,1,0,0:0:0:0:
107,200,250616,1,0,0:0:0:0:
87,186,250708,1,0,0:0:0:0:
71,167,250800,1,0,0:0:0:0:
60,144,250892,6,0,P|54:113|62:86,1,47.5
133,16,251076,2,0,P|164:10|191:18,1,47.5
261,89,251260,2,0,P|267:120|259:147,1,47.5
188,217,251444,2,0,P|157:223|130:215,1,47.5
164,313,251628,5,0,0:0:0:0:
187,297,251720,1,0,0:0:0:0:
214,289,251812,1,0,0:0:0:0:
242,285,251904,1,0,0:0:0:0:
270,285,251996,1,0,0:0:0:0:
297,291,252088,1,0,0:0:0:0:
322,304,252180,1,0,0:0:0:0:
343,322,252272,1,0,0:0:0:0:
358,346,252364,5,0,0:0:0:0:
373,322,252456,1,0,0:0:0:0:
388,298,252548,1,0,0:0:0:0:
403,274,252640,1,0,0:0:0:0:
418,250,252732,1,0,0:0:0:0:
433,226,252824,1,0,0:0:0:0:
449,202,252916,1,0,0:0:0:0:
465,178,253008,1,0,0:0:0:0:
481,154,253100,5,0,0:0:0:0:
484,125,253192,1,0,0:0:0:0:
476,97,253284,1,0,0:0:0:0:
453,79,253376,1,0,0:0:0:0:
424,75,253468,1,0,0:0:0:0:
397,84,253560,1,0,0:0:0:0:
378,105,253652,1,0,0:0:0:0:
370,132,253744,1,0,0:0:0:0:
378,159,253836,6,0,P|388:188|393:229,1,47.5
236,213,254020,2,0,P|226:184|221:143,1,47.5
390,153,254205,2,0,P|402:188|408:237,1,47.5
223,218,254389,2,0,P|211:184|205:134,1,47.5
331,59,254573,5,0,0:0:0:0:
363,53,254665,1,0,0:0:0:0:
395,59,254757,1,0,0:0:0:0:
422,77,254849,1,0,0:0:0:0:
438,105,254941,1,0,0:0:0:0:
441,138,255033,1,0,0:0:0:0:
435,170,255125,1,0,0:0:0:0:
415,196,255217,1,0,0:0:0:0:
385,212,255309,5,0,0:0:0:0:
356,195,255401,1,0,0:0:0:0:
323,187,255493,1,0,0:0:0:0:
290,191,255585,1,0,0:0:0:0:
263,211,255677,1,0,0:0:0:0:
248,240,255769,1,0,0:0:0:0:
242,272,255861,1,0,0:0:0:0:
246,304,255953,1,0,0:0:0:0:
265,330,256045,5,0,0:0:0:0:
286,306,256137,1,0,0:0:0:0:
290,273,256229,1,0,0:0:0:0:
285,240,256321,1,0,0:0:0:0:
270,210,256413,1,0,0:0:0:0:
246,186,256505,1,0,0:0:0:0:
216,171,256597,1,0,0:0:0:0:
182,170,256689,1,0,0:0:0:0:
149,178,256781,6,0,L|57:194,1,47.5
211,356,256965,2,0,L|241:268,1,47.5
24,320,257149,2,0,L|84:389,1,47.5
135,244,257333,1,0,0:0:0:0:
135,244,257425,1,0,0:0:0:0:
135,244,257517,6,0,P|113:168|127:108,1,142.5
158,19,257886,2,0,P|171:65|173:113,1,95
256,180,258162,1,0,0:0:0:0:
283,155,258254,2,0,P|311:144|361:136,1,47.5
375,32,258438,2,0,P|402:44|443:73,1,47.5
240,134,258622,2,0,P|268:123|318:115,1,47.5
332,11,258806,2,0,P|359:23|400:52,1,47.5
457,158,258990,6,0,P|430:186|327:150,1,142.5
404,95,259358,2,0,L|391:219,1,95
375,293,259634,1,0,0:0:0:0:
348,320,259726,1,0,0:0:0:0:
312,327,259818,2,0,P|274:318|228:283,1,95
147,327,260094,2,0,P|185:318|231:283,1,95
322,216,260370,1,0,0:0:0:0:
349,206,260462,6,0,L|420:222,1,47.5
471,375,260738,1,0,0:0:0:0:
471,375,260830,1,0,0:0:0:0:
493,155,261014,1,0,0:0:0:0:
359,291,261198,1,0,0:0:0:0:
359,291,261290,1,0,0:0:0:0:
264,156,261474,6,0,P|325:157|388:185,1,95
384,0,261843,1,0,0:0:0:0:
390,27,261935,1,0,0:0:0:0:
158,78,262119,1,0,0:0:0:0:
152,105,262211,6,0,B|100:76|143:13|143:13|176:15|196:36,1,142.5
298,138,262671,1,0,0:0:0:0:
298,138,262763,1,0,0:0:0:0:
298,138,262855,1,0,0:0:0:0:
85,122,263039,1,0,0:0:0:0:
244,243,263223,1,0,0:0:0:0:
191,51,263407,5,0,0:0:0:0:
119,229,263591,1,0,0:0:0:0:
119,229,263683,1,0,0:0:0:0:
241,351,263867,1,0,0:0:0:0:
241,351,263959,1,0,0:0:0:0:
73,299,264143,6,0,L|5:287,1,47.5
85,122,264327,2,0,L|153:110,1,47.5
244,243,264511,1,0,0:0:0:0:
78,209,264695,1,0,0:0:0:0:
158,58,264879,5,0,0:0:0:0:
158,58,264971,1,0,0:0:0:0:
286,127,265155,1,0,0:0:0:0:
286,127,265247,2,0,L|272:226,1,95
347,141,265524,6,0,L|358:52,1,47.5
360,24,265708,1,0,0:0:0:0:
186,148,265892,1,0,0:0:0:0:
147,139,265984,1,0,0:0:0:0:
258,307,266168,1,0,0:0:0:0:
302,300,266260,6,0,P|355:292|423:330,1,95
466,350,266536,1,0,0:0:0:0:
476,316,266628,1,0,0:0:0:0:
381,152,266812,1,0,0:0:0:0:
371,186,266904,5,0,0:0:0:0:
361,220,266996,1,0,0:0:0:0:
351,254,267088,1,0,0:0:0:0:
341,288,267180,1,0,0:0:0:0:
252,198,267364,1,0,0:0:0:0:
462,127,267548,5,0,0:0:0:0:
336,96,267732,1,0,0:0:0:0:
459,264,267916,1,0,0:0:0:0:
459,264,268008,1,0,0:0:0:0:
459,264,268100,1,0,0:0:0:0:
305,323,268284,5,0,0:0:0:0:
305,323,268376,1,0,0:0:0:0:
145,255,268560,2,0,P|94:256|22:298,1,95
62,366,268836,1,0,0:0:0:0:
101,375,268928,2,0,L|147:357,1,47.5
271,367,269113,2,0,L|294:323,1,47.5
452,323,269297,5,0,0:0:0:0:
489,182,269481,2,0,P|500:136|488:90,1,95
362,21,269849,1,0,0:0:0:0:
378,187,270033,5,0,0:0:0:0:
378,187,270125,1,0,0:0:0:0:
226,117,270309,1,0,0:0:0:0:
226,117,270401,1,0,0:0:0:0:
395,98,270585,1,0,0:0:0:0:
193,121,270769,6,0,P|226:164|195:212,1,95
59,222,271137,2,0,P|26:179|57:131,1,95
143,236,271413,1,0,0:0:0:0:
149,268,271505,5,0,0:0:0:0:
155,300,271597,1,0,0:0:0:0:
117,127,271781,1,0,0:0:0:0:
111,95,271873,1,0,0:0:0:0:
304,132,272057,1,0,0:0:0:0:
304,132,272149,1,0,0:0:0:0:
304,132,272241,6,0,P|347:193|315:245,1,142.5
316,244,272609,1,0,0:0:0:0:
256,192,272793,1,0,0:0:0:0:
208,252,272978,6,0,P|165:191|197:139,1,142.5
196,140,273346,1,0,0:0:0:0:
256,192,273530,1,0,0:0:0:0:
197,311,273714,6,0,P|120:300|99:362,1,142.5
83,361,274082,2,0,L|85:254,1,95
239,271,274450,6,0,L|408:302,1,142.5
394,305,274818,1,0,0:0:0:0:
470,172,275002,1,0,0:0:0:0:
504,347,275186,6,0,P|463:285|481:203,1,142.5
470,172,275554,2,0,L|365:133,1,95
238,45,275922,6,0,P|269:126|246:208,1,142.5
259,215,276290,1,0,0:0:0:0:
111,53,276474,1,0,0:0:0:0:
181,134,276659,6,0,L|361:118,1,142.5
394,82,277027,2,0,L|286:92,1,95
111,53,277395,6,0,B|72:64|72:64|96:73|139:59|170:85,1,142.5
181,134,277763,1,0,0:0:0:0:
41,245,277947,1,0,0:0:0:0:
209,344,278131,6,0,P|278:354|253:304,1,142.5
198,249,278499,1,0,0:0:0:0:
98,357,278683,1,0,0:0:0:0:
199,150,278867,6,0,B|237:245|237:245|182:250,1,142.5
116,190,279235,2,0,P|151:162|205:149,1,95
263,347,279603,6,0,P|325:369|412:339,1,142.5
483,309,279971,1,0,0:0:0:0:
329,198,280155,1,0,0:0:0:0:
474,266,280340,6,0,B|476:216|476:216|456:170|456:170|460:121,1,142.5
510,64,280708,1,0,0:0:0:0:
329,198,280892,2,0,P|321:169|304:142,1,47.5
257,94,281076,5,0,0:0:0:0:
230,79,281168,1,0,0:0:0:0:
198,76,281260,1,0,0:0:0:0:
170,87,281352,1,0,0:0:0:0:
152,112,281444,1,0,0:0:0:0:
147,142,281536,1,0,0:0:0:0:
152,171,281628,1,0,0:0:0:0:
153,202,281720,1,0,0:0:0:0:
140,229,281812,5,0,0:0:0:0:
109,253,281904,1,0,0:0:0:0:
107,292,281996,1,0,0:0:0:0:
126,326,282088,1,0,0:0:0:0:
165,332,282180,1,0,0:0:0:0:
201,316,282272,1,0,0:0:0:0:
211,277,282364,1,0,0:0:0:0:
202,239,282456,1,0,0:0:0:0:
208,199,282548,5,0,0:0:0:0:
243,165,282640,1,0,0:0:0:0:
290,155,282732,1,0,0:0:0:0:
332,176,282824,1,0,0:0:0:0:
362,213,282916,1,0,0:0:0:0:
405,231,283008,1,0,0:0:0:0:
451,217,283100,1,0,0:0:0:0:
472,174,283192,1,0,0:0:0:0:
465,126,283284,5,0,0:0:0:0:
411,147,283376,1,0,0:0:0:0:
362,117,283468,1,0,0:0:0:0:
347,61,283560,1,0,0:0:0:0:
293,41,283652,1,0,0:0:0:0:
239,60,283744,1,0,0:0:0:0:
217,112,283836,1,0,0:0:0:0:
235,166,283928,1,0,0:0:0:0:
285,192,284020,5,0,0:0:0:0:
376,249,289003,6,0,L|381:195,1,47.5
243,171,289313,2,0,L|238:117,1,47.5
252,318,289624,6,0,L|161:330,1,71.2500027179719
380,201,289935,2,0,L|471:189,1,71.2500027179719
342,84,290246,5,0,0:0:0:0:
199,63,290402,1,0,0:0:0:0:
100,192,290557,5,0,0:0:0:0:
243,171,290713,1,0,0:0:0:0:
65,57,290868,5,0,0:0:0:0:
72,84,290946,1,0,0:0:0:0:
79,111,291024,1,0,0:0:0:0:
86,138,291101,1,0,0:0:0:0:
93,165,291179,2,0,P|139:120|243:161,1,142.5
243,171,291490,5,0,0:0:0:0:
328,45,291645,1,0,0:0:0:0:
160,23,291801,2,0,P|143:75|161:138,1,104.500003189087
184,224,292034,1,0,0:0:0:0:
205,259,292112,2,0,L|88:271,1,104.500003189087
236,366,292423,1,0,0:0:0:0:
382,239,292578,1,0,0:0:0:0:
374,352,292734,5,0,0:0:0:0:
205,259,292889,1,0,0:0:0:0:
346,165,293045,2,0,P|372:231|361:281,1,104.500003189087
447,364,293356,1,0,0:0:0:0:
447,364,293433,1,0,0:0:0:0:
447,364,293511,1,0,0:0:0:0:
461,217,293667,1,0,0:0:0:0:
322,148,293822,1,0,0:0:0:0:
458,47,293978,5,0,0:0:0:0:
313,106,294133,1,0,0:0:0:0:
461,217,294288,2,0,P|452:178|377:139,1,104.500003189087
279,132,294522,1,0,0:0:0:0:
279,132,294599,1,0,0:0:0:0:
332,222,294755,1,0,0:0:0:0:
271,38,294910,1,0,0:0:0:0:
237,224,295066,1,0,0:0:0:0:
96,147,295221,5,0,0:0:0:0:
279,132,295377,1,0,0:0:0:0:
137,258,295532,2,0,P|72:257|37:280,1,104.500003189087
68,100,295843,1,0,0:0:0:0:
98,93,295921,1,0,0:0:0:0:
128,86,295999,1,0,0:0:0:0:
158,79,296076,1,0,0:0:0:0:
188,73,296154,1,0,0:0:0:0:
223,248,296310,1,0,0:0:0:0:
39,276,296465,6,0,P|83:302|127:279,1,104.500003189087
216,142,296776,2,0,P|174:117|129:139,1,104.500003189087
202,350,297087,1,0,0:0:0:0:
300,240,297242,1,0,0:0:0:0:
119,260,297398,6,0,L|237:246,1,104.500003189087
443,120,297709,5,0,0:0:0:0:
443,290,297864,1,0,0:0:0:0:
277,158,298020,5,0,0:0:0:0:
351,310,298175,1,0,0:0:0:0:
483,205,298331,5,0,0:0:0:0:
277,158,298486,1,0,0:0:0:0:
277,252,298642,5,0,0:0:0:0:
443,120,298797,1,0,0:0:0:0:
392,266,298953,5,0,0:0:0:0:
351,99,299108,1,0,0:0:0:0:
396,282,299263,1,0,0:0:0:0:
346,82,299418,1,0,0:0:0:0:
417,269,299574,2,0,P|455:236|504:246,1,104.500003189087
325,94,299885,2,0,P|286:127|237:117,1,104.500003189087
120,53,300119,1,0,0:0:0:0:
92,83,300197,6,0,L|117:193,1,104.500003189087
91,267,300430,1,0,0:0:0:0:
85,251,300507,1,0,0:0:0:0:
233,149,300663,1,0,0:0:0:0:
239,165,300740,1,0,0:0:0:0:
244,179,300818,5,0,0:0:0:0:
278,155,300896,1,0,0:0:0:0:
319,146,300974,1,0,0:0:0:0:
358,157,301051,1,0,0:0:0:0:
392,180,301129,5,0,0:0:0:0:
413,216,301207,1,0,0:0:0:0:
422,256,301285,1,0,0:0:0:0:
410,295,301362,1,0,0:0:0:0:
384,328,301440,5,0,0:0:0:0:
282,197,301596,1,0,0:0:0:0:
149,331,301751,2,0,P|78:328|46:303,1,104.500003189087
155,236,301984,1,0,0:0:0:0:
189,250,302062,2,0,P|224:293|229:356,1,104.500003189087
207,170,302373,1,0,0:0:0:0:
71,231,302528,1,0,0:0:0:0:
86,82,302684,5,0,0:0:0:0:
264,119,302839,1,0,0:0:0:0:
79,133,302995,2,0,P|26:124|31:85,1,104.500003189087
155,236,303306,1,0,0:0:0:0:
155,236,303383,1,0,0:0:0:0:
155,236,303461,1,0,0:0:0:0:
78,305,303617,1,0,0:0:0:0:
232,167,303772,1,0,0:0:0:0:
262,353,303928,5,0,0:0:0:0:
178,185,304083,1,0,0:0:0:0:
158,323,304239,5,0,0:0:0:0:
359,297,304394,1,0,0:0:0:0:
335,138,304549,6,0,L|332:254,1,104.500003189087
390,332,304783,1,0,0:0:0:0:
422,316,304860,2,0,L|424:211,1,104.500003189087
366,34,305171,5,0,0:0:0:0:
474,159,305327,1,0,0:0:0:0:
311,190,305482,1,0,0:0:0:0:
366,34,305638,1,0,0:0:0:0:
474,159,305793,1,0,0:0:0:0:
474,159,305871,1,0,0:0:0:0:
474,159,305949,1,0,0:0:0:0:
293,95,306104,1,0,0:0:0:0:
455,64,306259,1,0,0:0:0:0:
401,221,306415,6,0,P|354:248|304:229,1,104.500003189087
191,78,306726,2,0,P|234:51|281:69,1,104.500003189087
116,171,307037,1,0,0:0:0:0:
131,33,307192,1,0,0:0:0:0:
280,68,307348,6,0,L|281:172,1,104.500003189087
183,286,307659,5,0,0:0:0:0:
325,253,307814,1,0,0:0:0:0:
160,257,307970,5,0,0:0:0:0:
348,282,308125,1,0,0:0:0:0:
136,305,308281,5,0,0:0:0:0:
372,234,308436,1,0,0:0:0:0:
118,228,308592,5,0,0:0:0:0:
390,311,308747,1,0,0:0:0:0:
255,362,308903,5,0,0:0:0:0:
201,177,309058,1,0,0:0:0:0:
201,177,309136,1,0,0:0:0:0:
201,177,309214,1,0,0:0:0:0:
171,276,309369,1,0,0:0:0:0:
273,253,309524,5,0,0:0:0:0:
99,201,309680,1,0,0:0:0:0:
152,377,309835,2,0,L|255:363,1,104.500003189087
431,266,310146,6,0,L|301:253,1,113.999996520996
71,199,310457,6,0,L|221:180,1,123.499994346619
409,110,310768,5,0,0:0:0:0:
370,78,310846,1,0,0:0:0:0:
321,68,310924,1,0,0:0:0:0:
277,89,311001,1,0,0:0:0:0:
256,142,311079,6,0,B|269:208|365:278|359:188|375:251|265:277|269:208,1,213.750008153916
388,179,311390,5,0,0:0:0:0:
360,303,311546,1,0,0:0:0:0:
171,249,311701,1,0,0:0:0:0:
189,357,311857,1,0,0:0:0:0:
270,203,312012,5,0,0:0:0:0:
122,94,312167,1,0,0:0:0:0:
270,203,312323,1,0,0:0:0:0:
405,93,312478,1,0,0:0:0:0:
396,273,312634,6,0,P|349:257|316:294,1,104.500003189087
256,142,312945,2,0,P|302:157|335:120,1,104.500003189087
253,59,313178,1,0,0:0:0:0:
253,59,313256,5,0,0:0:0:0:
146,200,313411,1,0,0:0:0:0:
288,306,313567,1,0,0:0:0:0:
394,165,313722,1,0,0:0:0:0:
118,165,313878,5,0,0:0:0:0:
394,219,315121,1,0,0:0:0:0:
352,173,316365,5,0,0:0:0:0:
159,210,316987,1,0,0:0:0:0:
280,84,317609,6,0,L|280:160,1,76
232,300,317920,6,0,L|232:224,1,76
391,150,318231,6,0,P|384:205|342:242,1,114
329,272,318542,6,0,P|275:227|159:243,1,185.249991519928
87,315,318853,5,0,0:0:0:0:
6,190,319008,1,0,0:0:0:0:
147,110,319164,2,0,P|193:92|252:102,1,104.500003189087
58,131,319475,5,0,0:0:0:0:
204,221,319630,1,0,0:0:0:0:
278,67,319786,2,0,P|323:86|357:135,1,104.500003189087
427,227,320019,1,0,0:0:0:0:
455,209,320096,6,0,L|472:95,2,104.500003189087
345,25,320563,2,0,L|356:140,1,104.500003189087
237,96,320874,1,0,0:0:0:0:
439,74,321029,1,0,0:0:0:0:
237,96,321185,1,0,0:0:0:0:
347,246,321340,5,0,0:0:0:0:
415,174,321496,1,0,0:0:0:0:
279,318,321651,2,0,L|158:315,1,104.500003189087
112,180,321962,5,0,0:0:0:0:
213,219,322117,1,0,0:0:0:0:
11,141,322273,2,0,L|115:138,1,104.500003189087
235,94,322506,1,0,0:0:0:0:
235,94,322584,5,0,0:0:0:0:
60,66,322739,1,0,0:0:0:0:
185,191,322895,1,0,0:0:0:0:
158,16,323050,1,0,0:0:0:0:
78,173,323206,2,0,P|95:234|98:303,1,104.500003189087
13,237,323517,1,0,0:0:0:0:
143,112,323672,1,0,0:0:0:0:
188,289,323828,5,0,0:0:0:0:
85,367,323983,1,0,0:0:0:0:
292,354,324139,1,0,0:0:0:0:
106,288,324294,1,0,0:0:0:0:
266,202,324450,5,0,0:0:0:0:
396,323,324605,1,0,0:0:0:0:
220,305,324760,1,0,0:0:0:0:
419,243,324916,1,0,0:0:0:0:
445,243,324994,1,0,0:0:0:0:
471,244,325071,6,0,P|485:294|484:348,1,104.500003189087
289,277,325382,1,0,0:0:0:0:
387,143,325538,2,0,P|428:134|491:142,1,104.500003189087
443,55,325849,1,0,0:0:0:0:
445,243,326004,1,0,0:0:0:0:
278,152,326160,1,0,0:0:0:0:
443,55,326315,6,0,P|369:77|288:44,1,156.750004783631
278,152,326626,2,0,P|277:107|298:49,1,104.500003189087
334,258,326937,2,0,P|291:287|239:294,1,104.500003189087
398,157,327248,2,0,P|437:178|477:225,1,104.500003189087
457,332,327481,1,0,0:0:0:0:
426,350,327559,6,0,P|374:346|323:352,1,104.500003189087
86,350,327870,2,0,P|138:354|189:348,1,104.500003189087
358,246,328181,6,0,P|363:220|360:194,1,52.2500015945435
151,194,328336,2,0,P|149:220|154:246,1,52.2500015945435
255,191,328492,5,0,0:0:0:0:
256,80,328647,1,0,0:0:0:0:
256,304,328803,5,0,0:0:0:0:
402,173,328958,1,0,0:0:0:0:
256,304,329114,2,0,P|251:241|276:197,1,104.500003189087
134,250,329425,5,0,0:0:0:0:
330,260,329579,1,0,0:0:0:0:
134,250,329735,2,0,P|175:202|223:188,1,104.500003189087
312,124,329969,1,0,0:0:0:0:
286,104,330046,6,0,P|239:89|185:45,1,104.500003189087
45,73,330357,1,0,0:0:0:0:
185,169,330513,1,0,0:0:0:0:
272,27,330668,5,0,0:0:0:0:
169,91,330824,1,0,0:0:0:0:
416,62,330979,1,0,0:0:0:0:
312,124,331135,1,0,0:0:0:0:
426,267,331290,6,0,L|430:162,1,104.500003189087
272,27,331601,2,0,L|313:126,1,104.500003189087
430,162,331912,6,0,L|366:79,1,104.500003189087
157,76,332223,2,0,L|252:125,1,104.500003189087
161,277,332534,6,0,P|165:207|189:145,1,104.500003189087
275,245,332845,1,0,0:0:0:0:
69,243,333000,1,0,0:0:0:0:
213,345,333156,6,0,P|152:354|88:348,1,104.500003189087
164,132,333467,1,0,0:0:0:0:
69,243,333622,1,0,0:0:0:0:
275,245,333778,5,0,0:0:0:0:
161,277,333933,1,0,0:0:0:0:
363,324,334089,1,0,0:0:0:0:
275,245,334244,1,0,0:0:0:0:
400,193,334400,5,0,0:0:0:0:
363,324,334555,1,0,0:0:0:0:
309,102,334711,1,0,0:0:0:0:
400,193,334866,1,0,0:0:0:0:
224,171,335021,5,0,0:0:0:0:
213,334,335177,1,0,0:0:0:0:
137,247,335332,1,0,0:0:0:0:
300,258,335488,1,0,0:0:0:0:
225,154,335643,5,0,0:0:0:0:
211,350,335799,1,0,0:0:0:0:
120,245,335954,1,0,0:0:0:0:
316,259,336110,1,0,0:0:0:0:
458,127,336265,5,0,0:0:0:0:
427,135,336343,1,0,0:0:0:0:
395,137,336421,1,0,0:0:0:0:
364,130,336498,1,0,0:0:0:0:
339,110,336576,2,0,P|318:89|308:59,1,52.2500015945435
255,180,336732,2,0,P|276:201|286:231,1,52.2500015945435
304,347,336887,5,0,0:0:0:0:
268,339,336965,1,0,0:0:0:0:
231,340,337043,1,0,0:0:0:0:
197,352,337120,1,0,0:0:0:0:
173,380,337198,2,0,L|107:363,1,52.2500015945435
0,257,337353,2,0,L|50:243,1,52.2500015945435
102,130,337509,5,0,0:0:0:0:
129,302,337664,1,0,0:0:0:0:
252,226,337820,6,0,L|282:237,1,26.1250007972718
247,184,337898,2,0,L|203:196,1,26.1250007972718
242,142,337975,2,0,L|272:153,1,26.1250007972718
237,100,338053,2,0,L|193:112,1,26.1250007972718
233,58,338131,2,0,P|277:32|314:34,1,52.2500015945435
351,173,338286,2,0,P|351:224|331:255,1,52.2500015945435
102,130,338442,5,0,0:0:0:0:
102,130,338753,6,0,P|116:180|116:230,1,95
198,145,339064,1,0,0:0:0:0:
41,195,339219,1,0,0:0:0:0:
111,297,339375,1,0,0:0:0:0:
133,313,339452,2,0,L|197:303,1,47.5
311,229,339686,2,0,L|205:244,1,95
347,339,339996,6,0,L|453:354,1,95
492,233,340307,1,0,0:0:0:0:
426,126,340463,1,0,0:0:0:0:
336,234,340618,1,0,0:0:0:0:
317,216,340696,2,0,P|312:185|318:154,1,47.5
360,19,340929,1,0,0:0:0:0:
426,126,341085,1,0,0:0:0:0:
313,169,341240,6,0,P|265:159|185:174,1,95
169,85,341551,1,0,0:0:0:0:
126,180,341707,1,0,0:0:0:0:
257,70,341862,1,0,0:0:0:0:
282,49,341940,2,0,P|305:54|339:46,1,47.5
406,175,342173,2,0,P|358:165|278:180,1,95
169,85,342484,6,0,P|217:95|297:80,1,95
357,26,342795,1,0,0:0:0:0:
312,168,342950,1,0,0:0:0:0:
442,127,343106,1,0,0:0:0:0:
460,150,343184,2,0,L|460:217,1,47.5
378,303,343417,1,0,0:0:0:0:
502,254,343572,1,0,0:0:0:0:
377,154,343728,6,0,L|377:249,1,95
277,189,344039,1,0,0:0:0:0:
378,303,344194,1,0,0:0:0:0:
190,286,344350,1,0,0:0:0:0:
214,306,344427,2,0,P|243:314|281:312,1,47.5
181,210,344661,2,0,P|121:252|108:292,1,95
222,382,344971,6,0,P|282:340|295:300,1,95
234,181,345282,1,0,0:0:0:0:
112,269,345438,1,0,0:0:0:0:
60,127,345593,1,0,0:0:0:0:
72,154,345671,2,0,L|72:222,1,47.5
189,34,345904,2,0,L|189:169,1,95
112,269,346215,6,0,P|151:237|221:232,1,95
115,155,346526,1,0,0:0:0:0:
184,306,346682,1,0,0:0:0:0:
303,189,346837,1,0,0:0:0:0:
278,160,346915,2,0,P|246:154|226:157,1,47.5
311,66,347148,2,0,P|359:73|418:60,1,95
189,34,347459,6,0,B|136:33|136:33|97:50,1,95
211,204,347770,2,0,B|264:205|264:205|303:188,1,95
156,110,348081,5,0,0:0:0:0:
157,275,348236,1,0,0:0:0:0:
377,181,348392,6,0,B|320:181|320:181|264:204|264:204|202:204,1,170.999994781494
168,152,348703,6,0,P|151:173|141:253,1,95
217,332,349014,1,0,0:0:0:0:
85,293,349169,1,0,0:0:0:0:
255,232,349325,1,0,0:0:0:0:
275,257,349402,1,0,0:0:0:0:
295,283,349480,1,0,0:0:0:0:
389,155,349636,2,0,P|345:170|304:148,1,95
391,294,349947,6,0,P|434:278|475:300,1,95
434,193,350257,1,0,0:0:0:0:
295,283,350413,1,0,0:0:0:0:
317,99,350568,1,0,0:0:0:0:
305,130,350646,1,0,0:0:0:0:
312,162,350724,1,0,0:0:0:0:
399,73,350879,1,0,0:0:0:0:
364,239,351035,1,0,0:0:0:0:
236,163,351190,6,0,L|141:167,1,95
40,108,351501,1,0,0:0:0:0:
124,257,351657,1,0,0:0:0:0:
203,101,351812,1,0,0:0:0:0:
170,94,351890,1,0,0:0:0:0:
145,71,351968,1,0,0:0:0:0:
46,172,352123,2,0,L|140:167,1,95
281,49,352434,6,0,P|297:109|282:168,1,95
187,29,352745,1,0,0:0:0:0:
366,97,352900,1,0,0:0:0:0:
203,101,353056,1,0,0:0:0:0:
234,89,353134,1,0,0:0:0:0:
265,77,353211,1,0,0:0:0:0:
244,232,353367,1,0,0:0:0:0:
265,77,353522,2,0,P|257:119|246:143,1,47.5
151,166,353678,5,0,0:0:0:0:
29,90,353833,1,0,0:0:0:0:
58,262,353989,2,0,L|177:244,1,95
244,151,354300,1,0,0:0:0:0:
122,75,354455,1,0,0:0:0:0:
151,247,354611,2,0,L|270:229,1,95
359,84,354922,5,0,0:0:0:0:
392,236,355077,1,0,0:0:0:0:
359,84,355232,2,0,P|290:88|247:58,1,95
264,267,355543,1,0,0:0:0:0:
409,147,355699,1,0,0:0:0:0:
411,318,355854,2,0,P|365:309|321:324,1,95
147,323,356165,6,0,L|143:237,1,47.5
44,222,356321,2,0,L|40:136,1,47.5
223,178,356476,2,0,L|217:67,1,95
160,242,356787,6,0,P|190:233|227:234,1,47.5
333,164,356943,2,0,P|303:155|266:156,1,47.5
373,263,357098,2,0,P|418:245|452:190,1,95
432,50,357409,5,0,0:0:0:0:
259,85,357565,2,0,L|270:51,1,23.75,0|0,0:0|0:0,0:0:0:0:
227,75,357643,2,0,L|221:47,1,23.75,0|0,0:0|0:0,0:0:0:0:
196,89,357721,2,0,L|176:62,1,23.75,0|0,0:0|0:0,0:0:0:0:
303,162,357876,1,0,0:0:0:0:
229,305,358032,6,0,L|252:333,1,23.75,0|0,0:0|0:0,0:0:0:0:
253,283,358110,2,0,L|280:293,1,23.75,0|0,0:0|0:0,0:0:0:0:
256,250,358188,2,0,L|289:248,1,23.75,0|0,0:0|0:0,0:0:0:0:
101,165,358342,5,0,0:0:0:0:
176,242,358497,1,0,0:0:0:0:
303,162,358653,2,0,P|377:148|478:229,2,190
365,253,359430,1,0,0:0:0:0:
447,78,359586,2,0,L|448:178,1,95
365,348,359897,6,0,L|365:251,1,95
336,141,360130,1,0,0:0:0:0:
303,162,360207,2,0,P|252:171|193:150,1,95
119,102,360518,1,0,0:0:0:0:
154,245,360674,1,0,0:0:0:0:
301,102,360829,2,0,P|250:93|191:114,1,95
40,188,361140,6,0,L|24:82,1,95
154,245,361451,2,0,L|138:351,1,95
274,295,361762,1,0,0:0:0:0:
233,208,361918,1,0,0:0:0:0:
415,244,362073,1,0,0:0:0:0:
456,331,362229,1,0,0:0:0:0:
320,256,362384,5,0,0:0:0:0:
248,322,362540,1,0,0:0:0:0:
361,343,362695,1,0,0:0:0:0:
338,159,362851,1,0,0:0:0:0:
320,256,363006,1,0,0:0:0:0:
415,244,363161,1,0,0:0:0:0:
233,208,363317,2,0,P|279:218|313:251,1,95
332,341,363550,1,0,0:0:0:0:
365,346,363628,6,0,P|410:321|442:244,1,95
380,122,363939,2,0,P|418:149|440:191,1,95
494,109,364250,1,0,0:0:0:0:
362,204,364405,1,0,0:0:0:0:
362,204,364483,1,0,0:0:0:0:
362,204,364561,1,0,0:0:0:0:
283,126,364716,1,0,0:0:0:0:
374,27,364872,6,0,P|378:51|377:139,1,95
360,234,365105,1,0,0:0:0:0:
339,219,365183,2,0,P|257:204|234:207,1,95
91,250,365493,2,0,P|144:186|153:165,1,95
188,19,365804,2,0,P|216:97|230:115,1,95
276,228,366115,6,0,B|269:273|269:273|276:331|276:331|262:367|262:367|245:318,2,190
100,248,366893,1,0,0:0:0:0:
85,95,367048,1,0,0:0:0:0:
238,115,367204,1,0,0:0:0:0:
185,258,367359,5,0,0:0:0:0:
154,166,367515,1,0,0:0:0:0:
154,166,367592,1,0,0:0:0:0:
154,166,367670,1,0,0:0:0:0:
246,200,367825,1,0,0:0:0:0:
166,68,367980,5,0,0:0:0:0:
56,176,368135,1,0,0:0:0:0:
238,115,368291,1,0,0:0:0:0:
85,95,368446,1,0,0:0:0:0:
100,248,368603,6,0,P|153:181|248:202,2,190
130,96,369380,1,0,0:0:0:0:
187,267,369536,2,0,P|140:288|87:281,1,95
348,211,369847,6,0,P|301:190|248:197,1,95
273,323,370080,1,0,0:0:0:0:
300,341,370158,2,0,P|346:343|389:323,1,95
449,187,370468,1,0,0:0:0:0:
425,338,370624,1,0,0:0:0:0:
258,228,370779,2,0,P|300:207|347:210,1,95
457,92,371090,6,0,L|448:186,1,95,2|0,0:0|0:0,0:0:0:0:
262,52,371401,2,0,L|270:146,1,95,2|0,0:0|0:0,0:0:0:0:
282,290,371712,1,0,0:0:0:0:
126,182,371868,1,0,0:0:0:0:
111,372,372023,1,0,0:0:0:0:
204,236,372179,1,0,0:0:0:0:
118,277,372334,5,0,0:0:0:0:
197,329,372490,1,0,0:0:0:0:
126,183,372645,1,0,0:0:0:0:
118,277,372801,1,0,0:0:0:0:
282,290,372956,1,0,0:0:0:0:
111,372,373111,1,0,0:0:0:0:
204,236,373267,1,0,0:0:0:0:
197,329,373422,1,0,0:0:0:0:
197,329,373500,1,0,0:0:0:0:
197,329,373578,6,0,P|248:323|292:332,1,95
383,241,373889,2,0,P|423:272|448:310,1,95
292,263,374200,1,0,0:0:0:0:
426,155,374355,1,0,0:0:0:0:
426,155,374433,1,0,0:0:0:0:
426,155,374511,1,0,0:0:0:0:
205,211,374666,1,0,0:0:0:0:
298,111,374822,6,0,B|253:89|253:89|202:92,1,95
108,167,375055,1,0,0:0:0:0:
115,191,375133,2,0,B|160:213|160:213|211:210,1,95
102,74,375443,2,0,B|95:125|95:125|113:185,1,95
310,227,375754,2,0,B|317:176|317:176|299:116,1,95
195,40,376065,6,0,B|210:24|210:24|243:23|276:57|276:57|306:24|341:24|341:24|351:37,2,190
123,173,376843,1,0,0:0:0:0:
275,123,376998,1,0,0:0:0:0:
116,70,377154,1,0,0:0:0:0:
116,70,377231,1,0,0:0:0:0:
116,70,377309,5,0,0:0:0:0:
215,221,377465,1,0,0:0:0:0:
392,110,377620,2,0,L|362:130,1,23.75
384,152,377698,2,0,L|359:173,1,23.75
376,194,377776,2,0,L|351:215,1,23.75
368,235,377853,2,0,L|338:255,1,23.75
360,276,377931,2,0,P|403:292|440:252,1,95
92,192,378242,5,0,0:0:0:0:
141,314,378553,6,0,L|246:308,1,76
324,213,378864,2,0,L|248:217,1,76
153,136,379175,1,0,0:0:0:0:
158,241,379330,1,0,0:0:0:0:
301,363,379486,2,0,L|296:287,1,76
433,275,379797,6,0,L|428:199,1,76
248,217,380108,2,0,L|252:141,1,76
158,241,380419,1,0,0:0:0:0:
324,213,380574,1,0,0:0:0:0:
313,67,380729,2,0,L|317:142,1,76
401,288,381040,6,0,P|358:296|310:287,1,76
175,274,381351,1,0,0:0:0:0:
276,377,381507,1,0,0:0:0:0:
324,213,381662,6,0,P|286:209|249:217,1,76
190,357,381973,1,0,0:0:0:0:
104,218,382129,1,0,0:0:0:0:
252,114,382284,5,0,0:0:0:0:
285,288,382440,1,0,0:0:0:0:
155,166,382595,1,0,0:0:0:0:
332,189,382751,1,0,0:0:0:0:
175,274,382906,2,0,B|147:311|147:311|150:240|74:199,1,152
58,300,383372,1,0,0:0:0:0:
20,135,383528,6,0,P|52:124|126:125,1,76
200,190,383839,1,0,0:0:0:0:
219,29,383994,1,0,0:0:0:0:
367,132,384150,2,0,P|311:138|266:129,1,76
152,102,384461,1,0,0:0:0:0:
324,60,384616,1,0,0:0:0:0:
289,220,384772,2,0,P|345:214|390:223,1,76
291,313,385083,5,0,0:0:0:0:
189,311,385238,1,0,0:0:0:0:
391,222,385394,5,0,0:0:0:0:
289,220,385549,1,0,0:0:0:0:
448,351,385704,6,0,L|346:349,1,76
189,311,386015,6,0,P|194:272|241:244,1,76
398,378,386326,2,0,P|361:393|313:366,1,76
352,163,386637,1,0,0:0:0:0:
352,163,386793,2,0,P|383:186|384:241,1,76
220,248,387104,1,0,0:0:0:0:
311,85,387259,6,0,L|407:74,1,76
124,117,387570,2,0,L|28:106,1,76
209,57,387881,5,0,0:0:0:0:
154,214,388037,1,0,0:0:0:0:
317,162,388192,1,0,0:0:0:0:
282,162,388270,1,0,0:0:0:0:
248,162,388347,1,0,0:0:0:0:
386,76,388503,6,0,P|410:101|421:143,1,76
370,304,388814,2,0,P|346:279|335:237,1,76
457,222,389125,1,0,0:0:0:0:
437,338,389280,1,0,0:0:0:0:
289,259,389436,1,0,0:0:0:0:
309,375,389591,1,0,0:0:0:0:
411,241,389747,6,0,P|371:234|319:239,1,76
185,327,390058,2,0,P|215:293|239:274,1,76
365,127,390369,2,0,P|330:156|312:181,1,76
137,214,390679,2,0,P|182:211|212:215,1,76
318,328,390990,6,0,L|289:259,1,76
218,147,391301,1,0,0:0:0:0:
186,297,391457,1,0,0:0:0:0:
47,192,391612,6,0,L|76:261,1,76
218,147,391923,1,0,0:0:0:0:
186,297,392079,1,0,0:0:0:0:
124,173,392234,5,0,0:0:0:0:
288,185,392390,1,0,0:0:0:0:
120,262,392545,5,0,0:0:0:0:
157,100,392701,1,0,0:0:0:0:
253,258,392856,6,0,B|284:260|328:273|328:273|343:244|367:208,1,152
242,106,393322,1,0,0:0:0:0:
183,221,393478,6,0,L|186:314,1,76
78,270,393711,1,0,0:0:0:0:
78,240,393789,2,0,L|80:164,1,76
164,41,394100,1,0,0:0:0:0:
33,103,394255,1,0,0:0:0:0:
225,156,394411,1,0,0:0:0:0:
116,105,394566,1,0,0:0:0:0:
297,62,394722,6,0,L|211:77,1,76
331,186,395033,1,0,0:0:0:0:
374,40,395188,1,0,0:0:0:0:
372,197,395344,1,0,0:0:0:0:
329,35,395499,1,0,0:0:0:0:
414,182,395655,2,0,L|488:168,1,76
294,111,395965,6,0,L|328:101,4,19
183,61,396276,2,0,P|177:115|185:149,1,76
256,244,396587,6,0,L|222:234,4,19
359,204,396898,1,0,0:0:0:0:
216,146,397054,1,0,0:0:0:0:
241,330,397209,6,0,L|243:363,14,19
171,296,397831,5,0,0:0:0:0:
204,278,397909,1,0,0:0:0:0:
237,260,397987,1,0,0:0:0:0:
270,243,398064,1,0,0:0:0:0:
301,255,398142,5,0,0:0:0:0:
335,238,398220,1,0,0:0:0:0:
368,221,398297,1,0,0:0:0:0:
402,204,398375,1,0,0:0:0:0:
434,184,398453,5,0,0:0:0:0:
