osu file format v14

[General]
AudioFilename: audio.mp3
AudioLeadIn: 0
PreviewTime: -1
Countdown: 0
SampleSet: None
StackLeniency: 0.7
Mode: 0
LetterboxInBreaks: 0
WidescreenStoryboard: 0

[Editor]
DistanceSpacing: 0.8
BeatDivisor: 4
GridSize: 16
TimelineZoom: 1

[Metadata]
Title:Time Leaper
TitleUnicode:Time Leaper
Artist:Hinkik
ArtistUnicode:Hinkik
Creator:_kanekichigo_
Version:Time Walker
Source:
Tags:hinkik time leaper Hinkik Time Leaper edm drums electro bass drumstep
BeatmapID:1138899
BeatmapSetID:532189

[Difficulty]
HPDrainRate:5
CircleSize:4.5
OverallDifficulty:5
ApproachRate:9
SliderMultiplier:1.4
SliderTickRate:1

[Events]
//Background and Video events
0,0,"ANIME-PICTURES.NET_-_477243-1910x1098-alice+in+wonderland-bmw-alice+%28wonderland%29-mad+hatter-march+hare-terabyte+%28rook777%29.png",0,0
//Break Periods
2,136070,158927
//Storyboard Layer 0 (Background)
//Storyboard Layer 1 (Fail)
//Storyboard Layer 2 (Pass)
//Storyboard Layer 3 (Foreground)
//Storyboard Sound Samples

[TimingPoints]
99,342.857142857143,4,3,0,100,1,0
44327,-100,4,3,0,100,0,1
66270,-100,4,3,0,100,0,0
110156,-100,4,3,0,100,0,1
135870,-100,4,3,0,100,0,0
181470,-100,4,3,0,100,0,1
203070,-100,4,3,0,100,0,0

[HitObjects]
48,32,22041,5,0,0:0:0:0:
48,128,22384,2,0,L|176:32,1,140,4|0,0:0|0:0,0:0:0:0:
160,144,23070,1,0,0:0:0:0:
160,240,23413,2,0,L|272:144,1,140,0|2,0:0|0:0,0:0:0:0:
336,272,24099,5,0,0:0:0:0:
336,192,24270,2,0,L|416:192,1,70
496,192,24613,2,0,L|496:320,1,70
496,336,24956,2,0,L|400:336,1,70,0|2,0:0|0:0,0:0:0:0:
336,208,25470,6,0,L|336:128,1,70
336,64,25813,1,0,0:0:0:0:
240,64,26156,2,0,L|160:112,1,70
176,208,26499,2,0,L|256:160,2,70,0|0|2,0:0|0:0|0:0,0:0:0:0:
96,272,27013,1,0,0:0:0:0:
192,272,27184,2,0,L|272:272,1,70
256,176,27527,2,0,L|176:176,1,70
96,176,27870,1,4,0:0:0:0:
192,80,28213,6,0,L|192:-16,2,70
288,144,28899,2,0,L|288:0,1,140,0|2,0:0|0:0,0:0:0:0:
384,0,29584,1,0,0:0:0:0:
384,80,29756,2,0,L|384:240,1,140
464,144,30270,2,0,L|464:64,2,70,0|0|2,0:0|0:0|0:0,0:0:0:0:
288,224,31641,6,0,L|128:224,1,140,0|2,0:0|0:0,0:0:0:0:
208,144,32327,2,0,L|128:144,2,70
288,144,32841,1,0,0:0:0:0:
224,64,33013,2,0,L|304:64,1,70
368,64,33356,1,4,0:0:0:0:
384,144,33699,6,0,B|480:240|480:240|352:240|352:240|464:352|464:352,1,420,0|2,0:0|0:0,0:0:0:0:
304,304,35070,2,0,L|240:240,1,70
192,192,35413,1,0,0:0:0:0:
128,144,35584,1,0,0:0:0:0:
128,256,35756,2,0,L|192:320,1,70
240,368,36099,1,2,0:0:0:0:
288,176,36784,6,0,L|288:16,1,140
176,32,37470,2,0,L|80:32,2,70
176,112,37984,1,0,0:0:0:0:
176,192,38156,2,0,L|96:192,1,70
32,192,38499,1,0,0:0:0:0:
256,192,38841,12,0,41241,0:0:0:0:
128,48,41584,5,0,0:0:0:0:
128,128,41756,2,4,L|128:272,1,140,2|0,0:0|0:0,0:0:0:0:
224,256,42270,2,0,L|336:160,1,140,2|0,0:0|0:0,0:0:0:0:
336,80,42784,2,0,L|256:80,1,70,0|2,0:0|0:0,0:0:0:0:
192,80,43299,1,0,0:0:0:0:
192,176,43641,2,0,L|192:256,1,70,4|0,0:0|0:0,0:0:0:0:
96,240,43984,1,0,0:0:0:0:
112,128,44327,6,2,L|400:128,1,280,2|0,0:0|0:0,0:0:0:0:
384,224,45356,2,0,L|288:224,1,70
208,224,45699,2,2,B|64:224,1,140,2|0,0:0|0:0,0:0:0:0:
80,304,46213,2,0,L|176:304,1,70,0|2,0:0|0:0,0:0:0:0:
224,304,46556,1,0,0:0:0:0:
304,304,46727,2,0,L|400:304,1,70
480,320,47070,6,2,B|480:192|480:192|320:192|320:192,1,280,2|0,0:0|0:0,0:0:0:0:
240,336,48099,2,0,L|240:192,1,140,2|2,0:0|0:0,0:0:0:0:
144,336,48784,2,0,L|144:256,1,70
144,192,49127,1,2,0:0:0:0:
144,112,49299,2,0,L|144:16,2,70
16,112,49813,2,0,B|16:16|16:16|112:16|112:16|240:16,1,280,2|0,0:0|0:0,0:0:0:0:
336,32,51184,6,0,B|496:32|496:32,1,140,2|0,0:0|0:0,0:0:0:0:
480,112,51699,1,0,0:0:0:0:
480,192,51870,2,0,L|480:272,1,70,2|0,0:0|0:0,0:0:0:0:
400,256,52213,2,0,L|304:256,1,70,2|0,0:0|0:0,0:0:0:0:
320,256,52556,5,0,0:0:0:0:
256,304,52727,2,0,L|192:352,1,70,2|0,0:0|0:0,0:0:0:0:
208,240,53070,1,0,0:0:0:0:
272,192,53241,2,0,L|336:144,1,70,2|0,0:0|0:0,0:0:0:0:
208,144,53584,2,0,L|272:96,1,70
336,80,53927,6,0,L|416:80,1,70,2|0,0:0|0:0,0:0:0:0:
480,80,54270,2,0,L|480:176,1,70,0|2,0:0|0:0,0:0:0:0:
400,144,54613,2,0,L|400:224,1,70,0|2,0:0|0:0,0:0:0:0:
320,224,54956,2,0,L|320:320,1,70,0|2,0:0|0:0,0:0:0:0:
256,192,55299,12,0,56670,0:0:0:0:
224,176,57013,6,0,L|128:176,1,70
80,176,57356,1,2,0:0:0:0:
80,96,57527,2,0,L|176:96,1,70,0|2,0:0|0:0,0:0:0:0:
224,96,57870,1,0,0:0:0:0:
256,192,58041,12,0,59413,0:0:0:0:
368,176,59756,6,0,L|368:272,1,70
368,320,60099,1,2,0:0:0:0:
288,320,60270,2,0,L|288:224,1,70,0|2,0:0|0:0,0:0:0:0:
288,176,60613,1,0,0:0:0:0:
208,128,60784,2,0,B|192:144|192:144|208:160|208:160|192:176|192:176|208:192|208:192|192:208|192:208|208:224|208:224|192:240|192:240|208:256|208:256|192:272|192:272|208:288|208:288|192:304|192:304|208:320|208:320|192:336|192:336,1,280,0|2,0:0|0:0,0:0:0:0:
240,128,61813,6,0,L|160:128,1,70
96,128,62156,2,0,B|48:128|48:128|48:176|48:176|112:176|112:176,1,140,2|0,0:0|0:0,0:0:0:0:
160,176,62670,1,2,0:0:0:0:
240,176,62841,2,0,B|288:176|288:176|288:224|288:224|240:224|240:224,1,140,2|0,0:0|0:0,0:0:0:0:
160,224,63527,5,0,0:0:0:0:
160,304,63699,2,2,L|16:304,1,140
20,224,64213,2,0,L|180:224,1,140,2|0,0:0|0:0,0:0:0:0:
240,224,64727,1,0,0:0:0:0:
240,320,64899,6,0,L|320:320,1,70,2|0,0:0|0:0,0:0:0:0:
384,240,65241,2,0,L|304:240,1,70,2|0,0:0|0:0,0:0:0:0:
272,160,65584,2,0,L|368:160,1,70,2|0,0:0|0:0,0:0:0:0:
432,160,65927,2,0,L|432:320,1,140,4|0,0:0|0:0,0:0:0:0:
352,304,66613,6,0,B|288:272|288:272|224:304|224:304,1,140,2|0,0:0|0:0,0:0:0:0:
144,336,67299,1,0,0:0:0:0:
144,240,67641,1,0,0:0:0:0:
224,208,67984,2,0,B|288:176|288:176|352:208|352:208,1,140,2|0,0:0|0:0,0:0:0:0:
432,240,68670,1,0,0:0:0:0:
368,144,69013,5,0,0:0:0:0:
256,144,69356,2,0,L|256:64,2,70,2|0|0,0:0|0:0|0:0,0:0:0:0:
144,144,70041,1,0,0:0:0:0:
144,240,70384,1,0,0:0:0:0:
256,240,70727,2,0,L|256:320,2,70,2|0|0,0:0|0:0|0:0,0:0:0:0:
368,240,71413,1,0,0:0:0:0:
256,192,71756,12,4,76899,0:0:0:0:
80,112,77241,6,0,L|80:272,2,140
160,112,78099,2,0,L|160:208,1,70,2|0,0:0|0:0,0:0:0:0:
160,256,78441,1,2,0:0:0:0:
160,336,78613,6,0,L|304:336,2,140
192,256,79470,2,0,L|272:256,1,70,2|0,0:0|0:0,0:0:0:0:
336,256,79813,1,2,0:0:0:0:
400,208,79984,6,0,L|400:64,2,140
320,208,80841,2,0,L|320:128,1,70,2|0,0:0|0:0,0:0:0:0:
320,64,81184,1,2,0:0:0:0:
288,0,81356,6,0,L|144:0,2,140
288,80,82213,2,0,L|208:80,1,70,2|0,0:0|0:0,0:0:0:0:
144,80,82556,1,2,0:0:0:0:
144,160,82727,6,0,L|288:160,1,140,0|2,0:0|0:0,0:0:0:0:
288,272,83413,2,0,L|144:272,1,140,0|2,0:0|0:0,0:0:0:0:
288,64,84099,6,0,L|224:128,1,70,0|2,0:0|0:0,0:0:0:0:
176,176,84441,2,0,L|112:240,1,70,0|2,0:0|0:0,0:0:0:0:
192,64,84784,2,0,L|256:128,1,70,0|2,0:0|0:0,0:0:0:0:
304,176,85127,2,0,L|368:240,1,70,0|2,0:0|0:0,0:0:0:0:
256,192,85470,12,4,87527,0:0:0:0:
352,64,88213,6,0,L|208:64,1,140,0|2,0:0|0:0,0:0:0:0:
112,144,88899,1,0,0:0:0:0:
116,64,89070,2,0,L|20:64,1,70,2|0,0:0|0:0,0:0:0:0:
48,144,89413,1,2,0:0:0:0:
48,224,89584,6,0,L|192:224,1,140,0|2,0:0|0:0,0:0:0:0:
272,128,90270,1,0,0:0:0:0:
272,224,90441,2,0,L|368:224,1,70,2|0,0:0|0:0,0:0:0:0:
336,128,90784,1,2,0:0:0:0:
432,128,90956,6,0,L|432:272,1,140,0|2,0:0|0:0,0:0:0:0:
320,272,91470,1,0,0:0:0:0:
320,192,91641,2,0,L|240:192,1,70
240,272,91984,1,2,0:0:0:0:
80,288,92327,6,0,L|192:176,1,140,0|2,0:0|0:0,0:0:0:0:
240,128,92841,1,0,0:0:0:0:
128,128,93013,2,0,L|192:64,1,70
240,16,93356,1,2,0:0:0:0:
192,208,93699,6,0,L|304:96,1,140,0|2,0:0|0:0,0:0:0:0:
240,288,94384,2,0,L|304:224,1,70,0|2,0:0|0:0,0:0:0:0:
352,176,94727,2,0,L|416:112,1,70,0|2,0:0|0:0,0:0:0:0:
416,240,95070,6,0,L|304:352,1,140,0|2,0:0|0:0,0:0:0:0:
336,144,95756,2,0,L|272:208,1,70,0|2,0:0|0:0,0:0:0:0:
224,256,96099,2,0,L|160:320,1,70,0|2,0:0|0:0,0:0:0:0:
48,288,96441,6,0,B|64:240|64:240|48:240|48:240|64:208|64:208|48:208|48:208|64:160|64:160|48:160|48:160|64:128|64:128,1,210,0|2,0:0|0:0,0:0:0:0:
128,128,97127,2,0,L|224:128,2,70,0|2|0,0:0|0:0|0:0,0:0:0:0:
128,208,97641,1,2,0:0:0:0:
192,304,97813,6,0,B|144:288|144:288|144:304|144:304|112:288|112:288|112:304|112:304|64:288|64:288|64:304|64:304|16:288|16:288,1,210,0|2,0:0|0:0,0:0:0:0:
112,208,98499,2,0,L|16:208,1,70,0|2,0:0|0:0,0:0:0:0:
48,128,98841,1,0,0:0:0:0:
160,80,99184,6,0,L|320:80,1,140,0|2,0:0|0:0,0:0:0:0:
320,176,99870,1,2,0:0:0:0:
192,176,100041,2,2,L|240:176,2,35
112,176,100384,1,2,0:0:0:0:
112,272,100556,6,0,L|272:272,1,140,0|2,0:0|0:0,0:0:0:0:
336,272,101241,1,2,0:0:0:0:
448,272,101413,2,2,L|400:272,2,35
448,192,101756,2,0,L|368:192,1,70,2|0,0:0|0:0,0:0:0:0:
256,96,102270,6,0,L|256:176,3,70,2|0|2|0,0:0|0:0|0:0|0:0,0:0:0:0:
256,16,102956,1,2,0:0:0:0:
176,16,103299,1,0,0:0:0:0:
176,96,103641,2,0,L|176:176,3,70,2|0|2|0,0:0|0:0|0:0|0:0,0:0:0:0:
176,256,104327,1,2,0:0:0:0:
432,224,104670,6,0,L|288:224,1,140,0|2,0:0|0:0,0:0:0:0:
192,224,105356,2,0,B|112:224|112:224|112:144|112:144,1,140
112,64,106041,1,0,0:0:0:0:
208,64,106384,1,2,0:0:0:0:
208,160,106727,2,0,B|288:160|288:160|288:224|288:224,1,140
256,192,107413,12,4,108784,0:0:0:0:
112,192,109127,6,0,L|192:192,1,70
256,192,109470,1,2,0:0:0:0:
336,192,109641,2,0,L|432:192,1,70
256,32,110156,6,2,L|288:32,16,17.5
256,112,111184,5,0,0:0:0:0:
256,272,111356,1,0,0:0:0:0:
256,192,111527,1,2,0:0:0:0:
448,112,111870,6,0,L|448:192,1,70
448,256,112213,1,2,0:0:0:0:
368,256,112384,2,0,L|288:256,1,70
224,256,112727,1,2,0:0:0:0:
144,256,112899,6,2,L|112:256,16,17.5
144,176,113927,2,0,L|64:176,1,70
96,96,114270,6,2,L|64:96,16,17.5
160,64,115127,2,2,L|240:64,1,70,0|2,0:0|0:0,0:0:0:0:
288,96,115470,1,0,0:0:0:0:
336,160,115641,6,2,L|368:160,16,17.5
288,224,116670,1,0,0:0:0:0:
352,224,116841,1,0,0:0:0:0:
320,288,117013,1,2,0:0:0:0:
208,288,117356,6,0,L|112:288,1,70
64,288,117699,1,2,0:0:0:0:
208,208,117870,2,0,L|128:208,1,70
64,208,118213,1,2,0:0:0:0:
64,128,118384,5,0,0:0:0:0:
144,128,118556,2,0,L|224:128,1,70,2|0,0:0|0:0,0:0:0:0:
288,128,118899,1,0,0:0:0:0:
368,128,119070,2,0,L|464:128,1,70,2|0,0:0|0:0,0:0:0:0:
432,208,119413,2,0,L|336:208,1,70,0|2,0:0|0:0,0:0:0:0:
256,192,119756,6,0,L|192:256,1,70,2|0,0:0|0:0,0:0:0:0:
208,144,120099,2,0,L|144:208,1,70,2|0,0:0|0:0,0:0:0:0:
160,96,120441,2,0,L|96:160,1,70,2|0,0:0|0:0,0:0:0:0:
64,96,120784,1,2,0:0:0:0:
112,48,120956,1,0,0:0:0:0:
208,48,121127,6,0,B|352:48|352:48|352:192|352:192,1,280
432,176,121984,1,2,0:0:0:0:
432,96,122156,2,0,L|336:96,1,70,0|2,0:0|0:0,0:0:0:0:
352,176,122499,6,0,B|208:176|208:176|208:32|208:32,1,280
64,32,123356,2,0,L|144:32,1,70,2|0,0:0|0:0,0:0:0:0:
208,32,123699,1,2,0:0:0:0:
208,112,123870,6,0,L|304:112,1,70,0|2,0:0|0:0,0:0:0:0:
352,112,124213,1,0,0:0:0:0:
432,112,124384,1,0,0:0:0:0:
432,192,124556,6,0,L|336:192,1,70,0|2,0:0|0:0,0:0:0:0:
288,192,124899,1,0,0:0:0:0:
208,192,125070,2,0,L|112:192,1,70
144,272,125413,6,0,L|144:352,1,70,2|0,0:0|0:0,0:0:0:0:
224,336,125756,1,0,0:0:0:0:
224,256,125927,2,0,L|224:160,1,70,2|0,0:0|0:0,0:0:0:0:
224,112,126270,1,2,0:0:0:0:
384,64,126613,6,0,L|384:224,2,140,0|2|0,0:0|0:0|0:0,0:0:0:0:
304,64,127470,1,2,0:0:0:0:
304,144,127641,2,0,L|304:240,1,70,0|2,0:0|0:0,0:0:0:0:
208,208,127984,2,0,L|208:64,2,140,0|2|0,0:0|0:0|0:0,0:0:0:0:
128,208,128841,1,2,0:0:0:0:
128,144,129013,2,0,L|128:64,1,70,0|2,0:0|0:0,0:0:0:0:
64,176,129356,5,0,0:0:0:0:
144,176,129527,2,2,L|288:176,1,140,0|0,0:0|0:0,0:0:0:0:
352,176,130041,2,0,L|500:176,1,140
496,256,130556,1,0,0:0:0:0:
416,256,130727,2,0,L|272:352,1,140
288,256,131241,2,0,L|208:304,1,70,0|4,0:0|0:0,0:0:0:0:
160,336,131584,1,0,0:0:0:0:
160,256,131756,1,0,0:0:0:0:
256,192,132099,12,4,135870,0:0:0:0:
48,144,159527,5,0,0:0:0:0:
208,80,160213,1,2,0:0:0:0:
304,160,160556,2,0,L|448:160,1,140,2|2,0:0|0:0,0:0:0:0:
368,272,161584,1,2,0:0:0:0:
288,192,161927,1,2,0:0:0:0:
208,272,162270,1,0,0:0:0:0:
256,240,162956,6,0,L|112:240,1,140,2|2,0:0|0:0,0:0:0:0:
16,240,163641,1,2,0:0:0:0:
128,128,164327,1,2,0:0:0:0:
208,192,164670,1,2,0:0:0:0:
288,128,165013,1,0,0:0:0:0:
304,128,165699,5,2,0:0:0:0:
304,256,166384,1,0,0:0:0:0:
208,128,167070,1,2,0:0:0:0:
208,256,167756,1,0,0:0:0:0:
176,112,168441,5,2,0:0:0:0:
336,112,169127,1,0,0:0:0:0:
336,272,169813,1,2,0:0:0:0:
176,272,170499,1,0,0:0:0:0:
176,272,170841,6,0,L|272:144,1,140,0|2,0:0|0:0,0:0:0:0:
256,272,171527,2,0,L|352:144,1,140,0|2,0:0|0:0,0:0:0:0:
336,272,172213,6,0,L|432:144,1,140,0|2,0:0|0:0,0:0:0:0:
416,272,172899,2,0,L|512:144,1,140,0|2,0:0|0:0,0:0:0:0:
416,96,173584,6,0,L|320:96,1,70
272,96,173927,1,2,0:0:0:0:
336,192,174270,2,0,L|256:192,1,70
192,192,174613,1,2,0:0:0:0:
112,288,174956,6,0,L|192:288,1,70
256,288,175299,2,0,L|336:288,1,70,2|0,0:0|0:0,0:0:0:0:
400,288,175641,1,2,0:0:0:0:
304,192,175984,6,0,L|208:192,2,70,0|2|0,0:0|0:0|0:0,0:0:0:0:
384,192,176499,1,0,0:0:0:0:
336,112,176670,6,0,L|240:112,2,70,0|2|0,0:0|0:0|0:0,0:0:0:0:
416,112,177184,1,0,0:0:0:0:
416,32,177356,2,0,L|496:32,2,70,0|2|0,0:0|0:0|0:0,0:0:0:0:
336,32,177870,1,0,0:0:0:0:
256,32,178041,2,0,L|176:32,1,70,2|0,0:0|0:0,0:0:0:0:
112,32,178384,1,2,0:0:0:0:
368,192,178727,6,0,L|432:128,2,70,0|2|0,0:0|0:0|0:0,0:0:0:0:
272,192,179241,1,0,0:0:0:0:
176,192,179413,2,0,L|80:80,1,140,2|0,0:0|0:0,0:0:0:0:
80,224,179927,2,0,L|144:288,1,70
224,272,180441,5,0,0:0:0:0:
224,176,180613,2,0,L|304:176,1,70,0|2,0:0|0:0,0:0:0:0:
384,176,181127,1,0,0:0:0:0:
384,320,181470,6,0,L|384:240,1,70
384,176,181813,2,0,L|310:176,1,70
240,176,182156,1,2,0:0:0:0:
64,16,182841,6,0,L|64:160,1,140
144,96,183356,2,0,L|224:96,1,70,0|2,0:0|0:0,0:0:0:0:
304,176,183699,1,0,0:0:0:0:
208,176,183870,2,0,L|112:176,1,70
208,256,184213,6,0,L|208:336,1,70
288,208,184556,2,0,L|288:288,1,70
368,160,184899,1,2,0:0:0:0:
464,384,185584,6,0,L|464:240,1,140
464,160,186099,2,0,L|464:64,1,70,0|2,0:0|0:0,0:0:0:0:
384,80,186441,2,0,L|304:80,1,70
384,160,186784,1,2,0:0:0:0:
304,160,186956,6,0,L|208:160,1,70
160,160,187299,2,0,L|86:160,1,70
16,160,187641,1,2,0:0:0:0:
144,224,188327,6,0,L|256:320,1,140
320,368,188841,1,0,0:0:0:0:
416,336,189013,2,0,L|336:272,1,70,2|0,0:0|0:0,0:0:0:0:
288,240,189356,2,0,L|208:176,1,70,2|0,0:0|0:0,0:0:0:0:
176,144,189699,6,0,B|240:144|240:144|240:96|240:96|288:96|288:96,1,140
336,96,190213,2,0,L|416:96,1,70,0|2,0:0|0:0,0:0:0:0:
416,240,190727,1,0,0:0:0:0:
416,240,190899,1,0,0:0:0:0:
336,240,191070,2,0,L|192:240,1,140
192,160,191584,2,0,L|272:160,1,70,0|2,0:0|0:0,0:0:0:0:
320,64,192099,6,0,L|400:64,1,70
464,64,192441,2,0,L|464:160,1,70
464,208,192784,2,0,L|464:288,1,70
384,272,193127,2,0,B|336:256|336:256|288:272|288:272|240:256|240:256,1,140,2|0,0:0|0:0,0:0:0:0:
128,256,193813,5,0,0:0:0:0:
128,176,193984,2,0,L|128:80,1,70
128,32,194327,1,0,0:0:0:0:
208,32,194499,2,0,L|288:32,1,70,2|0,0:0|0:0,0:0:0:0:
352,32,194841,1,2,0:0:0:0:
448,144,195184,6,0,L|352:144,1,70
304,144,195527,2,0,L|208:144,1,70
160,144,195870,2,0,B|16:144,1,140,2|0,0:0|0:0,0:0:0:0:
48,304,196556,5,0,0:0:0:0:
128,304,196727,2,0,L|224:304,1,70
272,304,197070,1,0,0:0:0:0:
352,304,197241,2,0,B|512:304,1,140,2|2,0:0|0:0,0:0:0:0:
480,224,197927,6,0,L|480:80,2,140,2|0|2,0:0|0:0|0:0,0:0:0:0:
368,224,198956,1,0,0:0:0:0:
256,224,199299,2,0,L|256:64,2,140,2|0|2,0:0|0:0|0:0,0:0:0:0:
368,224,200327,1,0,0:0:0:0:
224,336,200670,6,0,L|160:256,1,70
144,224,201013,1,0,0:0:0:0:
144,224,201184,1,0,0:0:0:0:
144,112,201356,6,0,L|208:192,1,70
240,240,201699,1,0,0:0:0:0:
240,240,201870,1,0,0:0:0:0:
320,192,202041,6,0,L|256:128,2,70
384,240,202556,1,0,0:0:0:0:
432,176,202727,2,0,L|320:64,1,140,0|4,0:0|0:0,0:0:0:0:
