osu file format v14

[General]
AudioFilename: audio.mp3
AudioLeadIn: 0
PreviewTime: 41584
Countdown: 0
SampleSet: Soft
StackLeniency: 0.7
Mode: 0
LetterboxInBreaks: 0
CountdownOffset: 3
WidescreenStoryboard: 1

[Editor]
DistanceSpacing: 0.8
BeatDivisor: 16
GridSize: 16
TimelineZoom: 3.499999

[Metadata]
Title:Time Leaper
TitleUnicode:Time Leaper
Artist:Hinkik
ArtistUnicode:Hinkik
Creator:_kanekichigo_
Version:Time Runner
Source:
Tags:hinkik time leaper edm drums electro bass drumstep
BeatmapID:1137015
BeatmapSetID:532189

[Difficulty]
HPDrainRate:5
CircleSize:4.5
OverallDifficulty:5
ApproachRate:9
SliderMultiplier:1.4
SliderTickRate:1

[Events]
//Background and Video events
0,0,"ANIME-PICTURES.NET_-_477243-1910x1098-alice+in+wonderland-bmw-alice+%28wonderland%29-mad+hatter-march+hare-terabyte+%28rook777%29.png",0,0
//Break Periods
2,66469,71156
2,137441,158927
//Storyboard Layer 0 (Background)
//Storyboard Layer 1 (Fail)
//Storyboard Layer 2 (Pass)
//Storyboard Layer 3 (Foreground)
//Storyboard Sound Samples

[TimingPoints]
99,342.857142857143,4,2,1,100,1,0
22041,-100,4,2,1,100,0,0
44327,-100,4,2,1,100,0,1
66613,-100,4,2,1,100,0,0
110156,-100,4,2,1,100,0,1
137241,-100,4,2,1,100,0,0
178727,-100,4,2,1,100,0,1
203413,-100,4,2,1,100,0,0

[HitObjects]
32,128,22041,6,0,B|64:48|64:48|112:80,1,140,0|2,0:0|0:0,0:0:0:0:
208,144,22556,2,0,L|160:112,2,35
112,224,22899,1,0,0:0:0:0:
208,144,23070,2,0,L|272:96,1,70
224,256,23413,6,0,L|144:320,1,70
304,192,23756,2,0,L|368:144,1,70,2|0,0:0|0:0,0:0:0:0:
464,192,24099,1,0,0:0:0:0:
336,288,24270,1,0,0:0:0:0:
336,288,24441,2,0,L|400:240,1,70
192,288,24784,2,0,L|256:240,1,70
80,288,25127,1,2,0:0:0:0:
16,224,26156,6,0,P|96:224|144:160,1,140,0|2,0:0|0:0,0:0:0:0:
160,32,26670,1,0,0:0:0:0:
176,64,26756,1,0,0:0:0:0:
176,112,26841,1,0,0:0:0:0:
160,32,27013,1,0,0:0:0:0:
336,192,27184,2,0,L|256:240,1,70
288,96,27527,2,0,L|368:48,1,70
192,160,27870,1,2,0:0:0:0:
128,288,28899,6,0,L|-16:208,1,140,0|2,0:0|0:0,0:0:0:0:
256,224,29584,2,0,L|192:192,2,70
288,80,30099,1,0,0:0:0:0:
432,128,30270,2,0,L|512:176,1,70
288,80,30613,1,2,0:0:0:0:
480,144,30956,6,0,B|448:128|448:128|448:192|448:192|400:176,1,140
256,320,31641,2,0,L|330:250,1,70
208,176,31984,1,2,0:0:0:0:
416,176,32327,6,0,L|320:176,2,70
272,32,32841,1,0,0:0:0:0:
352,176,33013,2,0,L|288:240,1,70
432,96,33356,1,0,0:0:0:0:
112,176,33699,6,0,L|128:192,4,17.5
256,96,34041,1,0,0:0:0:0:
384,96,34384,2,0,L|384:240,1,140,0|2,0:0|0:0,0:0:0:0:
176,240,34899,5,0,0:0:0:0:
144,240,34984,1,0,0:0:0:0:
112,240,35070,1,0,0:0:0:0:
288,240,35241,1,0,0:0:0:0:
144,336,35413,2,0,L|240:336,1,70
176,240,35756,2,0,L|80:240,1,70
288,240,36099,1,2,0:0:0:0:
288,240,36441,6,0,L|304:256,4,17.5
80,224,36784,6,0,B|80:144,2,70
80,48,37299,2,0,L|160:48,1,70,0|2,0:0|0:0,0:0:0:0:
192,224,37641,5,0,0:0:0:0:
192,192,37727,1,0,0:0:0:0:
192,160,37813,1,0,0:0:0:0:
320,160,37984,1,0,0:0:0:0:
192,32,38156,2,0,L|288:32,1,70
368,32,38499,1,0,0:0:0:0:
176,128,38841,6,0,L|96:176,2,70
256,80,39356,1,8,0:0:0:0:
256,208,39527,2,0,L|176:256,2,70
352,144,40041,2,0,L|432:96,1,70,8|0,0:0|0:0,0:0:0:0:
432,224,40384,5,0,0:0:0:0:
400,240,40470,1,0,0:0:0:0:
368,256,40556,1,0,0:0:0:0:
512,144,40727,1,8,0:0:0:0:
416,112,40899,2,0,L|336:160,1,70
272,208,41241,1,8,0:0:0:0:
112,288,41584,5,0,0:0:0:0:
192,224,41756,2,0,L|304:128,1,140
48,224,42270,2,0,L|160:128,1,140
240,80,42784,1,0,0:0:0:0:
400,80,42956,6,0,L|448:144,1,70
272,256,43299,2,0,L|224:192,1,70
320,144,43641,1,0,0:0:0:0:
448,304,43813,2,0,L|400:240,1,70
160,288,44327,6,0,B|48:288|48:288|32:256|32:256|48:224|48:224|160:224,1,280,4|0,0:0|0:0,0:0:0:0:
256,320,45356,2,0,L|400:320,1,140,0|8,0:0|0:0,0:0:0:0:
256,208,45870,1,0,0:0:0:0:
256,176,45956,1,0,0:0:0:0:
256,144,46041,1,0,0:0:0:0:
400,144,46213,2,0,L|400:224,1,70
256,144,46556,2,0,L|256:64,2,70
256,256,47070,6,0,L|96:256,2,140,4|0|0,0:0|0:0|0:0,0:0:0:0:
32,256,48099,2,0,P|64:192|128:176,1,140,0|8,0:0|0:0,0:0:0:0:
224,144,48784,2,0,P|272:160|304:128,1,70
384,80,49127,1,0,0:0:0:0:
240,32,49299,2,0,L|160:32,2,70
48,96,49813,6,0,L|128:96,2,70,4|0|0,0:0|0:0|0:0,0:0:0:0:
272,176,50327,1,0,0:0:0:0:
272,176,50499,2,0,L|128:176,1,140
112,288,51184,5,8,0:0:0:0:
112,176,51356,1,0,0:0:0:0:
112,176,51441,1,0,0:0:0:0:
112,176,51527,1,0,0:0:0:0:
240,288,51699,1,8,0:0:0:0:
240,176,51870,2,0,L|320:176,2,70,0|0|8,0:0|0:0|0:0,0:0:0:0:
240,48,52384,1,0,0:0:0:0:
272,192,52556,6,0,B|192:192|192:192|192:112,1,140,0|8,0:0|0:0,0:0:0:0:
272,304,53070,2,0,L|176:304,1,70,0|8,0:0|0:0,0:0:0:0:
144,96,53584,5,0,0:0:0:0:
144,96,53756,5,0,0:0:0:0:
256,352,53927,5,0,0:0:0:0:
400,112,54099,5,0,0:0:0:0:
64,256,54270,5,0,0:0:0:0:
416,304,54441,5,0,0:0:0:0:
272,48,54613,5,0,0:0:0:0:
160,320,54784,5,0,0:0:0:0:
48,80,54956,5,0,0:0:0:0:
192,176,55127,5,0,0:0:0:0:
192,176,55299,5,0,0:0:0:0:
80,256,55470,1,0,0:0:0:0:
112,256,55556,1,0,0:0:0:0:
144,256,55641,1,0,0:0:0:0:
256,256,55813,1,0,0:0:0:0:
288,256,55984,2,0,L|368:256,1,70,8|0,0:0|0:0,0:0:0:0:
336,32,56327,2,0,P|368:80|448:80,1,140
208,32,57013,2,0,L|208:128,1,70
208,208,57356,1,8,0:0:0:0:
208,320,57527,2,0,L|288:320,2,70
384,288,58041,5,0,0:0:0:0:
448,144,58213,2,0,L|432:112,2,35
320,48,58556,1,0,0:0:0:0:
176,96,58727,2,0,L|133:39,1,70
320,256,59070,2,0,P|368:304|432:288,1,140
352,112,59756,2,0,L|432:48,1,70
256,192,60099,1,8,0:0:0:0:
160,272,60270,2,0,L|80:336,1,70
320,192,60784,6,0,B|320:128|256:96|192:112|160:192|192:240|240:256,1,280,0|8,0:0|0:0,0:0:0:0:
256,192,61813,1,0,0:0:0:0:
128,192,62156,2,0,P|64:240|48:304,1,140
160,304,62670,1,0,0:0:0:0:
272,304,62841,2,0,P|336:272|400:304,1,140,8|8,0:0|0:0,0:0:0:0:
192,144,63527,6,0,L|128:192,2,70,0|8|0,0:0|0:0|0:0,0:0:0:0:
304,96,64041,2,0,L|272:32,1,70,0|8,0:0|0:0,0:0:0:0:
176,304,64556,5,0,0:0:0:0:
128,192,64727,1,0,0:0:0:0:
176,80,64899,1,8,0:0:0:0:
336,80,65070,1,0,0:0:0:0:
176,304,65241,1,0,0:0:0:0:
384,192,65413,1,8,0:0:0:0:
128,192,65584,1,0,0:0:0:0:
336,304,65756,1,0,0:0:0:0:
256,192,65927,2,0,L|176:64,1,140,8|4,0:0|0:0,0:0:0:0:
80,144,71756,6,0,P|64:112|80:80,1,70
160,112,72099,1,0,0:0:0:0:
192,176,72270,1,0,0:0:0:0:
384,96,72441,6,0,P|432:112|448:144,1,70
448,224,72784,1,0,0:0:0:0:
368,176,72956,1,0,0:0:0:0:
320,352,73127,6,0,P|288:368|240:352,1,70
272,288,73470,1,0,0:0:0:0:
176,320,73641,1,0,0:0:0:0:
256,192,73813,6,0,L|336:192,2,70
176,192,74327,1,0,0:0:0:0:
256,192,74499,5,0,0:0:0:0:
256,112,74670,2,0,L|256:32,2,70
256,112,75184,5,0,0:0:0:0:
352,112,75356,2,0,L|448:112,2,70
352,112,75870,5,0,0:0:0:0:
352,208,76041,2,0,L|352:288,2,70
256,112,76556,6,0,L|256:16,1,70
256,272,76899,2,0,L|256:192,1,70
256,112,77241,6,0,L|400:112,2,140
256,240,78099,2,0,L|352:240,3,70,2|0|2|0,0:0|0:0|0:0|0:0,0:0:0:0:
160,240,78956,6,0,L|0:240,1,140
160,144,79470,1,2,0:0:0:0:
192,144,79556,1,0,0:0:0:0:
224,144,79641,1,0,0:0:0:0:
224,48,79813,2,0,L|272:48,1,35,2|0,0:0|0:0,0:0:0:0:
288,48,79984,1,0,0:0:0:0:
448,48,80327,6,0,P|480:112|448:192,1,140,2|0,0:0|0:0,0:0:0:0:
320,176,81013,2,0,P|304:256|336:304,1,140,2|0,0:0|0:0,0:0:0:0:
176,304,81699,2,0,P|144:240|176:160,1,140,2|0,0:0|0:0,0:0:0:0:
224,96,82384,2,0,P|256:64|304:64,1,70,2|0,0:0|0:0,0:0:0:0:
368,192,82727,5,0,0:0:0:0:
256,304,83070,1,0,0:0:0:0:
144,192,83413,1,0,0:0:0:0:
256,80,83756,1,0,0:0:0:0:
288,224,84099,6,0,L|352:288,1,70
176,112,84441,2,0,L|240:176,1,70
208,240,84784,2,0,L|144:304,1,70
352,96,85127,2,0,L|288:160,1,70
256,192,85470,12,4,87527,0:0:0:0:
176,96,88213,6,0,B|224:32|304:16,1,140,8|0,0:0|0:0,0:0:0:0:
224,192,88899,1,0,0:0:0:0:
320,128,89070,2,0,P|368:112|400:112,2,70
352,272,89584,6,0,B|304:336|224:352,1,140,8|0,0:0|0:0,0:0:0:0:
288,192,90270,1,0,0:0:0:0:
208,256,90441,2,0,P|176:272|128:272,2,70
304,128,90956,6,8,L|304:288,1,140,8|0,0:0|0:0,0:0:0:0:
304,368,91470,1,0,0:0:0:0:
400,272,91641,2,0,L|480:272,1,70
464,160,91984,1,0,0:0:0:0:
208,256,92327,6,0,L|208:112,1,140,8|0,0:0|0:0,0:0:0:0:
208,16,92841,1,0,0:0:0:0:
96,112,93013,2,0,L|0:112,1,70
32,224,93356,1,0,0:0:0:0:
144,192,93699,6,0,L|144:352,2,140,8|0|0,0:0|0:0|0:0,0:0:0:0:
256,192,94556,2,0,L|256:112,1,70
256,16,94899,1,0,0:0:0:0:
368,128,95070,6,0,L|368:272,2,140,8|0|0,0:0|0:0|0:0,0:0:0:0:
272,272,95927,2,0,L|176:272,1,70
112,272,96270,1,0,0:0:0:0:
48,176,96441,6,0,L|176:64,1,140,8|0,0:0|0:0,0:0:0:0:
256,0,96956,1,0,0:0:0:0:
336,80,97127,2,0,L|400:160,2,70
240,144,97641,1,0,0:0:0:0:
288,224,97813,6,0,L|384:368,1,140,8|0,0:0|0:0,0:0:0:0:
208,288,98327,1,0,0:0:0:0:
160,208,98499,2,0,L|64:64,1,140,8|0,0:0|0:0,0:0:0:0:
336,112,99184,6,0,P|400:32|448:32,1,140,8|0,0:0|0:0,0:0:0:0:
432,192,99870,2,0,L|432:272,1,70
320,336,100213,2,0,L|320:240,1,70
320,144,100556,6,0,P|272:80|208:64,1,140,8|0,0:0|0:0,0:0:0:0:
320,144,101241,2,0,L|320:224,1,70
208,224,101584,2,0,L|208:304,1,70
288,320,101927,6,0,L|384:320,2,70,8|0|0,0:0|0:0|0:0,0:0:0:0:
208,224,102441,1,0,0:0:0:0:
128,320,102613,2,0,L|48:320,2,70
176,80,103299,6,0,L|256:80,1,70,8|0,0:0|0:0,0:0:0:0:
352,80,103641,1,0,0:0:0:0:
352,192,103813,1,0,0:0:0:0:
240,192,103984,2,0,L|160:192,1,70
64,192,104327,1,0,0:0:0:0:
432,256,104670,6,0,L|432:112,1,140,8|0,0:0|0:0,0:0:0:0:
304,144,105356,6,0,L|192:256,1,140
80,256,106041,6,0,L|80:112,1,140,8|0,0:0|0:0,0:0:0:0:
208,144,106727,6,0,L|320:256,1,140
256,192,107413,12,4,110156,0:0:0:0:
144,160,110499,5,8,0:0:0:0:
144,64,110670,1,0,0:0:0:0:
256,64,110841,1,0,0:0:0:0:
256,240,111013,2,0,L|256:144,1,70,0|8,0:0|0:0,0:0:0:0:
256,64,111356,1,0,0:0:0:0:
144,64,111527,1,0,0:0:0:0:
368,64,111870,6,0,L|368:144,1,70,8|0,0:0|0:0,0:0:0:0:
256,64,112212,1,0,0:0:0:0:
256,176,112384,2,0,L|256:256,1,70,0|8,0:0|0:0,0:0:0:0:
256,352,112727,1,0,0:0:0:0:
112,336,112899,6,0,B|128:320|128:320|112:304|112:304|128:288|128:288|112:272|112:272|128:256|128:256|112:240|112:240|128:224|128:224|111:208|111:208|126:190|126:190|110:174|110:174|127:158|127:158|112:141|112:141|128:128|128:128,1,280,0|8,0:0|0:0,0:0:0:0:
240,48,113756,2,0,L|176:96,1,70
320,80,114099,1,0,0:0:0:0:
400,144,114270,6,0,B|384:160|384:160|400:176|400:176|384:192|384:192|400:208|400:208|384:224|384:224|400:240|400:240|384:256|384:256|399:272|399:272|383:285|383:285|399:302|399:302|385:320|385:320|398:333|398:333|382:353|382:353|398:367|398:367,1,280,0|8,0:0|0:0,0:0:0:0:
256,304,115127,2,0,L|320:352,1,70
192,336,115470,1,0,0:0:0:0:
320,256,115641,6,0,L|160:256,1,140,0|8,0:0|0:0,0:0:0:0:
256,160,116156,1,0,0:0:0:0:
112,176,116327,2,0,L|208:64,1,140,0|8,0:0|0:0,0:0:0:0:
256,160,116841,1,0,0:0:0:0:
304,64,117013,2,0,L|400:192,1,140,0|8,0:0|0:0,0:0:0:0:
256,160,117527,5,0,0:0:0:0:
256,256,117699,2,0,L|352:256,1,70
160,256,118041,2,0,L|80:256,1,70,8|0,0:0|0:0,0:0:0:0:
112,160,118384,5,0,0:0:0:0:
224,160,118556,2,0,L|256:80,1,70,8|0,0:0|0:0,0:0:0:0:
336,160,118899,1,0,0:0:0:0:
448,160,119070,2,8,L|480:96,1,70,8|0,0:0|0:0,0:0:0:0:
336,160,119413,2,0,L|304:240,1,70
208,288,119756,6,0,L|128:288,2,70,8|0|0,0:0|0:0|0:0,0:0:0:0:
176,176,120270,1,0,0:0:0:0:
208,176,120356,1,0,0:0:0:0:
240,176,120441,1,8,0:0:0:0:
272,64,120613,2,0,L|352:64,2,70
176,160,121127,6,0,L|240:224,2,70,0|8|0,0:0|0:0|0:0,0:0:0:0:
64,128,121641,1,0,0:0:0:0:
96,240,121813,2,0,L|160:304,2,70,0|8|0,0:0|0:0|0:0,0:0:0:0:
64,128,122327,1,0,0:0:0:0:
160,48,122499,6,0,L|240:48,1,70,0|8,0:0|0:0,0:0:0:0:
256,48,122756,1,0,0:0:0:0:
288,48,122841,1,0,0:0:0:0:
224,160,123013,2,0,L|128:160,1,70,0|8,0:0|0:0,0:0:0:0:
224,256,123356,1,0,0:0:0:0:
336,256,123527,2,0,L|416:256,1,70,8|0,0:0|0:0,0:0:0:0:
368,368,123870,6,0,L|208:368,1,140,0|8,0:0|0:0,0:0:0:0:
112,368,124384,1,0,0:0:0:0:
112,240,124556,2,0,L|272:240,1,140,0|8,0:0|0:0,0:0:0:0:
368,240,125070,1,0,0:0:0:0:
368,128,125241,6,0,L|224:128,1,140,0|8,0:0|0:0,0:0:0:0:
112,128,125756,1,0,0:0:0:0:
112,240,125927,2,0,B|192:240|192:240|192:176,1,140,0|8,0:0|0:0,0:0:0:0:
464,16,126613,6,0,L|464:160,1,140,8|0,0:0|0:0,0:0:0:0:
464,272,127127,1,0,0:0:0:0:
352,272,127299,2,0,L|352:128,1,140,8|0,0:0|0:0,0:0:0:0:
352,32,127813,1,0,0:0:0:0:
240,32,127984,6,0,L|160:32,1,70,8|0,0:0|0:0,0:0:0:0:
240,144,128327,1,0,0:0:0:0:
176,256,128499,2,0,L|272:256,1,70,8|0,0:0|0:0,0:0:0:0:
144,144,128841,2,0,L|64:144,1,70,0|8,0:0|0:0,0:0:0:0:
224,144,129184,1,0,0:0:0:0:
224,224,129356,6,0,L|224:320,2,70,0|8|0,0:0|0:0|0:0,0:0:0:0:
336,224,129870,2,0,L|336:144,1,70,0|8,0:0|0:0,0:0:0:0:
192,128,130384,5,0,0:0:0:0:
80,128,130556,2,0,L|80:32,1,70,0|8,0:0|0:0,0:0:0:0:
192,48,130899,2,0,L|288:48,1,70
384,48,131241,1,0,0:0:0:0:
384,80,131327,1,0,0:0:0:0:
384,112,131413,1,8,0:0:0:0:
384,224,131584,2,0,L|384:304,1,70
256,192,132099,12,0,136899,0:0:0:0:
256,192,137241,5,0,0:0:0:0:
144,189,159527,5,2,0:0:0:0:
352,192,160213,2,0,P|256:112|144:192,1,280,0|2,0:0|0:0,0:0:0:0:
320,320,161241,2,0,L|320:240,1,70
320,144,161584,1,0,0:0:0:0:
432,144,161756,2,0,L|432:240,1,70
432,32,162099,1,0,0:0:0:0:
320,32,162270,1,2,0:0:0:0:
256,32,162956,6,0,P|176:112|64:16,1,280,0|2,0:0|0:0,0:0:0:0:
64,112,163984,2,0,L|64:192,1,70
64,304,164327,1,0,0:0:0:0:
176,240,164499,2,0,L|176:160,2,70
176,352,165013,1,2,0:0:0:0:
256,128,165699,6,0,B|272:112|272:112|288:128|288:128|304:112|304:112|320:128|320:128|336:112|336:112|352:128|352:128|368:112|368:112|384:128|384:128|400:112|400:112|416:128|416:128|432:112|432:112|448:128|448:128|464:112|464:112,1,280,0|2,0:0|0:0,0:0:0:0:
256,256,167070,6,0,B|240:272|240:272|224:256|224:256|208:272|208:272|192:256|192:256|176:272|176:272|160:256|160:256|144:272|144:272|128:256|128:256|112:272|112:272|96:256|96:256|80:272|80:272|64:256|64:256|48:272|48:272,1,280,0|2,0:0|0:0,0:0:0:0:
64,144,167927,6,0,L|64:0,1,140
176,144,168441,2,0,L|176:0,1,140,2|0,0:0|0:0,0:0:0:0:
288,0,168956,1,0,0:0:0:0:
288,112,169127,6,0,L|368:112,1,70,2|0,0:0|0:0,0:0:0:0:
464,112,169470,1,0,0:0:0:0:
464,224,169641,2,0,L|384:224,1,70,2|0,0:0|0:0,0:0:0:0:
288,224,169984,2,0,L|208:224,2,70,2|0|2,0:0|0:0|0:0,0:0:0:0:
256,96,170499,5,2,0:0:0:0:
320,256,170841,1,0,0:0:0:0:
176,160,171184,1,0,0:0:0:0:
352,160,171527,1,0,0:0:0:0:
192,256,171870,1,2,0:0:0:0:
304,304,172213,6,0,L|384:304,1,70
480,304,172556,1,0,0:0:0:0:
480,192,172727,2,0,L|400:192,1,70
304,192,173070,1,0,0:0:0:0:
304,192,173241,1,2,0:0:0:0:
176,64,173584,6,0,L|320:64,1,140
320,320,174270,2,0,L|160:320,1,140,0|2,0:0|0:0,0:0:0:0:
256,240,174956,2,0,L|160:240,1,70
256,144,175299,2,0,L|336:144,2,70,0|0|2,0:0|0:0|0:0,0:0:0:0:
176,112,175984,5,0,0:0:0:0:
272,64,176156,1,2,0:0:0:0:
304,48,176241,1,2,0:0:0:0:
336,32,176327,1,2,0:0:0:0:
336,160,176499,6,0,L|256:208,1,70
208,240,176841,1,2,0:0:0:0:
176,256,176927,1,2,0:0:0:0:
144,272,177013,1,2,0:0:0:0:
256,336,177184,6,0,L|320:304,1,70
416,256,177527,1,2,0:0:0:0:
448,240,177613,1,2,0:0:0:0:
480,224,177699,1,2,0:0:0:0:
480,112,177870,5,0,0:0:0:0:
384,112,178041,2,0,L|288:112,1,70,2|0,0:0|0:0,0:0:0:0:
208,112,178384,1,2,0:0:0:0:
256,192,178727,12,0,180441,0:0:0:0:
256,192,180613,5,0,0:0:0:0:
256,192,180699,1,0,0:0:0:0:
256,192,180784,2,0,L|336:192,1,70,2|0,0:0|0:0,0:0:0:0:
400,192,181127,1,0,0:0:0:0:
112,224,181470,6,0,L|176:160,1,70
256,80,181813,2,0,L|192:144,1,70
161,174,182156,1,2,0:0:0:0:
368,96,182841,6,0,L|288:96,1,70
272,96,183099,1,0,0:0:0:0:
256,96,183184,1,0,0:0:0:0:
304,208,183356,2,0,L|384:208,1,70,0|2,0:0|0:0,0:0:0:0:
480,96,183699,2,0,L|480:176,1,70
480,272,184041,1,0,0:0:0:0:
352,320,184213,6,0,L|320:256,1,70
256,128,184556,2,0,L|288:192,1,70
319,254,184899,1,2,0:0:0:0:
288,288,185584,6,0,L|208:288,1,70
192,288,185841,1,0,0:0:0:0:
176,288,185927,1,0,0:0:0:0:
64,288,186099,2,0,L|64:192,1,70,0|2,0:0|0:0,0:0:0:0:
64,112,186441,2,0,L|64:32,2,70
144,96,186956,6,0,L|208:160,1,70
144,288,187299,2,0,L|210:221,1,70
240,192,187641,1,2,0:0:0:0:
192,16,188327,6,0,L|128:80,1,70
128,80,188584,1,0,0:0:0:0:
112,96,188670,1,0,0:0:0:0:
64,160,188842,2,0,L|0:224,1,70,0|2,0:0|0:0,0:0:0:0:
16,320,189184,2,0,L|80:384,1,70,0|2,0:0|0:0,0:0:0:0:
160,336,189527,1,0,0:0:0:0:
256,304,189699,6,0,L|144:192,2,140,0|0|2,0:0|0:0|0:0,0:0:0:0:
256,192,190727,2,0,L|256:112,1,70
256,16,191070,6,0,L|368:128,2,140,0|0|2,0:0|0:0|0:0,0:0:0:0:
256,192,192099,2,0,L|256:288,1,70
144,192,192441,6,0,B|144:336,2,140,0|0|2,0:0|0:0|0:0,0:0:0:0:
32,192,193813,5,0,0:0:0:0:
32,80,193984,2,0,L|112:80,1,70
208,80,194327,1,0,0:0:0:0:
208,192,194499,2,0,L|288:192,1,70,2|0,0:0|0:0,0:0:0:0:
384,192,194842,2,0,L|464:192,1,70
288,80,195184,6,0,B|432:80,2,140,0|0|2,0:0|0:0|0:0,0:0:0:0:
192,192,196556,5,0,0:0:0:0:
288,192,196727,2,0,L|384:192,1,70
368,304,197070,1,0,0:0:0:0:
256,304,197241,2,0,L|176:304,1,70,2|0,0:0|0:0,0:0:0:0:
80,304,197584,1,0,0:0:0:0:
128,80,197927,6,0,L|128:176,1,70
240,160,198270,2,0,L|240:240,1,70
128,224,198613,1,2,0:0:0:0:
368,304,199299,6,0,L|368:208,1,70
256,224,199641,2,0,L|256:144,1,70
368,224,199984,2,0,L|368:80,1,140,2|0,0:0|0:0,0:0:0:0:
144,144,200670,6,0,L|224:144,1,70
214,144,200927,1,0,0:0:0:0:
214,144,201013,1,8,0:0:0:0:
224,256,201184,2,0,L|128:256,1,70
64,256,201527,1,0,0:0:0:0:
64,256,201613,1,0,0:0:0:0:
64,256,201699,1,8,0:0:0:0:
64,144,201870,1,0,0:0:0:0:
208,112,202041,6,0,L|208:208,1,70,0|8,0:0|0:0,0:0:0:0:
304,112,202384,2,0,L|304:192,1,70,0|8,0:0|0:0,0:0:0:0:
192,256,202727,2,0,P|256:288|320:256,1,140,0|8,0:0|0:0,0:0:0:0:
