osu file format v14

[General]
AudioFilename: audio.mp3
AudioLeadIn: 0
PreviewTime: -1
Countdown: 1
SampleSet: Soft
StackLeniency: 0.7
Mode: 0
LetterboxInBreaks: 0
WidescreenStoryboard: 1

[Editor]
DistanceSpacing: 0.8
BeatDivisor: 4
GridSize: 8
TimelineZoom: 1.5

[Metadata]
Title:Time Leaper
TitleUnicode:Time Leaper
Artist:Hinkik
ArtistUnicode:Hinkik
Creator:TrueTails
Version:Hard
Source:
Tags:
BeatmapID:1101815
BeatmapSetID:518547

[Difficulty]
HPDrainRate:6
CircleSize:4
OverallDifficulty:3
ApproachRate:6
SliderMultiplier:2
SliderTickRate:1

[Events]
//Background and Video events
0,0,"pixel night.png",0,0
//Break Periods
2,22634,32356
//Storyboard Layer 0 (Background)
//Storyboard Layer 1 (Fail)
//Storyboard Layer 2 (Pass)
//Storyboard Layer 3 (Foreground)
//Storyboard Sound Samples

[TimingPoints]
492,685.714285714286,4,2,0,50,1,0
44377,685.714285714286,4,2,0,50,1,1
44377,-66.6666666666667,4,2,0,50,0,0
88262,685.714285714286,4,2,0,50,1,1
88262,-66.6666666666667,4,2,0,50,0,0
110204,685.714285714286,4,2,0,50,1,1

[Colours]
Combo1 : 255,255,255
Combo2 : 0,0,64
Combo3 : 128,0,128
Combo4 : 0,255,255

[HitObjects]
128,128,492,6,0,L|144:240,1,100
160,304,1177,1,8,0:0:0:0:
240,288,1520,1,0,0:0:0:0:
320,272,1863,6,0,P|352:232|328:224,1,100
248,208,2549,2,0,L|232:96,1,100,8|0,0:0|0:0,0:0:0:0:
312,96,3234,6,0,L|424:80,1,100
424,160,3920,1,8,0:0:0:0:
440,240,4263,1,0,0:0:0:0:
456,320,4606,6,0,L|352:336,2,100,0|0|8,0:0|0:0|0:0,0:0:0:0:
456,240,5634,1,0,0:0:0:0:
416,232,5806,1,0,0:0:0:0:
376,224,5977,6,0,P|288:208|264:248,1,100
272,288,6663,1,8,0:0:0:0:
256,368,7006,1,0,0:0:0:0:
176,352,7349,5,0,0:0:0:0:
160,272,7692,1,0,0:0:0:0:
144,192,8034,2,0,L|136:136,1,50,8|0,0:0|0:0,0:0:0:0:
176,144,8377,2,0,L|184:200,1,50
256,192,8720,5,0,0:0:0:0:
272,112,9063,1,0,0:0:0:0:
288,32,9406,1,8,0:0:0:0:
368,48,9749,1,0,0:0:0:0:
256,192,10092,12,0,10777,0:0:0:0:
96,152,11463,22,0,L|80:96,2,50
144,136,12149,2,0,L|128:80,2,50,8|0|0,0:0|0:0|0:0,0:0:0:0:
216,120,12834,6,0,P|256:80|264:104,1,100
280,160,13520,2,0,P|320:200|328:176,1,100,8|0,0:0|0:0,0:0:0:0:
328,96,14206,6,0,L|336:40,1,50
408,64,14549,1,0,0:0:0:0:
424,192,14892,2,0,L|416:248,1,50,8|0,0:0|0:0,0:0:0:0:
344,224,15234,1,0,0:0:0:0:
264,240,15577,6,0,P|224:288|176:248,2,100,0|0|8,0:0|0:0|0:0,0:0:0:0:
184,216,16606,1,0,0:0:0:0:
176,176,16777,1,0,0:0:0:0:
168,136,16949,6,0,L|152:32,1,100
232,40,17634,2,0,L|248:144,1,100,8|0,0:0|0:0,0:0:0:0:
247,138,18149,1,0,0:0:0:0:
256,176,18320,6,0,P|272:256|304:256,1,100
352,256,19006,2,0,L|336:152,1,100,8|0,0:0|0:0,0:0:0:0:
328,120,19520,1,0,0:0:0:0:
256,192,19692,12,0,22434,0:0:0:0:
112,128,33406,37,0,0:0:0:0:
128,208,33749,2,0,L|152:328,1,100
192,352,34263,1,0,0:0:0:0:
224,296,34434,2,0,L|200:192,1,100
296,192,35120,1,0,0:0:0:0:
312,272,35292,1,0,0:0:0:0:
400,272,35463,1,0,0:0:0:0:
384,192,35634,1,0,0:0:0:0:
368,112,35806,1,0,0:0:0:0:
296,192,36149,6,0,B|296:88|296:88|280:-8,1,200
280,0,37177,2,0,L|152:16,1,100
192,80,37863,1,0,0:0:0:0:
231,112,38034,1,0,0:0:0:0:
184,129,38206,1,0,0:0:0:0:
216,152,38377,1,0,0:0:0:0:
184,168,38549,1,0,0:0:0:0:
176,248,38892,6,0,L|384:264,2,200
184,208,40434,1,0,0:0:0:0:
192,168,40606,2,0,P|208:120|256:128,1,100
304,144,41120,1,0,0:0:0:0:
368,152,41292,2,0,P|432:160|440:192,1,100
256,192,41634,12,0,43006,0:0:0:0:
128,272,44377,22,0,L|144:112,1,150.000005722046
264,136,45062,2,0,P|328:96|368:144,2,150.000005722046,8|0|0,0:0|0:0|0:0,0:0:0:0:
256,216,46091,1,0,0:0:0:0:
248,272,46263,1,0,0:0:0:0:
320,272,46434,1,8,0:0:0:0:
328,216,46605,1,0,0:0:0:0:
400,216,46777,1,0,0:0:0:0:
336,64,47119,6,0,L|184:48,1,150.000005722046
176,120,47805,2,0,L|168:200,1,75.0000028610231,8|0,0:0|0:0,0:0:0:0:
160,272,48148,2,0,P|224:320|240:264,1,150.000005722046
232,237,48834,1,0,0:0:0:0:
205,184,49005,1,0,0:0:0:0:
248,141,49177,1,8,0:0:0:0:
301,168,49348,1,0,0:0:0:0:
292,228,49519,1,0,0:0:0:0:
288,304,49862,6,0,B|360:352|360:352|432:344,1,150.000005722046
416,272,50548,2,0,B|408:192|408:192|368:136,2,150.000005722046,8|0|0,0:0|0:0|0:0,0:0:0:0:
416,344,51577,1,0,0:0:0:0:
342,350,51748,1,0,0:0:0:0:
280,311,51919,1,8,0:0:0:0:
254,242,52091,1,0,0:0:0:0:
277,172,52262,1,0,0:0:0:0:
208,200,52605,6,0,L|128:192,2,75.0000028610231
216,144,53119,2,0,L|224:64,2,75.0000028610231,0|8|0,0:0|0:0|0:0,0:0:0:0:
280,152,53634,2,0,L|360:160,1,75.0000028610231
416,168,53977,2,0,P|440:248|408:320,2,150.000005722046,0|0|8,0:0|0:0|0:0,0:0:0:0:
296,144,55005,2,0,L|208:136,1,75.0000028610231
216,200,55348,6,0,B|208:352|208:352|360:360,2,300.000011444092,0|8|0,0:0|0:0|0:0,0:0:0:0:
224,128,57062,2,0,L|232:48,4,75.0000028610231,0|0|8|0|0,0:0|0:0|0:0|0:0|0:0,0:0:0:0:
336,144,58091,6,0,P|464:152|384:240,2,300.000011444092,0|8|0,0:0|0:0|0:0,0:0:0:0:
336,144,59805,1,0,0:0:0:0:
280,136,59977,1,0,0:0:0:0:
224,120,60148,1,8,0:0:0:0:
208,176,60319,1,0,0:0:0:0:
264,192,60491,1,0,0:0:0:0:
384,216,60834,6,0,P|368:320|328:208,2,300.000011444092,0|8|0,0:0|0:0|0:0,0:0:0:0:
384,96,62548,2,0,L|368:184,2,75.0000028610231,0|0|8,0:0|0:0|0:0,0:0:0:0:
328,80,63062,2,0,L|248:64,1,75.0000028610231
192,48,63405,1,0,0:0:0:0:
256,192,63577,12,0,66319,0:0:0:0:
