osu file format v14

[General]
AudioFilename: audio.mp3
AudioLeadIn: 1000
PreviewTime: 44249
Countdown: 1
SampleSet: Soft
StackLeniency: 0.7
Mode: 0
LetterboxInBreaks: 0
WidescreenStoryboard: 1

[Editor]
Bookmarks: 11335,22306,44249,55221,66192,77164,88138,129452
DistanceSpacing: 1.3
BeatDivisor: 4
GridSize: 4
TimelineZoom: 2.150003

[Metadata]
Title:Time Leaper
TitleUnicode:Time Leaper
Artist:Hinkik
ArtistUnicode:Hinkik
Creator:SkyDevil
Version:Insane
Source:
Tags:drumstep kingdom5500
BeatmapID:1119313
BeatmapSetID:520179

[Difficulty]
HPDrainRate:5
CircleSize:4
OverallDifficulty:8.4
ApproachRate:8.8
SliderMultiplier:1.8
SliderTickRate:2

[Events]
//Background and Video events
0,0,"bg.jpg",0,0
//Break Periods
//Storyboard Layer 0 (Background)
//Storyboard Layer 1 (Fail)
//Storyboard Layer 2 (Pass)
//Storyboard Layer 3 (Foreground)
//Storyboard Sound Samples

[TimingPoints]
367,342.857142857143,4,2,1,60,1,0
22309,-133.333333333333,4,2,1,60,0,0
43567,-100,4,2,1,80,0,0
66195,-133.333333333333,4,2,4,50,0,0
82652,-133.333333333333,4,2,1,60,0,0
88138,-80,4,2,1,95,0,1
107338,-100,4,2,1,95,0,0
110081,-66.6666666666667,4,2,1,95,0,1
129281,-100,4,2,0,95,0,0
131167,-100,4,2,1,95,0,0
131424,-100,4,2,0,95,0,0

[Colours]
Combo1 : 112,112,112
Combo2 : 255,128,192
Combo3 : 255,191,255
Combo4 : 239,239,239

[HitObjects]
84,104,367,6,0,P|56:164|64:216,1,90,2|0,0:0|0:0,0:0:0:0:
80,280,709,1,0,0:0:0:0:
140,164,881,1,0,0:0:0:0:
164,248,1052,6,0,P|204:272|248:268,1,90,10|0,0:0|0:0,0:0:0:0:
288,128,1395,1,0,0:0:0:0:
224,184,1567,1,0,0:0:0:0:
324,224,1738,6,0,L|436:264,1,90,2|0,0:0|0:0,0:0:0:0:
508,264,2081,1,0,0:0:0:0:
504,164,2252,1,2,0:0:0:0:
356,52,2424,6,0,P|308:36|260:48,1,90,10|0,0:0|0:0,0:0:0:0:
304,136,2767,1,0,0:0:0:0:
196,140,2938,1,0,0:0:0:0:
92,104,3109,6,0,P|68:164|80:208,1,90,2|0,0:0|0:0,0:0:0:0:
148,252,3452,1,0,0:0:0:0:
152,160,3624,1,0,0:0:0:0:
208,76,3795,6,0,P|228:132|280:152,1,90,10|0,0:0|0:0,0:0:0:0:
360,192,4138,1,0,0:0:0:0:
328,112,4309,1,0,0:0:0:0:
288,236,4481,6,0,L|268:332,1,90,2|0,0:0|0:0,0:0:0:0:
412,312,4824,1,0,0:0:0:0:
372,208,4995,1,2,0:0:0:0:
504,80,5167,6,0,L|484:176,1,90,10|0,0:0|0:0,0:0:0:0:
392,136,5509,1,2,0:0:0:0:
364,44,5681,1,0,0:0:0:0:
272,64,5852,6,0,P|244:120|256:168,1,90,2|0,0:0|0:0,0:0:0:0:
340,200,6195,1,0,0:0:0:0:
320,304,6367,1,0,0:0:0:0:
208,316,6538,6,2,L|84:348,1,90,10|0,0:0|0:0,0:0:0:0:
28,240,6881,1,0,0:0:0:0:
48,104,7052,1,0,0:0:0:0:
164,32,7224,6,0,L|264:48,1,90,2|0,0:0|0:0,0:0:0:0:
360,64,7567,1,0,0:0:0:0:
268,140,7738,1,2,0:0:0:0:
420,200,7909,6,0,P|436:252|428:304,1,90,10|0,0:0|0:0,0:0:0:0:
320,248,8252,1,0,0:0:0:0:
376,128,8424,1,0,0:0:0:0:
496,176,8595,6,0,P|512:240|496:288,1,90,2|0,0:0|0:0,0:0:0:0:
320,248,8938,1,0,0:0:0:0:
372,100,9109,1,0,0:0:0:0:
440,144,9281,6,0,P|400:180|360:180,1,90,10|0,0:0|0:0,0:0:0:0:
300,80,9624,1,0,0:0:0:0:
184,92,9795,1,0,0:0:0:0:
176,208,9967,6,0,L|152:308,1,90,2|0,0:0|0:0,0:0:0:0:
336,176,10309,2,0,L|360:76,1,90
116,240,10652,2,0,L|92:340,1,90
396,144,10995,2,0,L|420:44,1,90
216,160,11338,6,0,L|192:260,1,90,6|0,0:0|0:0,0:0:0:0:
404,216,11681,1,0,0:0:0:0:
296,132,11852,1,0,0:0:0:0:
344,280,12024,1,10,0:0:0:0:
368,148,12195,1,0,0:0:0:0:
344,280,12367,2,0,L|264:224,1,90
180,152,12709,6,0,P|204:88|248:72,1,90,2|0,0:0|0:0,0:0:0:0:
336,56,13052,1,0,0:0:0:0:
260,144,13224,1,2,0:0:0:0:
440,84,13395,1,10,0:0:0:0:
352,152,13567,1,0,0:0:0:0:
492,220,13738,2,0,P|456:232|404:232,1,90
288,272,14081,6,0,L|192:288,1,90,2|0,0:0|0:0,0:0:0:0:
72,272,14424,1,0,0:0:0:0:
16,160,14595,1,0,0:0:0:0:
96,64,14767,1,10,0:0:0:0:
220,92,14938,1,0,0:0:0:0:
168,204,15109,2,0,P|209:219|253:211,1,90
344,132,15452,6,0,L|444:156,1,90,2|0,0:0|0:0,0:0:0:0:
500,256,15795,1,0,0:0:0:0:
428,320,15967,1,2,0:0:0:0:
344,232,16138,1,10,0:0:0:0:
240,272,16309,1,0,0:0:0:0:
280,164,16481,2,0,P|236:152|184:196,1,90,2|0,0:0|0:0,0:0:0:0:
108,240,16824,6,0,L|76:148,1,90,2|0,0:0|0:0,0:0:0:0:
152,56,17167,1,0,0:0:0:0:
264,76,17338,1,0,0:0:0:0:
304,192,17509,1,10,0:0:0:0:
200,140,17681,1,0,0:0:0:0:
360,124,17852,2,0,P|384:176|376:228,1,90
288,316,18195,6,0,L|176:332,1,90,2|0,0:0|0:0,0:0:0:0:
100,264,18538,1,0,0:0:0:0:
132,152,18709,1,2,0:0:0:0:
228,220,18881,1,10,0:0:0:0:
340,184,19052,1,0,0:0:0:0:
424,264,19224,2,0,L|404:368,1,90
512,248,19567,6,0,P|492:200|428:180,1,90,2|0,0:0|0:0,0:0:0:0:
332,152,19909,1,0,0:0:0:0:
328,284,20081,1,0,0:0:0:0:
252,176,20252,1,10,0:0:0:0:
200,296,20424,1,0,0:0:0:0:
168,164,20595,2,0,P|136:136|80:136,1,90
100,256,20938,6,0,L|128:348,1,90,2|0,0:0|0:0,0:0:0:0:
240,284,21281,1,0,0:0:0:0:
352,344,21452,1,2,0:0:0:0:
336,168,21624,1,10,0:0:0:0:
436,212,21795,1,0,0:0:0:0:
480,112,21967,1,2,0:0:0:0:
380,68,22138,1,0,0:0:0:0:
256,72,22309,5,4,0:0:0:0:
160,336,22995,1,0,0:0:0:0:
88,184,23681,2,0,L|232:204,1,135.000005149842
344,188,24195,1,0,0:0:0:0:
344,188,24367,2,0,L|420:196,1,67.5000025749208
356,340,24709,2,0,L|288:332,1,67.5000025749208
256,160,25052,6,0,P|272:116|440:108,1,236.250009012223
460,172,25738,2,0,P|444:216|276:224,1,236.250009012223
212,188,26424,2,0,P|164:176|64:224,1,135.000005149842
228,328,26938,1,0,0:0:0:0:
156,252,27109,1,0,0:0:0:0:
132,352,27281,1,0,0:0:0:0:
288,276,27452,1,0,0:0:0:0:
64,292,27624,1,0,0:0:0:0:
288,276,27795,2,0,B|296:348|384:348|384:348|452:296|416:228,1,270.000010299683
128,256,29167,6,0,P|92:316|128:368,1,135.000005149842
264,252,29681,1,0,0:0:0:0:
200,308,29852,1,0,0:0:0:0:
332,344,30024,1,0,0:0:0:0:
256,360,30195,1,0,0:0:0:0:
356,200,30367,1,0,0:0:0:0:
400,268,30538,6,0,P|444:224|312:128,1,270.000010299683
116,352,31567,1,0,0:0:0:0:
164,192,31738,1,0,0:0:0:0:
104,56,31909,2,0,L|256:44,1,135.000005149842
472,176,32595,2,0,L|320:188,1,135.000005149842
148,236,33109,1,0,0:0:0:0:
132,72,33281,6,0,B|167:29|209:26|256:52|256:52|353:25,1,236.250009012223,4|0,0:0|0:0,0:0:0:0:
450,58,33967,2,0,B|425:96|370:108|370:108|227:147,1,236.250009012223
164,208,34652,6,0,P|132:284|176:320,1,135.000005149842
340,248,35167,1,0,0:0:0:0:
420,336,35338,1,0,0:0:0:0:
240,204,35509,1,0,0:0:0:0:
328,164,35681,1,0,0:0:0:0:
256,352,35852,1,0,0:0:0:0:
432,200,36024,6,0,B|452:164|444:132|444:132|408:108|420:72|420:72|388:20|336:24,1,236.250009012223
295,97,36709,2,0,B|327:93|347:97|347:97|347:129|372:160|372:160|360:192|296:256,1,236.250009012223
240,308,37395,6,0,P|192:336|116:304,1,135.000005149842
156,136,37909,1,0,0:0:0:0:
184,256,38081,1,0,0:0:0:0:
60,188,38252,1,0,0:0:0:0:
116,52,38424,1,0,0:0:0:0:
240,144,38595,1,0,0:0:0:0:
396,120,38767,6,0,L|356:368,1,236.250009012223
276,368,39452,2,0,B|260:332|284:308|284:308|268:272|300:236|300:236|284:196|312:168|312:168|300:136,1,236.250009012223
244,92,40138,6,0,P|184:72|112:84,1,135.000005149842
156,304,40652,1,0,0:0:0:0:
52,192,40824,1,0,0:0:0:0:
240,224,40995,1,0,0:0:0:0:
160,148,41167,1,0,0:0:0:0:
332,104,41338,1,0,0:0:0:0:
112,60,41509,6,0,P|68:92|56:124,1,67.5000025749208
264,328,42024,2,0,P|300:304|312:264,1,67.5000025749208
236,40,42538,1,0,0:0:0:0:
148,192,42709,1,0,0:0:0:0:
264,328,42881,6,0,P|304:292|324:200,1,135.000005149842
132,68,43567,1,10,0:0:0:0:
184,264,43738,1,0,0:0:0:0:
248,104,43909,1,0,0:0:0:0:
104,208,44081,1,0,0:0:0:0:
328,148,44252,6,0,P|436:168|332:268,1,315,6|0,0:0|0:0,0:0:0:0:
272,220,44938,2,0,B|236:176|240:124|256:72|320:52|320:52|428:32,1,315,10|0,0:0|0:0,0:0:0:0:
456,100,45624,6,0,B|344:120|344:120|304:136|332:184,1,180,2|0,0:0|0:0,0:0:0:0:
476,344,46138,1,2,0:0:0:0:
324,272,46309,1,10,0:0:0:0:
484,272,46481,1,0,0:0:0:0:
356,352,46652,1,0,0:0:0:0:
472,192,46824,1,0,0:0:0:0:
268,224,46995,6,0,B|224:184|176:188|144:244|144:244|108:300|52:300|8:232,1,315,2|0,0:0|0:0,0:0:0:0:
88,180,47681,2,0,P|172:120|348:208,1,315,10|0,0:0|0:0,0:0:0:0:
356,288,48367,6,0,B|332:332|272:340|272:340|180:352,1,180,2|0,0:0|0:0,0:0:0:0:
16,212,48881,1,2,0:0:0:0:
120,352,49052,1,10,0:0:0:0:
120,152,49224,1,0,0:0:0:0:
228,264,49395,1,0,0:0:0:0:
100,252,49567,1,0,0:0:0:0:
228,160,49738,6,0,B|260:140|316:152|316:152|288:204|320:248|320:248|304:320|388:352,1,315,2|0,0:0|0:0,0:0:0:0:
404,268,50424,2,0,B|412:220|384:196|384:196|412:136|368:92|368:92|320:60|232:72,1,315,10|0,0:0|0:0,0:0:0:0:
164,96,51109,6,0,P|120:140|144:256,1,180,2|0,0:0|0:0,0:0:0:0:
364,296,51624,1,2,0:0:0:0:
220,184,51795,1,10,0:0:0:0:
320,368,51967,1,0,0:0:0:0:
228,296,52138,1,0,0:0:0:0:
408,192,52309,1,0,0:0:0:0:
300,40,52481,6,0,P|260:28|212:40,1,90,2|0,0:0|0:0,0:0:0:0:
212,344,52995,2,0,P|252:356|300:344,1,90,0|10,0:0|0:0,0:0:0:0:
240,128,53509,1,0,0:0:0:0:
352,276,53681,1,0,0:0:0:0:
256,276,53852,6,0,B|212:260|168:280|168:280|116:304|84:276,1,180,2|0,0:0|0:0,0:0:0:0:
108,124,54367,1,2,0:0:0:0:
240,48,54538,2,10,P|312:92|384:44,1,180,10|0,0:0|0:0,0:0:0:0:
512,136,55052,1,0,0:0:0:0:
392,232,55224,6,0,B|352:280|304:292|260:248|260:248|212:292|160:280|124:228,1,315,2|0,0:0|0:0,0:0:0:0:
192,160,55909,2,0,B|192:104|212:48|256:24|256:24|296:44|324:104|320:160,1,315,10|0,0:0|0:0,0:0:0:0:
256,224,56595,6,0,B|212:256|256:300|256:300|296:336|256:380,1,180,2|0,0:0|0:0,0:0:0:0:
56,240,57109,1,2,0:0:0:0:
156,360,57281,1,10,0:0:0:0:
116,152,57452,1,0,0:0:0:0:
80,348,57624,1,0,0:0:0:0:
196,212,57795,1,0,0:0:0:0:
72,80,57967,6,0,B|120:28|172:24|243:66|243:66|392:56,1,315,2|0,0:0|0:0,0:0:0:0:
472,52,58652,2,0,B|480:96|440:140|404:144|404:144|192:164,1,315,10|0,0:0|0:0,0:0:0:0:
124,168,59338,6,0,P|92:240|160:328,1,180,2|0,0:0|0:0,0:0:0:0:
336,208,59852,1,2,0:0:0:0:
192,236,60024,1,10,0:0:0:0:
244,324,60195,1,0,0:0:0:0:
232,96,60367,1,0,0:0:0:0:
472,268,60709,6,0,B|500:224|500:132|460:92|460:92|336:36,1,315,2|0,0:0|0:0,0:0:0:0:
248,28,61395,2,0,B|240:80|284:108|284:108|392:156|392:156|412:196|400:252|356:272,1,315,10|0,0:0|0:0,0:0:0:0:
332,328,62081,6,0,P|252:364|176:324,1,180,2|0,0:0|0:0,0:0:0:0:
208,172,62595,1,2,0:0:0:0:
260,280,62767,1,10,0:0:0:0:
288,136,62938,1,0,0:0:0:0:
260,280,63109,1,0,0:0:0:0:
188,92,63281,1,0,0:0:0:0:
380,40,63452,6,0,L|416:136,1,90,2|0,0:0|0:0,0:0:0:0:
132,344,63967,2,0,L|96:248,1,90,0|10,0:0|0:0,0:0:0:0:
316,112,64480,5,0,0:0:0:0:
256,304,64652,1,0,0:0:0:0:
164,192,64824,2,0,L|356:192,1,180,2|0,0:0|0:0,0:0:0:0:
192,44,65509,5,0,0:0:0:0:
316,144,65681,1,2,0:0:0:0:
192,240,65852,1,10,0:0:0:0:
316,336,66024,1,0,0:0:0:0:
256,192,66195,5,4,0:0:0:0:
256,192,66281,12,0,68938,0:0:0:0:
304,220,69281,5,2,0:0:0:0:
244,300,69452,1,0,0:0:0:0:
348,308,69624,1,0,0:0:0:0:
408,228,69795,1,0,0:0:0:0:
452,140,69967,2,0,L|488:60,1,67.5000025749208,2|0,0:0|0:0,0:0:0:0:
361,97,70309,6,0,L|301:225,1,135.000005149842,0|2,0:0|0:0,0:0:0:0:
252,300,70824,1,0,0:0:0:0:
264,100,70995,2,0,L|228:176,1,67.5000025749208
188,244,71338,1,2,0:0:0:0:
76,112,71681,6,0,L|68:28,3,67.5000025749208,0|0|2|0,0:0|0:0|0:0|0:0,0:0:0:0:
192,248,72367,2,0,L|200:332,3,67.5000025749208,0|0|2|0,0:0|0:0|0:0|0:0,0:0:0:0:
368,260,73052,6,0,L|364:188,1,67.5000025749208
468,68,73395,2,0,L|472:144,1,67.5000025749208,2|0,0:0|0:0,0:0:0:0:
452,328,73738,2,0,L|448:256,1,67.5000025749208
364,48,74081,1,2,0:0:0:0:
352,132,74252,1,0,0:0:0:0:
256,276,74424,6,0,P|188:316|116:296,1,135.000005149842,0|2,0:0|0:0,0:0:0:0:
80,176,74938,1,0,0:0:0:0:
152,56,75109,2,0,L|248:48,1,67.5000025749208
360,164,75452,2,0,L|264:172,1,67.5000025749208,2|0,0:0|0:0,0:0:0:0:
464,112,75795,6,0,P|500:172|488:244,1,135.000005149842,0|2,0:0|0:0,0:0:0:0:
376,328,76309,1,0,0:0:0:0:
228,304,76481,2,0,L|68:312,1,135.000005149842,0|2,0:0|0:0,0:0:0:0:
184,64,77167,6,0,L|344:56,1,135.000005149842,4|2,0:0|0:0,0:0:0:0:
256,352,77852,1,0,0:0:0:0:
248,224,78024,2,0,L|220:180,2,33.7500012874604,0|0|2,0:0|0:0|0:0,0:0:0:0:
388,172,78367,1,0,0:0:0:0:
388,172,78452,1,0,0:0:0:0:
388,172,78538,6,0,P|436:224|428:304,1,135.000005149842,0|2,0:0|0:0,0:0:0:0:
280,308,79052,1,0,0:0:0:0:
168,212,79224,2,0,L|88:220,1,67.5000025749208
72,240,79481,1,0,0:0:0:0:
60,272,79567,1,2,0:0:0:0:
200,340,79738,2,0,L|240:368,2,33.7500012874604
104,76,80252,6,0,L|200:60,1,67.5000025749208,2|0,0:0|0:0,0:0:0:0:
376,112,80595,2,0,L|280:128,1,67.5000025749208
284,144,80852,1,0,0:0:0:0:
276,176,80938,1,2,0:0:0:0:
376,292,81109,1,0,0:0:0:0:
376,292,81195,1,0,0:0:0:0:
376,292,81281,6,0,P|308:332|248:320,1,135.000005149842,0|2,0:0|0:0,0:0:0:0:
172,124,81795,1,0,0:0:0:0:
288,240,81967,1,0,0:0:0:0:
160,304,82138,2,0,L|136:352,2,33.7500012874604,0|0|2,0:0|0:0|0:0,0:0:0:0:
276,116,82481,2,0,L|300:68,2,33.7500012874604,0|0|2,0:0|0:0|0:0,0:0:0:0:
508,300,82995,5,2,0:0:0:0:
416,32,83338,1,2,0:0:0:0:
360,176,83509,2,0,L|372:232,2,33.7500012874604,0|0|2,0:0|0:0|0:0,0:0:0:0:
208,128,83852,2,0,L|168:96,2,33.7500012874604,0|0|2,0:0|0:0|0:0,0:0:0:0:
192,216,84195,5,2,0:0:0:0:
280,188,84367,1,2,0:0:0:0:
104,184,84538,1,2,0:0:0:0:
280,284,84709,1,2,0:0:0:0:
208,128,84881,1,2,0:0:0:0:
104,280,85052,1,2,0:0:0:0:
128,116,85224,1,2,0:0:0:0:
240,76,85395,6,2,L|264:40,1,33.7500012874604
276,136,85567,2,2,L|256:176,1,33.7500012874604
320,80,85738,2,2,L|368:92,1,33.7500012874604
344,160,85909,2,2,L|332:212,1,33.7500012874604
416,132,86081,2,2,L|448:120,1,33.7500012874604
408,204,86252,2,2,L|404:248,1,33.7500012874604
476,184,86424,2,2,L|512:220,1,33.7500012874604
464,276,86595,2,2,L|436:320,1,33.7500012874604
256,56,87452,5,10,0:0:0:0:
24,232,88138,6,0,B|32:296|88:288|88:288|96:228|176:232|176:232|192:292|152:320|152:320|160:368|220:360,1,393.75,6|0,0:0|0:0,0:0:0:0:
300,360,88824,6,0,B|352:368|360:320|360:320|320:292|336:232|336:232|416:228|424:288|424:288|480:296|488:232,1,393.75,10|0,0:0|0:0,0:0:0:0:
487,150,89509,6,0,B|480:88|424:96|424:96|416:156|336:152|336:152|320:92|360:64|360:64|352:16|300:23,1,393.75,2|0,0:0|0:0,0:0:0:0:
211,23,90195,6,0,B|160:16|152:64|152:64|192:92|176:152|176:152|96:156|88:96|88:96|32:88|24:150,1,393.75,10|0,0:0|0:0,0:0:0:0:
16,228,90881,6,0,P|48:336|184:348,1,225,2|0,0:0|0:0,0:0:0:0:
192,160,91395,1,0,0:0:0:0:
124,260,91567,1,8,0:0:0:0:
348,304,91738,1,0,0:0:0:0:
280,96,91909,1,0,0:0:0:0:
244,340,92081,1,0,0:0:0:0:
424,256,92252,6,0,B|484:252|508:192|508:192|476:136|412:120,1,225,2|0,0:0|0:0,0:0:0:0:
200,256,92767,1,2,0:0:0:0:
352,196,92938,1,10,0:0:0:0:
196,144,93109,1,0,0:0:0:0:
152,312,93281,1,0,0:0:0:0:
304,48,93624,6,0,B|276:112|332:148|332:148|376:116|384:64|384:64|432:48|432:48|424:128|492:152,1,393.75,6|0,0:0|0:0,0:0:0:0:
487,233,94309,6,0,B|424:256|432:336|432:336|384:320|384:320|376:268|332:236|332:236|276:272|304:336,1,393.75,10|0,0:0|0:0,0:0:0:0:
208,336,94995,6,0,B|236:272|180:236|180:236|136:268|128:320|128:320|80:336|80:336|88:256|24:233,1,393.75,2|0,0:0|0:0,0:0:0:0:
24,150,95681,6,0,B|88:128|80:48|80:48|128:64|128:64|136:116|180:148|180:148|236:112|208:48,1,393.75,10|0,0:0|0:0,0:0:0:0:
300,48,96367,6,0,B|328:116|392:96|392:96|456:208,1,225,2|0,0:0|0:0,0:0:0:0:
276,368,96881,1,0,0:0:0:0:
352,184,97052,1,10,0:0:0:0:
432,336,97224,1,0,0:0:0:0:
488,112,97395,1,0,0:0:0:0:
272,224,97567,1,0,0:0:0:0:
404,76,97738,6,0,B|364:56|320:72|320:72|264:148|168:100,1,225,2|0,0:0|0:0,0:0:0:0:
72,48,98252,1,0,0:0:0:0:
212,208,98424,1,10,0:0:0:0:
240,36,98595,1,0,0:0:0:0:
104,156,98767,1,2,0:0:0:0:
464,232,99109,6,0,B|504:284|480:340|480:340|372:340|372:340|376:276|324:252|324:252|276:336,1,393.75,6|0,0:0|0:0,0:0:0:0:
219,306,99795,6,0,B|188:252|188:252|136:276|140:340|140:340|32:340|32:340|8:284|48:232,1,393.75,10|0,0:0|0:0,0:0:0:0:
48,152,100481,6,0,B|8:100|32:44|32:44|140:44|140:44|136:108|188:132|188:132|219:77,1,393.75,2|0,0:0|0:0,0:0:0:0:
292,77,101167,6,0,B|324:132|324:132|376:108|372:44|372:44|480:44|480:44|504:100|464:152,1,393.75,10|0,0:0|0:0,0:0:0:0:
440,232,101852,6,0,P|412:316|280:316,1,225,2|0,0:0|0:0,0:0:0:0:
136,176,102367,1,0,0:0:0:0:
344,252,102538,1,10,0:0:0:0:
104,256,102709,1,0,0:0:0:0:
360,176,102881,1,0,0:0:0:0:
128,96,103052,1,0,0:0:0:0:
388,96,103224,6,0,B|432:112|452:148|452:148|432:296,1,225,2|0,0:0|0:0,0:0:0:0:
256,368,103738,1,0,0:0:0:0:
100,252,103909,1,10,0:0:0:0:
336,284,104081,1,0,0:0:0:0:
120,340,104252,1,0,0:0:0:0:
200,36,104595,6,0,B|232:60|232:120|212:136|168:128|136:108|88:88|136:40|144:20|80:8|48:20|24:48|24:88|48:120|56:148|124:156,1,393.75,6|0,0:0|0:0,0:0:0:0:
100,232,105281,6,0,B|56:236|48:264|24:296|24:336|48:364|80:376|144:364|136:344|88:296|136:276|168:256|212:248|232:264|232:324|200:348,1,393.75,10|0,0:0|0:0,0:0:0:0:
309,345,105967,6,0,B|280:324|280:264|300:248|344:256|376:276|424:296|376:344|368:364|432:376|464:364|488:336|488:296|464:264|456:236|411:232,1,393.75,2|0,0:0|0:0,0:0:0:0:
412,151,106652,6,0,B|456:148|464:120|488:88|488:48|464:20|432:8|368:20|376:40|424:88|376:108|344:128|300:136|280:120|280:60|309:38,1,393.75,10|0,0:0|0:0,0:0:0:0:
216,56,107338,6,0,B|182:96|210:164|210:164|146:132|90:164|90:164|122:92|82:52,1,360,4|0,0:0|0:0,0:0:0:0:
68,272,108367,1,0,0:0:0:0:
276,312,108709,1,0,0:0:0:0:
304,116,109052,2,0,L|320:20,2,90,0|2|10,0:0|0:0|0:0,0:0:0:0:
276,312,109738,1,0,0:0:0:0:
68,232,110081,6,0,P|259:348|447:225,1,472.500018024445,6|0,0:0|0:0,0:0:0:0:
312,232,110767,6,0,P|300:72|204:232,1,472.500018024445,10|0,0:0|0:0,0:0:0:0:
256,320,111452,6,0,P|352:300|428:152,1,270.000010299683,2|0,0:0|0:0,0:0:0:0:
164,60,111967,1,0,0:0:0:0:
264,232,112138,1,10,0:0:0:0:
324,84,112309,1,0,0:0:0:0:
148,296,112481,1,0,0:0:0:0:
92,116,112652,1,0,0:0:0:0:
264,316,112824,6,0,B|304:344|392:328|408:232|340:192|340:192|412:136|380:52|304:28|256:68,1,472.500018024445,2|0,0:0|0:0,0:0:0:0:
200,120,113509,6,0,B|144:84|64:88|8:192|8:192|56:296|144:308|208:264,1,472.500018024445,10|0,0:0|0:0,0:0:0:0:
264,192,114195,6,0,B|404:192|404:192|480:236|500:320,1,270.000010299683,2|0,0:0|0:0,0:0:0:0:
304,296,114709,1,2,0:0:0:0:
396,120,114881,1,10,0:0:0:0:
424,320,115052,1,0,0:0:0:0:
196,256,115224,1,2,0:0:0:0:
376,264,115395,1,0,0:0:0:0:
164,328,115567,6,0,B|88:304|68:268|84:188|120:168|168:168|244:224|296:168|312:124|308:92|292:63|212:32,1,472.500018024445,6|0,0:0|0:0,0:0:0:0:
128,68,116252,6,0,P|192:188|428:60,1,472.500018024445,10|0,0:0|0:0,0:0:0:0:
340,44,116938,6,0,L|412:316,1,270.000010299683,2|0,0:0|0:0,0:0:0:0:
152,296,117452,1,0,0:0:0:0:
256,120,117624,1,10,0:0:0:0:
236,364,117795,1,0,0:0:0:0:
336,208,117967,1,0,0:0:0:0:
136,136,118138,1,0,0:0:0:0:
280,40,118309,6,0,L|452:40,1,135.000005149842,2|0,0:0|0:0,0:0:0:0:
232,344,118824,2,0,L|60:344,1,135.000005149842,0|10,0:0|0:0,0:0:0:0:
312,112,119338,1,0,0:0:0:0:
192,272,119509,1,0,0:0:0:0:
384,192,119681,6,0,B|320:216|248:192|248:192|188:164|120:196,1,270.000010299683,2|0,0:0|0:0,0:0:0:0:
232,48,120195,1,2,0:0:0:0:
420,80,120367,2,0,P|504:168|452:304,1,270.000010299683,10|2,0:0|0:0,0:0:0:0:
216,356,120881,1,0,0:0:0:0:
40,192,121052,6,0,B|56:72|192:96|192:96|296:208|432:96,1,472.500018024445,6|0,0:0|0:0,0:0:0:0:
404,24,121738,6,0,B|488:8|544:96|476:172|476:172|436:216|452:284|452:284|328:336,1,472.500018024445,10|0,0:0|0:0,0:0:0:0:
248,352,122424,6,0,P|132:352|48:224,1,270.000010299683,2|0,0:0|0:0,0:0:0:0:
200,52,122938,1,2,0:0:0:0:
176,268,123109,1,10,0:0:0:0:
304,140,123281,1,0,0:0:0:0:
352,344,123452,1,0,0:0:0:0:
412,160,123624,1,0,0:0:0:0:
232,324,123795,6,0,B|160:336|100:264|100:264|168:192|96:124|96:124|140:48|232:56,1,472.500018024445,2|0,0:0|0:0,0:0:0:0:
308,120,124481,6,0,P|480:200|300:256,1,472.500018024445,10|0,0:0|0:0,0:0:0:0:
228,220,125167,6,0,B|192:196|108:192|72:284|72:284|144:360,1,270.000010299683,2|0,0:0|0:0,0:0:0:0:
328,332,125681,1,2,0:0:0:0:
256,112,125852,1,10,0:0:0:0:
172,280,126024,1,0,0:0:0:0:
392,280,126195,1,2,0:0:0:0:
84,20,126538,6,0,B|16:84|100:128|100:128|28:156|24:200|100:240|100:240|-4:312|92:372,1,472.500018024445,6|0,0:0|0:0,0:0:0:0:
180,328,127224,6,0,B|184:284|244:228|244:228|184:216|148:184|148:184|180:144|248:124|248:124|184:84|172:20,1,472.500018024445,10|0,0:0|0:0,0:0:0:0:
264,24,127909,6,0,B|304:88|384:64|384:64|420:200,1,270.000010299683,2|0,0:0|0:0,0:0:0:0:
496,372,128424,1,2,0:0:0:0:
512,152,128595,1,10,0:0:0:0:
324,364,128767,1,0,0:0:0:0:
312,184,128938,1,0,0:0:0:0:
476,288,129109,1,0,0:0:0:0:
236,328,129281,6,0,L|144:344,1,90
276,56,129795,2,0,L|368:40,1,90,0|2,0:0|0:0,0:0:0:0:
196,252,130310,1,0,0:0:0:0:
352,192,130481,1,2,0:0:0:0:
196,132,130652,2,0,P|140:192|200:252,1,180,2|0,0:0|0:0,0:0:0:0:
416,208,131167,5,2,0:0:0:0:
340,152,131338,1,10,0:0:0:0:
304,268,131509,1,0,0:0:0:0:
232,80,131681,1,2,0:0:0:0:
152,304,131852,1,0,0:0:0:0:
56,192,132024,5,4,0:0:0:0:
